osu file format v7

[General]
AudioFilename: Second Heaven - Second Subway.mp3
AudioLeadIn: 1533
PreviewTime: 46043
Countdown: 1
SampleSet: Normal
StackLeniency: 0.6
Mode: 0
LetterboxInBreaks: 1

[Editor]
DistanceSpacing: 0.800000011920929
BeatDivisor: 2
GridSize: 16

[Metadata]
Title:Second Subway
Artist:Nico Nico Douga
Creator:Lunah
Version:Easy
Source:Kyoto City Tozai Subway Line
Tags:Second Heaven teara LRJulien Kaneko

[Difficulty]
HPDrainRate:2
CircleSize:3
OverallDifficulty:2
SliderMultiplier:1.4
SliderTickRate:2

[Events]
//Background and Video events
0,0,"Keihan_Rokujizo_Station.jpg"
Video,0,"Second_Subway.flv"
//Break Periods
2,31747,36430
//Storyboard Layer 0 (Background)
//Storyboard Layer 1 (Fail)
//Storyboard Layer 2 (Pass)
//Storyboard Layer 3 (Foreground)
//Storyboard Sound Samples
//Background Colour Transformations
3,100,163,162,255

[TimingPoints]
2554,402.684563758389,4,1,0,90,1,0
13829,-100,4,1,0,91,0,0
14030,-200,4,2,0,0,0,0
15540,-100,4,1,0,0,0,0
18258,-100,4,2,0,79,0,0
24902,-100,4,1,0,49,0,0
31446,-200,4,1,0,31,0,0
37788,-100,4,1,0,40,0,0
39399,-100,4,1,0,50,0,0
41010,-100,4,1,0,61,0,0
41815,-100,4,1,0,69,0,0
42621,-100,4,1,0,76,0,0
43225,-100,4,1,0,83,0,0
43627,-100,4,1,0,86,0,0
44030,-100,4,1,0,89,0,0
71010,-100,4,1,0,89,0,0
71815,-100,4,1,0,89,0,0

[Colours]
Combo1 : 107,0,215
Combo2 : 255,255,128
Combo3 : 4,4,213
Combo4 : 0,136,0

[HitObjects]
64,64,2553,1,0
176,64,2956,2,0,B|320:64,1,140
432,64,3762,1,0
432,176,4164,2,0,B|432:288|288:288,1,140
320,176,4970,2,0,B|224:176|224:304,1,140
128,320,5775,5,0
48,240,6178,1,0
48,128,6580,1,0
112,32,6983,1,0
224,32,7386,2,0,B|400:32,1,140
416,128,8191,2,0,B|240:128,1,140
320,240,8996,6,0,B|320:320,1,70
320,144,10406,2,0,B|320:64,2,70
224,192,12017,6,0,B|144:192,2,70
336,192,12822,2,0,B|416:192,2,70
256,192,13426,12,0,15439
80,64,18661,6,0,B|256:64,1,140
336,64,19466,1,2
432,272,20272,2,0,B|272:272,1,140
176,272,21077,1,2
64,80,21882,6,0,B|64:224,1,140
64,336,22688,1,2
224,192,23493,2,0,B|416:192,1,140
480,192,24298,1,2
304,64,25104,5,0
192,64,25507,2,0,B|96:64|96:208,1,140
96,272,26312,1,8
208,272,26715,2,0,B|368:272,1,140
400,176,27520,2,0,B|240:176,1,140,0|8
144,176,28325,5,0
32,176,28728,1,0
32,64,29131,1,0
144,64,29533,1,8
256,64,29936,6,0,B|448:64|448:224|240:224|240:368,1,420
144,336,31547,1,4
256,192,37990,5,2
160,96,39600,5,0
352,96,41211,5,2
352,192,42017,5,0
352,288,42822,6,0,B|208:288,1,140,2|0
112,288,43627,6,0,B|112:112,1,140,2|0
80,64,46043,6,0,B|160:64,1,70
208,64,46446,2,0,B|304:64,1,70
336,64,46849,1,8
448,64,47251,1,8
448,176,47654,1,0
448,288,48057,1,0
336,288,48460,2,0,B|192:288,1,140
80,288,49265,6,0,B|80:192,1,70
80,160,49668,2,0,B|80:80,1,70
80,32,50070,1,8
192,32,50473,1,8
288,80,50876,2,0,B|224:208|448:144|384:320,1,280
160,320,52486,6,0,B|112:320|112:272,1,70
112,224,52889,2,0,B|128:176|176:208,1,70
224,208,53292,1,8
336,208,53694,1,8
448,208,54097,2,0,B|448:96|320:96,1,140
256,96,54902,2,0,B|96:96,1,140
112,208,55708,6,0,B|112:304,1,70
112,336,56111,2,0,B|208:336,1,70
240,336,56513,1,8
352,336,56916,1,8
448,288,57319,2,0,B|448:128,3,140,0|0|2|2
352,112,58929,5,0
240,112,59332,2,0,B|240:32,2,70
128,112,60137,1,8
128,224,60540,5,0
240,224,60943,2,0,B|240:304,2,70
352,224,61748,1,8
464,224,62151,6,0,B|464:32,1,140
352,80,62956,2,0,B|64:80,1,280
32,192,64164,1,0
144,192,64567,1,2
256,192,64970,1,2
368,192,65372,6,0,B|384:288,2,70
320,80,66178,1,8
320,80,66580,1,8
432,80,66983,2,0,B|448:-16,2,70
432,192,67788,1,8
432,304,68191,2,0,B|272:304,1,140,8|0
176,304,68996,5,0
64,304,69399,1,8
64,192,69802,2,0,B|64:48,1,140,8|0
176,96,70607,1,0
256,176,71010,1,0
336,256,71413,1,2
416,336,71815,1,4
