osu file format v8

[General]
AudioFilename: Music.mp3
AudioLeadIn: 1500
PreviewTime: -1
Countdown: 0
SampleSet: Soft
StackLeniency: 0.2
Mode: 0
LetterboxInBreaks: 1

[Editor]
DistanceSpacing: 0.800000011920929
BeatDivisor: 4
GridSize: 8

[Metadata]
Title:SUPER MARIO EVANS.
Artist:Nico Nico Douga
Creator:Rucker
Version:Basic
Source:
Tags:SnowWhite Uan quintitem evans samiljul

[Difficulty]
HPDrainRate:1
CircleSize:3
OverallDifficulty:3
ApproachRate:3
SliderMultiplier:1.4
SliderTickRate:1

[Events]
//Background and Video events
0,0,"bg.png"
Video,0,"Video.flv"
//Break Periods
//Storyboard Layer 0 (Background)
//Storyboard Layer 1 (Fail)
//Storyboard Layer 2 (Pass)
//Storyboard Layer 3 (Foreground)
//Storyboard Sound Samples
//Background Colour Transformations
3,100,0,128,255

[TimingPoints]
6717,324.341856316558,4,2,0,80,1,0
27635,-200,4,2,0,80,0,0
40446,-200,4,2,0,90,0,0
51149,-100,4,2,0,90,0,0
65095,-200,4,2,0,90,0,0
66392,-100,4,2,0,90,0,0
66392,-100,4,2,0,90,0,0
87798,-100,4,2,0,60,0,0
88446,-100,4,2,0,36,0,0
89095,-100,4,2,0,36,0,0
89744,-100,4,2,0,50,0,0
90392,-100,4,2,0,40,0,0
91041,-100,4,2,0,30,0,0
91689,-100,4,2,0,20,0,0
92338,-100,4,2,0,40,0,0
92986,-100,4,2,0,30,0,0
93635,-100,4,2,0,20,0,0
94283,-100,4,2,0,10,0,0
94933,-100,4,2,0,30,0,0
95581,-100,4,2,0,20,0,0
96230,-100,4,2,0,10,0,0
96878,-100,4,2,0,5,0,0
97527,-100,4,2,0,90,0,0
107911,-100,4,1,0,90,0,0

[Colours]
Combo1 : 255,192,162
Combo2 : 255,164,164
Combo3 : 125,255,125
Combo4 : 140,140,255

[HitObjects]
256,192,6717,2,0,B|256:360,2,140,0|0|4
136,120,8014,2,0,B|64:264,2,140,0|0|4
376,120,9311,2,0,B|448:264,2,140,0|0|4
256,192,10609,5,2
256,192,10933,1,2
256,192,11257,1,2
256,192,11582,1,2
256,192,11906,2,0,B|256:88|144:88,1,140
179,91,12555,1,2
179,91,12879,1,4
104,136,13203,6,0,B|104:312,1,140
104,276,13852,1,2
104,276,14176,1,4
176,328,14501,5,0
240,160,15149,5,2
392,256,15798,5,0
432,328,16122,1,0
472,256,16447,1,2
432,184,16771,1,2
392,256,17095,2,0,B|320:296|240:248,1,140
256,176,17744,2,0,B|256:104,2,69.9999999999999,2|0|4
168,176,18393,6,0,B|72:176|72:272,1,140,2|0
72,344,19041,2,0,B|0:344,2,69.9999999999999,2|0|4
160,344,19690,2,0,B|328:344,1,140,2|0
384,344,20339,2,0,B|432:272|376:208,1,140
296,224,20988,1,2
328,144,21312,1,2
392,88,21636,1,2
472,64,21961,1,4
472,152,22285,6,0,B|472:240|376:240,1,140,2|0
296,240,22934,2,0,B|296:328,2,69.9999999999999,2|0|4
296,144,23582,2,0,B|216:112|152:152,1,140,2|0
72,144,24231,2,0,B|72:72,2,69.9999999999999,2|0|4
72,232,24880,5,2
176,312,25528,5,2
312,328,26177,5,2
424,264,26826,5,2
448,136,27474,5,4
256,192,27637,12,0,30069
472,336,31366,5,2
456,248,31691,1,0
440,160,32015,1,0
296,56,32664,5,2
208,72,32988,1,0
120,88,33313,1,0
104,240,33961,5,2
112,328,34286,1,0
184,272,34610,1,0
320,152,35259,5,2
400,112,35583,1,0
480,152,35907,1,0
336,264,36556,5,2
416,304,36880,1,0
336,352,37205,1,0
160,336,37853,5,2
120,256,38178,1,0
160,176,38502,1,0
328,192,39151,5,2
376,120,39475,1,0
328,48,39799,1,0
56,64,40448,5,2
56,72,40772,1,0
136,104,41097,5,2
136,96,41421,1,0
216,64,41745,5,2
216,72,42070,1,0
296,104,42394,5,2
296,96,42718,1,0
376,64,43043,5,2
376,72,43367,1,0
456,104,43691,5,2
456,104,44016,1,0
376,152,44340,5,2
376,144,44664,1,0
296,104,44989,5,2
296,112,45313,1,0
216,152,45638,5,2
216,144,45962,1,0
136,104,46286,5,2
136,112,46611,1,0
56,152,46935,5,2
56,152,47259,1,0
136,192,47584,5,2
128,192,47908,1,0
56,232,48232,5,2
64,232,48557,1,0
56,320,48881,5,2
64,320,49205,1,0
144,272,49530,5,0
152,272,49854,1,0
224,216,50178,5,0
224,216,50503,2,0,B|272:216,2,35
224,304,51151,6,0,B|368:304,2,140,2|0|4
224,184,52449,6,0,B|368:184,2,140,2|0|4
224,184,53422,1,6
224,272,53746,6,0,B|368:272,2,140,2|0|4
224,144,55043,6,0,B|368:144,2,140,2|0|4
224,144,56016,1,2
224,232,56341,6,0,B|320:232,1,70
224,344,56989,6,0,B|320:344,1,70
224,232,57638,6,0,B|320:232,1,70
224,232,58287,6,0,B|320:232,2,70,0|0|4
80,96,59260,5,4
256,152,59909,5,4
432,96,60557,5,4
148,241,61206,5,6
212,305,61530,5,4
300,305,61855,5,6
364,241,62179,5,4
256,192,62503,12,0,63801
256,144,65098,6,0,B|256:24,2,105,2|0|4
176,176,66395,5,2
256,216,66720,1,0
336,176,67044,1,2
400,112,67368,1,0
440,32,67693,5,2
488,192,68341,1,4
448,344,68990,1,2
384,280,69314,5,0
304,248,69639,1,2
225,284,69963,1,0
160,344,70288,5,2
32,216,70936,1,4
160,80,71585,1,2
232,32,71909,1,0
304,80,72234,1,2
376,32,72558,1,0
448,80,72882,5,2
328,192,73531,1,4
448,304,74180,1,2
360,296,74504,1,0
272,312,74828,1,2
192,344,75153,1,0
104,336,75477,5,2
104,336,75801,1,0
104,336,76126,1,4
46,165,76774,1,2
86,87,77099,1,0
163,40,77423,1,2
248,56,77747,1,0
317,106,78072,1,2
317,106,78396,1,0
400,88,78720,5,4
470,225,79369,1,2
384,248,79693,1,0
350,330,80018,1,2
263,352,80342,1,0
179,330,80666,1,2
179,330,80991,1,0
96,304,81315,5,4
80,128,81964,1,2
136,56,82288,1,0
224,72,82612,1,2
224,160,82937,1,0
144,192,83261,1,2
144,192,83586,1,0
144,96,83910,5,4
320,80,84559,1,2
400,112,84883,1,0
440,192,85207,1,2
400,272,85532,1,0
320,304,85856,5,2
232,288,86180,1,0
176,216,86505,1,2
168,128,86829,1,0
255,104,87153,5,4
256,104,87802,1,4
256,104,88451,1,4
256,104,89099,1,4
168,192,89748,5,4
168,192,90397,1,4
168,192,91045,1,4
168,192,91694,1,4
256,280,92343,5,4
256,280,92991,1,4
256,280,93640,1,4
256,280,94289,1,4
344,192,94937,5,4
344,192,95586,1,4
344,192,96235,1,4
344,192,96884,1,4
256,104,97532,6,6,B|192:64|104:112,1,140,6|0
120,192,98181,2,0,B|32:192,2,70,0|0|4
208,192,98830,2,0,B|208:288|312:288,1,140,2|0
376,288,99478,2,0,B|376:360,2,70,2|0|4
464,288,100127,6,0,B|464:128,1,140,2|0
376,144,100776,2,0,B|376:72,2,70,2|0|4
288,144,101424,2,0,B|288:56|192:56,1,140,2|0
112,56,102073,2,0,B|32:56,2,70,0|0|4
112,144,102722,6,0,B|56:224|128:296,1,140
200,280,103370,2,0,B|200:352,2,70,0|0|4
288,280,104019,2,0,B|343:200|272:128,1,140,2|0
288,64,104668,2,0,B|208:64,2,70,2|0|4
376,64,105316,6,0,B|472:64|472:160,1,140,2|0
472,232,105965,2,0,B|304:232,1,140,2|0
248,232,106614,2,0,B|248:304,2,70,2|0|4
160,232,107262,2,0,B|56:232,2,70,2|0|4
160,144,107911,1,4
