osu file format v14

[General]
AudioFilename: owens.mp3
AudioLeadIn: 0
PreviewTime: -1
Countdown: 1
SampleSet: Normal
StackLeniency: 0.4
Mode: 3
LetterboxInBreaks: 1
SpecialStyle: 0
WidescreenStoryboard: 1

[Editor]
DistanceSpacing: 0.8
BeatDivisor: 4
GridSize: 8
TimelineZoom: 3.699999

[Metadata]
Title:Owens
TitleUnicode:Owens
Artist:Nico Nico Douga
ArtistUnicode:Nico Nico Douga
Creator:Imoera
Version:7k Aduka
Source:Touhou
Tags:
BeatmapID:661045
BeatmapSetID:293939

[Difficulty]
HPDrainRate:8
CircleSize:7
OverallDifficulty:5
ApproachRate:5
SliderMultiplier:0.9
SliderTickRate:1

[Events]
//Background and Video events
0,0,"Remilia Scarlet.jpg",0,0
//Break Periods
//Storyboard Layer 0 (Background)
//Storyboard Layer 1 (Fail)
//Storyboard Layer 2 (Pass)
//Storyboard Layer 3 (Foreground)
//Storyboard Sound Samples

[TimingPoints]
1287,324.324324324324,4,1,0,100,1,0
66005,-200,4,1,0,100,0,0
66300,-66.6666666666667,4,1,0,100,0,0
66477,-100,4,1,0,100,0,0
76370,-200,4,1,0,100,0,0
76692,-66.6666666666667,4,1,0,100,0,0
76854,-100,4,1,0,100,0,0
81748,-200,4,1,0,100,0,0
81962,-50,4,1,0,100,0,0
82043,-100,4,1,0,100,0,0
91935,-133.333333333333,4,1,0,100,0,0
92259,-66.6666666666667,4,1,0,100,0,0
92422,-100,4,1,0,100,0,0

[HitObjects]
36,192,1287,5,0,0:0:0:0:
402,192,1287,1,0,0:0:0:0:
256,192,1287,1,0,0:0:0:0:
475,192,1287,1,0,0:0:0:0:
182,192,1287,1,0,0:0:0:0:
109,192,1449,1,0,0:0:0:0:
329,192,1611,1,0,0:0:0:0:
402,192,1773,1,0,0:0:0:0:
182,192,1935,1,0,0:0:0:0:
475,192,2097,1,0,0:0:0:0:
329,192,2259,1,0,0:0:0:0:
256,192,2422,1,0,0:0:0:0:
329,192,2584,1,0,0:0:0:0:
36,192,2746,1,0,0:0:0:0:
256,192,2746,1,0,0:0:0:0:
402,192,2746,1,0,0:0:0:0:
109,192,2908,1,0,0:0:0:0:
329,192,3070,1,0,0:0:0:0:
36,192,3232,1,0,0:0:0:0:
402,192,3232,1,0,0:0:0:0:
329,192,3232,1,0,0:0:0:0:
182,192,3395,1,0,0:0:0:0:
36,192,3557,1,0,0:0:0:0:
402,192,3557,1,0,0:0:0:0:
329,192,3557,1,0,0:0:0:0:
329,192,3719,1,0,0:0:0:0:
36,192,3881,1,0,0:0:0:0:
256,192,3881,1,0,0:0:0:0:
402,192,3881,1,0,0:0:0:0:
475,192,3881,1,0,0:0:0:0:
329,192,4043,1,0,0:0:0:0:
182,192,4205,1,0,0:0:0:0:
109,192,4368,1,0,0:0:0:0:
256,192,4530,1,0,0:0:0:0:
402,192,4692,1,0,0:0:0:0:
182,192,4854,1,0,0:0:0:0:
256,192,5016,1,0,0:0:0:0:
475,192,5178,1,0,0:0:0:0:
329,192,5341,1,0,0:0:0:0:
182,192,5503,1,0,0:0:0:0:
109,192,5665,1,0,0:0:0:0:
256,192,5827,1,0,0:0:0:0:
402,192,5989,1,0,0:0:0:0:
329,192,6030,1,0,0:0:0:0:
256,192,6070,1,0,0:0:0:0:
182,192,6111,1,0,0:0:0:0:
109,192,6151,1,0,0:0:0:0:
182,192,6314,1,0,0:0:0:0:
256,192,6354,1,0,0:0:0:0:
329,192,6395,1,0,0:0:0:0:
402,192,6435,1,0,0:0:0:0:
36,192,6476,1,0,0:0:0:0:
109,192,6476,1,0,0:0:0:0:
329,192,6476,1,0,0:0:0:0:
475,192,6476,1,0,0:0:0:0:
182,192,6476,1,0,0:0:0:0:
256,192,6638,1,0,0:0:0:0:
36,192,6800,1,0,0:0:0:0:
109,192,6800,1,0,0:0:0:0:
329,192,6800,1,0,0:0:0:0:
475,192,6800,1,0,0:0:0:0:
182,192,6800,1,0,0:0:0:0:
182,192,6962,1,0,0:0:0:0:
402,192,7124,1,0,0:0:0:0:
329,192,7286,1,0,0:0:0:0:
109,192,7449,1,0,0:0:0:0:
475,192,7611,1,0,0:0:0:0:
256,192,7773,1,0,0:0:0:0:
36,192,7935,1,0,0:0:0:0:
402,192,7935,1,0,0:0:0:0:
182,192,7935,1,0,0:0:0:0:
329,192,8097,1,0,0:0:0:0:
329,192,8259,1,0,0:0:0:0:
36,192,8422,1,0,0:0:0:0:
402,192,8422,1,0,0:0:0:0:
256,192,8422,1,0,0:0:0:0:
329,192,8584,1,0,0:0:0:0:
36,192,8746,1,0,0:0:0:0:
402,192,8746,1,0,0:0:0:0:
256,192,8746,1,0,0:0:0:0:
329,192,8908,1,0,0:0:0:0:
36,192,9070,1,0,0:0:0:0:
182,192,9070,1,0,0:0:0:0:
475,192,9070,1,0,0:0:0:0:
402,192,9070,1,0,0:0:0:0:
256,192,9232,1,0,0:0:0:0:
402,192,9395,1,0,0:0:0:0:
329,192,9557,1,0,0:0:0:0:
36,192,9719,1,0,0:0:0:0:
182,192,9719,1,0,0:0:0:0:
402,192,9719,1,0,0:0:0:0:
475,192,9719,1,0,0:0:0:0:
256,192,9881,1,0,0:0:0:0:
109,192,10043,1,0,0:0:0:0:
329,192,10205,1,0,0:0:0:0:
36,192,10368,1,0,0:0:0:0:
402,192,10368,1,0,0:0:0:0:
256,192,10368,1,0,0:0:0:0:
475,192,10368,1,0,0:0:0:0:
36,192,10530,1,0,0:0:0:0:
402,192,10530,1,0,0:0:0:0:
256,192,10530,1,0,0:0:0:0:
182,192,10692,1,0,0:0:0:0:
109,192,10854,1,0,0:0:0:0:
36,192,11016,1,0,0:0:0:0:
329,192,11016,1,0,0:0:0:0:
475,192,11016,1,0,0:0:0:0:
256,192,11016,1,0,0:0:0:0:
36,192,11259,1,0,0:0:0:0:
256,192,11259,1,0,0:0:0:0:
402,192,11259,1,0,0:0:0:0:
182,192,11259,1,0,0:0:0:0:
36,192,11503,1,0,0:0:0:0:
182,192,11503,1,0,0:0:0:0:
329,192,11503,1,0,0:0:0:0:
109,192,11503,1,0,0:0:0:0:
256,192,11665,1,0,0:0:0:0:
402,192,11827,1,0,0:0:0:0:
36,192,11989,1,0,0:0:0:0:
256,192,11989,1,0,0:0:0:0:
329,192,11989,1,0,0:0:0:0:
475,192,11989,1,0,0:0:0:0:
182,192,11989,1,0,0:0:0:0:
475,192,12151,1,0,0:0:0:0:
109,192,12314,1,0,0:0:0:0:
256,192,12476,1,0,0:0:0:0:
182,192,12638,1,0,0:0:0:0:
475,192,12800,1,0,0:0:0:0:
329,192,12962,1,0,0:0:0:0:
109,192,13124,1,0,0:0:0:0:
329,192,13286,1,0,0:0:0:0:
402,192,13449,1,0,0:0:0:0:
109,192,13611,1,0,0:0:0:0:
329,192,13773,1,0,0:0:0:0:
182,192,13935,1,0,0:0:0:0:
402,192,14097,1,0,0:0:0:0:
256,192,14259,1,0,0:0:0:0:
402,192,14422,1,0,0:0:0:0:
475,192,14584,1,0,0:0:0:0:
109,192,14746,1,0,0:0:0:0:
256,192,14908,1,0,0:0:0:0:
329,192,15070,1,0,0:0:0:0:
109,192,15232,1,0,0:0:0:0:
182,192,15395,1,0,0:0:0:0:
36,192,15557,1,0,0:0:0:0:
256,192,15557,1,0,0:0:0:0:
329,192,15557,1,0,0:0:0:0:
475,192,15557,1,0,0:0:0:0:
36,192,15719,1,0,0:0:0:0:
256,192,15719,1,0,0:0:0:0:
475,192,15719,1,0,0:0:0:0:
402,192,15881,1,0,0:0:0:0:
329,192,16043,1,0,0:0:0:0:
36,192,16205,1,0,0:0:0:0:
402,192,16205,1,0,0:0:0:0:
182,192,16205,1,0,0:0:0:0:
329,192,16368,1,0,0:0:0:0:
36,192,16530,1,0,0:0:0:0:
182,192,16530,1,0,0:0:0:0:
402,192,16530,1,0,0:0:0:0:
329,192,16692,1,0,0:0:0:0:
36,192,16854,1,0,0:0:0:0:
182,192,16854,1,0,0:0:0:0:
402,192,16854,1,0,0:0:0:0:
329,192,17016,1,0,0:0:0:0:
36,192,17178,1,0,0:0:0:0:
329,192,17178,1,0,0:0:0:0:
475,192,17178,1,0,0:0:0:0:
256,192,17178,1,0,0:0:0:0:
109,192,17178,1,0,0:0:0:0:
182,192,17341,1,0,0:0:0:0:
402,192,17503,1,0,0:0:0:0:
109,192,17665,1,0,0:0:0:0:
329,192,17827,1,0,0:0:0:0:
256,192,17989,1,0,0:0:0:0:
36,192,18151,1,0,0:0:0:0:
182,192,18151,1,0,0:0:0:0:
475,192,18151,1,0,0:0:0:0:
402,192,18151,1,0,0:0:0:0:
329,192,18151,1,0,0:0:0:0:
109,192,18314,1,0,0:0:0:0:
402,192,18476,1,0,0:0:0:0:
256,192,18638,1,0,0:0:0:0:
329,192,18800,1,0,0:0:0:0:
109,192,18962,1,0,0:0:0:0:
475,192,19124,1,0,0:0:0:0:
256,192,19286,1,0,0:0:0:0:
36,192,19449,1,0,0:0:0:0:
329,192,19449,1,0,0:0:0:0:
402,192,19449,1,0,0:0:0:0:
475,192,19449,1,0,0:0:0:0:
182,192,19449,1,0,0:0:0:0:
256,192,19611,1,0,0:0:0:0:
402,192,19773,1,0,0:0:0:0:
182,192,19935,1,0,0:0:0:0:
36,192,20097,1,0,0:0:0:0:
109,192,20097,1,0,0:0:0:0:
329,192,20097,1,0,0:0:0:0:
402,192,20097,1,0,0:0:0:0:
475,192,20097,1,0,0:0:0:0:
256,192,20259,1,0,0:0:0:0:
109,192,20422,1,0,0:0:0:0:
329,192,20584,1,0,0:0:0:0:
36,192,20746,1,0,0:0:0:0:
475,192,20746,1,0,0:0:0:0:
109,192,20746,1,0,0:0:0:0:
36,192,20908,1,0,0:0:0:0:
182,192,20908,1,0,0:0:0:0:
402,192,20908,1,0,0:0:0:0:
36,192,21070,1,0,0:0:0:0:
329,192,21070,1,0,0:0:0:0:
256,192,21070,1,0,0:0:0:0:
36,192,21232,1,0,0:0:0:0:
182,192,21232,1,0,0:0:0:0:
402,192,21232,1,0,0:0:0:0:
36,192,21395,1,0,0:0:0:0:
475,192,21395,1,0,0:0:0:0:
109,192,21395,1,0,0:0:0:0:
402,192,21557,1,0,0:0:0:0:
329,192,21577,1,0,0:0:0:0:
256,192,21597,1,0,0:0:0:0:
182,192,21618,1,0,0:0:0:0:
109,192,21638,1,0,0:0:0:0:
182,192,21658,1,0,0:0:0:0:
256,192,21678,1,0,0:0:0:0:
329,192,21699,1,0,0:0:0:0:
36,192,21719,1,0,0:0:0:0:
475,192,21719,1,0,0:0:0:0:
109,192,21881,1,0,0:0:0:0:
182,192,21901,1,0,0:0:0:0:
256,192,21922,1,0,0:0:0:0:
329,192,21942,1,0,0:0:0:0:
402,192,21962,1,0,0:0:0:0:
329,192,21982,1,0,0:0:0:0:
256,192,22003,1,0,0:0:0:0:
182,192,22023,1,0,0:0:0:0:
36,192,22043,1,0,0:0:0:0:
475,192,22043,1,0,0:0:0:0:
36,192,24638,1,0,0:0:0:0:
256,192,24638,1,0,0:0:0:0:
402,192,24638,1,0,0:0:0:0:
182,192,24638,1,0,0:0:0:0:
329,192,24800,1,0,0:0:0:0:
256,192,24881,1,0,0:0:0:0:
109,192,24881,1,0,0:0:0:0:
182,192,25043,1,0,0:0:0:0:
402,192,25124,1,0,0:0:0:0:
329,192,25124,1,0,0:0:0:0:
109,192,25286,1,0,0:0:0:0:
256,192,25368,1,0,0:0:0:0:
182,192,25368,1,0,0:0:0:0:
329,192,25530,1,0,0:0:0:0:
109,192,25611,1,0,0:0:0:0:
182,192,25611,1,0,0:0:0:0:
402,192,25773,1,0,0:0:0:0:
329,192,25773,1,0,0:0:0:0:
256,192,25935,1,0,0:0:0:0:
182,192,25935,1,0,0:0:0:0:
329,192,26097,1,0,0:0:0:0:
256,192,26178,1,0,0:0:0:0:
402,192,26178,1,0,0:0:0:0:
329,192,26341,1,0,0:0:0:0:
109,192,26422,1,0,0:0:0:0:
182,192,26422,1,0,0:0:0:0:
256,192,26584,1,0,0:0:0:0:
402,192,26665,1,0,0:0:0:0:
329,192,26665,1,0,0:0:0:0:
109,192,26827,1,0,0:0:0:0:
256,192,26908,1,0,0:0:0:0:
182,192,26908,1,0,0:0:0:0:
329,192,27070,1,0,0:0:0:0:
402,192,27070,1,0,0:0:0:0:
109,192,27232,1,0,0:0:0:0:
182,192,27232,1,0,0:0:0:0:
475,192,27395,1,0,0:0:0:0:
402,192,27476,1,0,0:0:0:0:
329,192,27476,1,0,0:0:0:0:
256,192,27638,1,0,0:0:0:0:
475,192,27719,1,0,0:0:0:0:
182,192,27719,1,0,0:0:0:0:
402,192,27881,1,0,0:0:0:0:
109,192,27962,1,0,0:0:0:0:
329,192,27962,1,0,0:0:0:0:
256,192,28124,1,0,0:0:0:0:
182,192,28205,1,0,0:0:0:0:
329,192,28205,1,0,0:0:0:0:
256,192,28368,1,0,0:0:0:0:
402,192,28368,1,0,0:0:0:0:
475,192,28530,1,0,0:0:0:0:
182,192,28530,1,0,0:0:0:0:
256,192,28692,1,0,0:0:0:0:
109,192,28773,1,0,0:0:0:0:
182,192,28773,1,0,0:0:0:0:
329,192,28935,1,0,0:0:0:0:
402,192,29016,1,0,0:0:0:0:
475,192,29016,1,0,0:0:0:0:
182,192,29178,1,0,0:0:0:0:
256,192,29259,1,0,0:0:0:0:
329,192,29259,1,0,0:0:0:0:
402,192,29422,1,0,0:0:0:0:
475,192,29503,1,0,0:0:0:0:
329,192,29503,1,0,0:0:0:0:
256,192,29665,1,0,0:0:0:0:
402,192,29665,1,0,0:0:0:0:
329,192,29827,1,0,0:0:0:0:
109,192,29827,1,0,0:0:0:0:
182,192,29989,1,0,0:0:0:0:
256,192,30070,1,0,0:0:0:0:
329,192,30070,1,0,0:0:0:0:
475,192,30232,1,0,0:0:0:0:
329,192,30314,1,0,0:0:0:0:
402,192,30314,1,0,0:0:0:0:
256,192,30476,1,0,0:0:0:0:
402,192,30557,1,0,0:0:0:0:
475,192,30557,1,0,0:0:0:0:
109,192,30719,1,0,0:0:0:0:
182,192,30800,1,0,0:0:0:0:
329,192,30800,1,0,0:0:0:0:
256,192,30962,1,0,0:0:0:0:
109,192,30962,1,0,0:0:0:0:
182,192,31124,1,0,0:0:0:0:
475,192,31124,1,0,0:0:0:0:
402,192,31286,1,0,0:0:0:0:
256,192,31368,1,0,0:0:0:0:
329,192,31368,1,0,0:0:0:0:
109,192,31530,1,0,0:0:0:0:
256,192,31611,1,0,0:0:0:0:
182,192,31611,1,0,0:0:0:0:
329,192,31773,1,0,0:0:0:0:
109,192,31854,1,0,0:0:0:0:
182,192,31854,1,0,0:0:0:0:
329,192,32016,1,0,0:0:0:0:
182,192,32097,1,0,0:0:0:0:
475,192,32097,1,0,0:0:0:0:
329,192,32259,1,0,0:0:0:0:
256,192,32259,1,0,0:0:0:0:
109,192,32422,1,0,0:0:0:0:
402,192,32422,1,0,0:0:0:0:
182,192,32584,1,0,0:0:0:0:
256,192,32665,1,0,0:0:0:0:
329,192,32665,1,0,0:0:0:0:
475,192,32827,1,0,0:0:0:0:
256,192,32908,1,0,0:0:0:0:
402,192,32908,1,0,0:0:0:0:
109,192,33070,1,0,0:0:0:0:
256,192,33151,1,0,0:0:0:0:
182,192,33151,1,0,0:0:0:0:
329,192,33314,1,0,0:0:0:0:
256,192,33395,1,0,0:0:0:0:
475,192,33395,1,0,0:0:0:0:
182,192,33557,1,0,0:0:0:0:
402,192,33557,1,0,0:0:0:0:
109,192,33719,1,0,0:0:0:0:
329,192,33719,1,0,0:0:0:0:
402,192,33881,1,0,0:0:0:0:
109,192,33962,1,0,0:0:0:0:
256,192,33962,1,0,0:0:0:0:
182,192,34124,1,0,0:0:0:0:
256,192,34205,1,0,0:0:0:0:
475,192,34205,1,0,0:0:0:0:
402,192,34368,1,0,0:0:0:0:
256,192,34449,1,0,0:0:0:0:
182,192,34449,1,0,0:0:0:0:
402,192,34611,1,0,0:0:0:0:
109,192,34692,1,0,0:0:0:0:
329,192,34692,1,0,0:0:0:0:
256,192,34854,1,0,0:0:0:0:
475,192,34854,1,0,0:0:0:0:
36,192,35016,5,0,0:0:0:0:
182,192,35016,1,0,0:0:0:0:
402,192,35016,1,0,0:0:0:0:
329,192,35178,1,0,0:0:0:0:
256,192,35259,1,0,0:0:0:0:
109,192,35259,1,0,0:0:0:0:
182,192,35422,1,0,0:0:0:0:
329,192,35503,1,0,0:0:0:0:
402,192,35503,1,0,0:0:0:0:
109,192,35665,1,0,0:0:0:0:
256,192,35746,1,0,0:0:0:0:
475,192,35746,1,0,0:0:0:0:
329,192,35908,1,0,0:0:0:0:
256,192,35989,1,0,0:0:0:0:
182,192,35989,1,0,0:0:0:0:
329,192,36151,1,0,0:0:0:0:
402,192,36151,1,0,0:0:0:0:
109,192,36314,1,0,0:0:0:0:
182,192,36314,1,0,0:0:0:0:
475,192,36476,1,0,0:0:0:0:
256,192,36557,1,0,0:0:0:0:
402,192,36557,1,0,0:0:0:0:
182,192,36719,1,0,0:0:0:0:
109,192,36800,1,0,0:0:0:0:
329,192,36800,1,0,0:0:0:0:
402,192,36962,1,0,0:0:0:0:
256,192,37043,1,0,0:0:0:0:
182,192,37043,1,0,0:0:0:0:
182,192,37205,1,0,0:0:0:0:
402,192,37286,1,0,0:0:0:0:
256,192,37286,1,0,0:0:0:0:
329,192,37449,1,0,0:0:0:0:
182,192,37449,1,0,0:0:0:0:
256,192,37611,1,0,0:0:0:0:
109,192,37611,1,0,0:0:0:0:
256,192,37773,1,0,0:0:0:0:
402,192,37854,1,0,0:0:0:0:
329,192,37854,1,0,0:0:0:0:
329,192,38016,1,0,0:0:0:0:
256,192,38097,1,0,0:0:0:0:
109,192,38097,1,0,0:0:0:0:
182,192,38259,1,0,0:0:0:0:
329,192,38341,1,0,0:0:0:0:
475,192,38341,1,0,0:0:0:0:
182,192,38503,1,0,0:0:0:0:
475,192,38584,1,0,0:0:0:0:
256,192,38584,1,0,0:0:0:0:
402,192,38746,1,0,0:0:0:0:
182,192,38746,1,0,0:0:0:0:
109,192,38908,1,0,0:0:0:0:
329,192,38908,1,0,0:0:0:0:
329,192,39070,1,0,0:0:0:0:
256,192,39151,1,0,0:0:0:0:
182,192,39151,1,0,0:0:0:0:
329,192,39314,1,0,0:0:0:0:
402,192,39395,1,0,0:0:0:0:
475,192,39395,1,0,0:0:0:0:
256,192,39557,1,0,0:0:0:0:
109,192,39638,1,0,0:0:0:0:
182,192,39638,1,0,0:0:0:0:
256,192,39800,1,0,0:0:0:0:
109,192,39881,1,0,0:0:0:0:
329,192,39881,1,0,0:0:0:0:
182,192,40043,1,0,0:0:0:0:
402,192,40043,1,0,0:0:0:0:
475,192,40205,1,0,0:0:0:0:
256,192,40205,1,0,0:0:0:0:
256,192,40368,1,0,0:0:0:0:
182,192,40449,1,0,0:0:0:0:
109,192,40449,1,0,0:0:0:0:
475,192,40611,1,0,0:0:0:0:
329,192,40692,1,0,0:0:0:0:
402,192,40692,1,0,0:0:0:0:
256,192,40854,1,0,0:0:0:0:
402,192,40935,1,0,0:0:0:0:
475,192,40935,1,0,0:0:0:0:
256,192,41097,1,0,0:0:0:0:
182,192,41178,1,0,0:0:0:0:
329,192,41178,1,0,0:0:0:0:
256,192,41341,1,0,0:0:0:0:
402,192,41341,1,0,0:0:0:0:
182,192,41503,1,0,0:0:0:0:
329,192,41503,1,0,0:0:0:0:
329,192,41665,1,0,0:0:0:0:
256,192,41746,1,0,0:0:0:0:
109,192,41746,1,0,0:0:0:0:
182,192,41908,1,0,0:0:0:0:
329,192,41989,1,0,0:0:0:0:
475,192,41989,1,0,0:0:0:0:
109,192,42151,1,0,0:0:0:0:
182,192,42232,1,0,0:0:0:0:
402,192,42232,1,0,0:0:0:0:
329,192,42395,1,0,0:0:0:0:
475,192,42476,1,0,0:0:0:0:
109,192,42476,1,0,0:0:0:0:
402,192,42638,1,0,0:0:0:0:
182,192,42638,1,0,0:0:0:0:
109,192,42800,1,0,0:0:0:0:
475,192,42800,1,0,0:0:0:0:
256,192,42962,1,0,0:0:0:0:
475,192,43043,1,0,0:0:0:0:
402,192,43043,1,0,0:0:0:0:
182,192,43205,1,0,0:0:0:0:
256,192,43286,1,0,0:0:0:0:
329,192,43286,1,0,0:0:0:0:
329,192,43449,1,0,0:0:0:0:
109,192,43530,1,0,0:0:0:0:
182,192,43530,1,0,0:0:0:0:
329,192,43692,1,0,0:0:0:0:
402,192,43773,1,0,0:0:0:0:
182,192,43773,1,0,0:0:0:0:
256,192,43935,1,0,0:0:0:0:
329,192,43935,1,0,0:0:0:0:
109,192,44097,1,0,0:0:0:0:
475,192,44097,1,0,0:0:0:0:
109,192,44259,1,0,0:0:0:0:
182,192,44341,1,0,0:0:0:0:
329,192,44341,1,0,0:0:0:0:
402,192,44503,1,0,0:0:0:0:
256,192,44584,1,0,0:0:0:0:
475,192,44584,1,0,0:0:0:0:
182,192,44746,1,0,0:0:0:0:
109,192,44827,1,0,0:0:0:0:
402,192,44827,1,0,0:0:0:0:
256,192,44989,1,0,0:0:0:0:
182,192,45070,1,0,0:0:0:0:
329,192,45070,1,0,0:0:0:0:
109,192,45232,1,0,0:0:0:0:
402,192,45232,1,0,0:0:0:0:
36,192,45395,1,0,0:0:0:0:
475,192,45395,1,0,0:0:0:0:
329,192,45395,1,0,0:0:0:0:
182,192,45395,1,0,0:0:0:0:
256,192,45557,1,0,0:0:0:0:
109,192,45557,1,0,0:0:0:0:
329,192,45719,1,0,0:0:0:0:
256,192,45881,1,0,0:0:0:0:
402,192,45881,1,0,0:0:0:0:
182,192,46043,1,0,0:0:0:0:
256,192,46205,1,0,0:0:0:0:
475,192,46205,1,0,0:0:0:0:
109,192,46368,1,0,0:0:0:0:
329,192,46530,1,0,0:0:0:0:
256,192,46854,1,0,0:0:0:0:
475,192,46854,1,0,0:0:0:0:
329,192,47016,1,0,0:0:0:0:
256,192,47178,1,0,0:0:0:0:
109,192,47178,1,0,0:0:0:0:
182,192,47341,1,0,0:0:0:0:
329,192,47503,1,0,0:0:0:0:
256,192,47503,1,0,0:0:0:0:
475,192,47665,1,0,0:0:0:0:
182,192,47827,1,0,0:0:0:0:
36,192,47989,1,0,0:0:0:0:
329,192,47989,1,0,0:0:0:0:
475,192,47989,1,0,0:0:0:0:
256,192,48151,1,0,0:0:0:0:
36,192,48314,1,0,0:0:0:0:
329,192,48314,1,0,0:0:0:0:
475,192,48314,1,0,0:0:0:0:
402,192,48476,1,0,0:0:0:0:
256,192,48476,1,0,0:0:0:0:
109,192,48638,1,0,0:0:0:0:
256,192,48800,1,0,0:0:0:0:
329,192,48800,1,0,0:0:0:0:
402,192,48962,1,0,0:0:0:0:
329,192,49124,1,0,0:0:0:0:
256,192,49449,1,0,0:0:0:0:
109,192,49449,1,0,0:0:0:0:
402,192,49611,1,0,0:0:0:0:
256,192,49773,1,0,0:0:0:0:
329,192,49773,1,0,0:0:0:0:
109,192,49935,1,0,0:0:0:0:
256,192,50097,1,0,0:0:0:0:
402,192,50097,1,0,0:0:0:0:
475,192,50259,1,0,0:0:0:0:
329,192,50422,1,0,0:0:0:0:
36,192,50584,1,0,0:0:0:0:
402,192,50584,1,0,0:0:0:0:
182,192,50908,1,0,0:0:0:0:
109,192,50908,1,0,0:0:0:0:
329,192,51070,1,0,0:0:0:0:
256,192,51070,1,0,0:0:0:0:
475,192,51070,1,0,0:0:0:0:
182,192,51557,1,0,0:0:0:0:
109,192,51557,1,0,0:0:0:0:
329,192,51719,1,0,0:0:0:0:
256,192,51719,1,0,0:0:0:0:
475,192,51719,1,0,0:0:0:0:
36,192,51881,1,0,0:0:0:0:
402,192,51881,1,0,0:0:0:0:
182,192,52205,1,0,0:0:0:0:
109,192,52205,1,0,0:0:0:0:
329,192,52368,1,0,0:0:0:0:
256,192,52368,1,0,0:0:0:0:
475,192,52368,1,0,0:0:0:0:
182,192,52854,1,0,0:0:0:0:
109,192,52854,1,0,0:0:0:0:
329,192,53016,1,0,0:0:0:0:
256,192,53016,1,0,0:0:0:0:
475,192,53016,1,0,0:0:0:0:
36,192,53178,1,0,0:0:0:0:
402,192,53178,1,0,0:0:0:0:
182,192,53178,1,0,0:0:0:0:
402,192,53503,1,0,0:0:0:0:
36,192,53827,1,0,0:0:0:0:
402,192,53827,1,0,0:0:0:0:
182,192,53827,1,0,0:0:0:0:
402,192,54151,1,0,0:0:0:0:
36,192,54476,1,0,0:0:0:0:
402,192,54476,1,0,0:0:0:0:
182,192,54476,1,0,0:0:0:0:
402,192,54800,1,0,0:0:0:0:
36,192,55124,1,0,0:0:0:0:
402,192,55124,1,0,0:0:0:0:
182,192,55124,1,0,0:0:0:0:
402,192,55449,1,0,0:0:0:0:
36,192,55773,1,0,0:0:0:0:
402,192,55773,1,0,0:0:0:0:
402,192,55935,1,0,0:0:0:0:
402,192,56097,1,0,0:0:0:0:
402,192,56259,1,0,0:0:0:0:
256,192,56422,1,0,0:0:0:0:
256,192,56584,1,0,0:0:0:0:
256,192,56746,1,0,0:0:0:0:
256,192,56908,1,0,0:0:0:0:
109,192,57070,1,0,0:0:0:0:
256,192,57070,1,0,0:0:0:0:
182,192,57151,1,0,0:0:0:0:
329,192,57151,1,0,0:0:0:0:
256,192,57232,1,0,0:0:0:0:
402,192,57232,1,0,0:0:0:0:
182,192,57314,1,0,0:0:0:0:
475,192,57314,1,0,0:0:0:0:
109,192,57395,1,0,0:0:0:0:
256,192,57395,1,0,0:0:0:0:
182,192,57476,1,0,0:0:0:0:
329,192,57476,1,0,0:0:0:0:
402,192,57557,1,0,0:0:0:0:
256,192,57557,1,0,0:0:0:0:
475,192,57638,1,0,0:0:0:0:
329,192,57638,1,0,0:0:0:0:
402,192,57719,1,0,0:0:0:0:
256,192,57719,1,0,0:0:0:0:
329,192,57800,1,0,0:0:0:0:
182,192,57800,1,0,0:0:0:0:
109,192,57881,1,0,0:0:0:0:
402,192,57881,1,0,0:0:0:0:
475,192,57962,1,0,0:0:0:0:
256,192,57962,1,0,0:0:0:0:
402,192,58043,1,0,0:0:0:0:
182,192,58043,1,0,0:0:0:0:
329,192,58124,1,0,0:0:0:0:
109,192,58124,1,0,0:0:0:0:
402,192,58205,1,0,0:0:0:0:
182,192,58205,1,0,0:0:0:0:
475,192,58286,1,0,0:0:0:0:
256,192,58286,1,0,0:0:0:0:
402,192,58368,1,0,0:0:0:0:
109,192,58368,1,0,0:0:0:0:
109,192,59665,1,0,0:0:0:0:
256,192,59665,1,0,0:0:0:0:
182,192,59827,1,0,0:0:0:0:
329,192,59827,1,0,0:0:0:0:
256,192,59989,1,0,0:0:0:0:
402,192,59989,1,0,0:0:0:0:
182,192,60151,1,0,0:0:0:0:
475,192,60151,1,0,0:0:0:0:
109,192,60314,1,0,0:0:0:0:
402,192,60314,1,0,0:0:0:0:
109,192,60476,1,0,0:0:0:0:
329,192,60476,1,0,0:0:0:0:
256,192,60557,1,0,0:0:0:0:
475,192,60557,1,0,0:0:0:0:
182,192,60638,1,0,0:0:0:0:
402,192,60638,1,0,0:0:0:0:
256,192,60800,1,0,0:0:0:0:
36,192,60962,5,0,0:0:0:0:
182,192,60962,1,0,0:0:0:0:
329,192,60962,1,0,0:0:0:0:
402,192,60962,1,0,0:0:0:0:
475,192,60962,1,0,0:0:0:0:
109,192,61043,1,0,0:0:0:0:
256,192,61043,1,0,0:0:0:0:
329,192,61124,1,0,0:0:0:0:
182,192,61124,1,0,0:0:0:0:
256,192,61205,1,0,0:0:0:0:
402,192,61205,1,0,0:0:0:0:
329,192,61286,1,0,0:0:0:0:
109,192,61286,1,0,0:0:0:0:
475,192,61286,1,0,0:0:0:0:
402,192,61368,1,0,0:0:0:0:
256,192,61368,1,0,0:0:0:0:
182,192,61449,1,0,0:0:0:0:
329,192,61449,1,0,0:0:0:0:
256,192,61530,1,0,0:0:0:0:
109,192,61530,1,0,0:0:0:0:
182,192,61611,1,0,0:0:0:0:
329,192,61611,1,0,0:0:0:0:
475,192,61611,1,0,0:0:0:0:
256,192,61692,1,0,0:0:0:0:
402,192,61692,1,0,0:0:0:0:
109,192,61773,1,0,0:0:0:0:
182,192,61773,1,0,0:0:0:0:
475,192,61854,1,0,0:0:0:0:
329,192,61854,1,0,0:0:0:0:
109,192,61935,1,0,0:0:0:0:
256,192,61935,1,0,0:0:0:0:
402,192,61935,1,0,0:0:0:0:
182,192,62016,1,0,0:0:0:0:
329,192,62016,1,0,0:0:0:0:
475,192,62097,1,0,0:0:0:0:
402,192,62097,1,0,0:0:0:0:
256,192,62178,1,0,0:0:0:0:
109,192,62178,1,0,0:0:0:0:
182,192,62259,1,0,0:0:0:0:
329,192,62259,1,0,0:0:0:0:
402,192,62259,1,0,0:0:0:0:
256,192,62341,1,0,0:0:0:0:
109,192,62341,1,0,0:0:0:0:
182,192,62422,1,0,0:0:0:0:
475,192,62422,1,0,0:0:0:0:
402,192,62503,1,0,0:0:0:0:
329,192,62503,1,0,0:0:0:0:
256,192,62584,1,0,0:0:0:0:
475,192,62584,1,0,0:0:0:0:
182,192,62584,1,0,0:0:0:0:
109,192,62665,1,0,0:0:0:0:
402,192,62665,1,0,0:0:0:0:
182,192,62746,1,0,0:0:0:0:
329,192,62746,1,0,0:0:0:0:
475,192,62827,1,0,0:0:0:0:
256,192,62827,1,0,0:0:0:0:
402,192,62908,1,0,0:0:0:0:
109,192,62908,1,0,0:0:0:0:
182,192,62908,1,0,0:0:0:0:
256,192,62989,1,0,0:0:0:0:
329,192,62989,1,0,0:0:0:0:
109,192,63070,1,0,0:0:0:0:
182,192,63070,1,0,0:0:0:0:
475,192,63151,1,0,0:0:0:0:
329,192,63151,1,0,0:0:0:0:
182,192,63232,1,0,0:0:0:0:
256,192,63232,1,0,0:0:0:0:
402,192,63232,1,0,0:0:0:0:
329,192,63314,1,0,0:0:0:0:
109,192,63314,1,0,0:0:0:0:
182,192,63395,1,0,0:0:0:0:
402,192,63395,1,0,0:0:0:0:
256,192,63476,1,0,0:0:0:0:
475,192,63476,1,0,0:0:0:0:
329,192,63557,1,0,0:0:0:0:
402,192,63557,1,0,0:0:0:0:
109,192,63557,1,0,0:0:0:0:
182,192,63638,1,0,0:0:0:0:
256,192,63638,1,0,0:0:0:0:
329,192,63719,1,0,0:0:0:0:
475,192,63719,1,0,0:0:0:0:
109,192,63800,1,0,0:0:0:0:
402,192,63800,1,0,0:0:0:0:
256,192,63881,1,0,0:0:0:0:
182,192,63881,1,0,0:0:0:0:
475,192,63881,1,0,0:0:0:0:
402,192,63962,1,0,0:0:0:0:
329,192,63962,1,0,0:0:0:0:
256,192,64043,1,0,0:0:0:0:
109,192,64043,1,0,0:0:0:0:
182,192,64124,1,0,0:0:0:0:
402,192,64124,1,0,0:0:0:0:
329,192,64205,1,0,0:0:0:0:
475,192,64205,1,0,0:0:0:0:
109,192,64205,1,0,0:0:0:0:
256,192,64286,1,0,0:0:0:0:
402,192,64286,1,0,0:0:0:0:
182,192,64368,1,0,0:0:0:0:
329,192,64368,1,0,0:0:0:0:
109,192,64449,1,0,0:0:0:0:
256,192,64449,1,0,0:0:0:0:
402,192,64530,1,0,0:0:0:0:
182,192,64530,1,0,0:0:0:0:
475,192,64530,1,0,0:0:0:0:
109,192,64611,1,0,0:0:0:0:
256,192,64611,1,0,0:0:0:0:
182,192,64692,1,0,0:0:0:0:
329,192,64692,1,0,0:0:0:0:
256,192,64773,1,0,0:0:0:0:
402,192,64773,1,0,0:0:0:0:
36,192,64854,1,0,0:0:0:0:
475,192,64854,1,0,0:0:0:0:
182,192,64854,1,0,0:0:0:0:
329,192,64854,1,0,0:0:0:0:
109,192,64935,1,0,0:0:0:0:
182,192,65016,1,0,0:0:0:0:
256,192,65097,1,0,0:0:0:0:
109,192,65178,1,0,0:0:0:0:
402,192,65178,1,0,0:0:0:0:
256,192,65259,1,0,0:0:0:0:
182,192,65341,1,0,0:0:0:0:
109,192,65422,1,0,0:0:0:0:
36,192,65503,1,0,0:0:0:0:
402,192,65503,1,0,0:0:0:0:
256,192,65503,1,0,0:0:0:0:
475,192,65503,1,0,0:0:0:0:
36,192,65746,1,0,0:0:0:0:
402,192,65746,1,0,0:0:0:0:
256,192,65746,1,0,0:0:0:0:
475,192,65746,1,0,0:0:0:0:
36,192,65989,1,0,0:0:0:0:
402,192,65989,1,0,0:0:0:0:
256,192,65989,1,0,0:0:0:0:
475,192,65989,1,0,0:0:0:0:
36,192,66476,1,0,0:0:0:0:
256,192,66476,1,0,0:0:0:0:
182,192,66476,1,0,0:0:0:0:
329,192,66476,1,0,0:0:0:0:
475,192,66476,1,0,0:0:0:0:
402,192,66557,1,0,0:0:0:0:
109,192,66557,1,0,0:0:0:0:
182,192,66638,1,0,0:0:0:0:
329,192,66638,1,0,0:0:0:0:
256,192,66719,1,0,0:0:0:0:
402,192,66719,1,0,0:0:0:0:
109,192,66800,1,0,0:0:0:0:
329,192,66800,1,0,0:0:0:0:
475,192,66800,1,0,0:0:0:0:
402,192,66881,1,0,0:0:0:0:
256,192,66881,1,0,0:0:0:0:
475,192,66962,1,0,0:0:0:0:
182,192,66962,1,0,0:0:0:0:
329,192,67043,1,0,0:0:0:0:
402,192,67043,1,0,0:0:0:0:
256,192,67124,1,0,0:0:0:0:
475,192,67124,1,0,0:0:0:0:
182,192,67205,1,0,0:0:0:0:
109,192,67205,1,0,0:0:0:0:
36,192,67286,1,0,0:0:0:0:
256,192,67286,1,0,0:0:0:0:
402,192,67286,1,0,0:0:0:0:
329,192,67286,1,0,0:0:0:0:
475,192,67286,1,0,0:0:0:0:
109,192,67368,1,0,0:0:0:0:
182,192,67368,1,0,0:0:0:0:
256,192,67449,1,0,0:0:0:0:
329,192,67449,1,0,0:0:0:0:
182,192,67530,1,0,0:0:0:0:
475,192,67530,1,0,0:0:0:0:
329,192,67611,1,0,0:0:0:0:
402,192,67611,1,0,0:0:0:0:
109,192,67692,1,0,0:0:0:0:
256,192,67692,1,0,0:0:0:0:
182,192,67773,1,0,0:0:0:0:
329,192,67773,1,0,0:0:0:0:
402,192,67773,1,0,0:0:0:0:
475,192,67854,1,0,0:0:0:0:
109,192,67854,1,0,0:0:0:0:
402,192,67935,1,0,0:0:0:0:
256,192,67935,1,0,0:0:0:0:
329,192,68016,1,0,0:0:0:0:
475,192,68016,1,0,0:0:0:0:
109,192,68097,1,0,0:0:0:0:
182,192,68097,1,0,0:0:0:0:
402,192,68097,1,0,0:0:0:0:
256,192,68178,1,0,0:0:0:0:
329,192,68178,1,0,0:0:0:0:
109,192,68259,1,0,0:0:0:0:
402,192,68259,1,0,0:0:0:0:
182,192,68341,1,0,0:0:0:0:
256,192,68341,1,0,0:0:0:0:
329,192,68422,1,0,0:0:0:0:
475,192,68422,1,0,0:0:0:0:
402,192,68422,1,0,0:0:0:0:
256,192,68503,1,0,0:0:0:0:
109,192,68503,1,0,0:0:0:0:
182,192,68584,1,0,0:0:0:0:
329,192,68584,1,0,0:0:0:0:
402,192,68665,1,0,0:0:0:0:
109,192,68665,1,0,0:0:0:0:
36,192,68746,1,0,0:0:0:0:
256,192,68746,1,0,0:0:0:0:
329,192,68746,1,0,0:0:0:0:
475,192,68746,1,0,0:0:0:0:
182,192,68827,1,0,0:0:0:0:
256,192,68908,1,0,0:0:0:0:
329,192,68989,1,0,0:0:0:0:
475,192,69070,1,0,0:0:0:0:
109,192,69070,1,0,0:0:0:0:
402,192,69151,1,0,0:0:0:0:
329,192,69232,1,0,0:0:0:0:
256,192,69314,1,0,0:0:0:0:
36,192,69395,1,0,0:0:0:0:
475,192,69395,1,0,0:0:0:0:
402,192,69395,1,0,0:0:0:0:
182,192,69395,1,0,0:0:0:0:
329,192,69476,1,0,0:0:0:0:
256,192,69557,1,0,0:0:0:0:
182,192,69638,1,0,0:0:0:0:
109,192,69719,1,0,0:0:0:0:
475,192,69719,1,0,0:0:0:0:
256,192,69800,1,0,0:0:0:0:
329,192,69881,1,0,0:0:0:0:
402,192,69962,1,0,0:0:0:0:
36,192,70043,1,0,0:0:0:0:
475,192,70043,1,0,0:0:0:0:
256,192,70043,1,0,0:0:0:0:
36,192,70368,1,0,0:0:0:0:
475,192,70368,1,0,0:0:0:0:
182,192,70368,1,0,0:0:0:0:
329,192,70368,1,0,0:0:0:0:
36,192,70530,1,0,0:0:0:0:
475,192,70530,1,0,0:0:0:0:
182,192,70530,1,0,0:0:0:0:
329,192,70530,1,0,0:0:0:0:
36,192,70854,1,0,0:0:0:0:
475,192,70854,1,0,0:0:0:0:
182,192,70854,1,0,0:0:0:0:
329,192,70854,1,0,0:0:0:0:
256,192,71016,1,0,0:0:0:0:
182,192,71178,1,0,0:0:0:0:
36,192,71341,1,0,0:0:0:0:
402,192,71341,1,0,0:0:0:0:
475,192,71341,1,0,0:0:0:0:
256,192,71341,1,0,0:0:0:0:
109,192,71341,1,0,0:0:0:0:
182,192,71422,1,0,0:0:0:0:
329,192,71422,1,0,0:0:0:0:
256,192,71503,1,0,0:0:0:0:
402,192,71503,1,0,0:0:0:0:
475,192,71584,1,0,0:0:0:0:
329,192,71584,1,0,0:0:0:0:
402,192,71665,1,0,0:0:0:0:
109,192,71665,1,0,0:0:0:0:
256,192,71665,1,0,0:0:0:0:
329,192,71746,1,0,0:0:0:0:
182,192,71746,1,0,0:0:0:0:
402,192,71827,1,0,0:0:0:0:
256,192,71827,1,0,0:0:0:0:
475,192,71908,1,0,0:0:0:0:
329,192,71908,1,0,0:0:0:0:
109,192,71989,1,0,0:0:0:0:
402,192,71989,1,0,0:0:0:0:
256,192,71989,1,0,0:0:0:0:
182,192,72070,1,0,0:0:0:0:
329,192,72070,1,0,0:0:0:0:
256,192,72151,1,0,0:0:0:0:
402,192,72151,1,0,0:0:0:0:
329,192,72232,1,0,0:0:0:0:
475,192,72232,1,0,0:0:0:0:
402,192,72314,1,0,0:0:0:0:
256,192,72314,1,0,0:0:0:0:
109,192,72314,1,0,0:0:0:0:
182,192,72395,1,0,0:0:0:0:
329,192,72395,1,0,0:0:0:0:
256,192,72476,1,0,0:0:0:0:
475,192,72476,1,0,0:0:0:0:
182,192,72557,1,0,0:0:0:0:
402,192,72557,1,0,0:0:0:0:
109,192,72638,1,0,0:0:0:0:
475,192,72638,1,0,0:0:0:0:
329,192,72638,1,0,0:0:0:0:
402,192,72719,1,0,0:0:0:0:
256,192,72719,1,0,0:0:0:0:
329,192,72800,1,0,0:0:0:0:
182,192,72800,1,0,0:0:0:0:
256,192,72881,1,0,0:0:0:0:
109,192,72881,1,0,0:0:0:0:
475,192,72962,1,0,0:0:0:0:
329,192,72962,1,0,0:0:0:0:
182,192,72962,1,0,0:0:0:0:
402,192,73043,1,0,0:0:0:0:
256,192,73043,1,0,0:0:0:0:
329,192,73124,1,0,0:0:0:0:
182,192,73124,1,0,0:0:0:0:
256,192,73205,1,0,0:0:0:0:
109,192,73205,1,0,0:0:0:0:
475,192,73286,1,0,0:0:0:0:
329,192,73286,1,0,0:0:0:0:
182,192,73286,1,0,0:0:0:0:
402,192,73368,1,0,0:0:0:0:
256,192,73368,1,0,0:0:0:0:
329,192,73449,1,0,0:0:0:0:
182,192,73449,1,0,0:0:0:0:
256,192,73530,1,0,0:0:0:0:
109,192,73530,1,0,0:0:0:0:
475,192,73611,1,0,0:0:0:0:
329,192,73611,1,0,0:0:0:0:
182,192,73611,1,0,0:0:0:0:
402,192,73692,1,0,0:0:0:0:
256,192,73692,1,0,0:0:0:0:
329,192,73773,1,0,0:0:0:0:
182,192,73773,1,0,0:0:0:0:
256,192,73854,1,0,0:0:0:0:
109,192,73854,1,0,0:0:0:0:
182,192,73935,1,0,0:0:0:0:
402,192,73935,1,0,0:0:0:0:
475,192,73935,1,0,0:0:0:0:
329,192,74016,1,0,0:0:0:0:
109,192,74016,1,0,0:0:0:0:
182,192,74097,1,0,0:0:0:0:
402,192,74097,1,0,0:0:0:0:
256,192,74178,1,0,0:0:0:0:
475,192,74178,1,0,0:0:0:0:
329,192,74259,1,0,0:0:0:0:
402,192,74259,1,0,0:0:0:0:
109,192,74259,1,0,0:0:0:0:
475,192,74341,1,0,0:0:0:0:
256,192,74341,1,0,0:0:0:0:
402,192,74422,1,0,0:0:0:0:
182,192,74422,1,0,0:0:0:0:
329,192,74503,1,0,0:0:0:0:
109,192,74503,1,0,0:0:0:0:
402,192,74584,1,0,0:0:0:0:
475,192,74584,1,0,0:0:0:0:
182,192,74584,1,0,0:0:0:0:
329,192,74665,1,0,0:0:0:0:
109,192,74665,1,0,0:0:0:0:
182,192,74746,1,0,0:0:0:0:
402,192,74746,1,0,0:0:0:0:
256,192,74827,1,0,0:0:0:0:
475,192,74827,1,0,0:0:0:0:
329,192,74908,1,0,0:0:0:0:
402,192,74908,1,0,0:0:0:0:
109,192,74908,1,0,0:0:0:0:
256,192,74989,1,0,0:0:0:0:
475,192,74989,1,0,0:0:0:0:
402,192,75070,1,0,0:0:0:0:
182,192,75070,1,0,0:0:0:0:
109,192,75151,1,0,0:0:0:0:
329,192,75151,1,0,0:0:0:0:
36,192,75232,1,0,0:0:0:0:
256,192,75232,1,0,0:0:0:0:
475,192,75232,1,0,0:0:0:0:
109,192,75314,1,0,0:0:0:0:
182,192,75395,1,0,0:0:0:0:
329,192,75476,1,0,0:0:0:0:
36,192,75557,1,0,0:0:0:0:
256,192,75557,1,0,0:0:0:0:
475,192,75557,1,0,0:0:0:0:
402,192,75638,1,0,0:0:0:0:
329,192,75719,1,0,0:0:0:0:
182,192,75800,1,0,0:0:0:0:
36,192,75881,1,0,0:0:0:0:
256,192,75881,1,0,0:0:0:0:
402,192,75881,1,0,0:0:0:0:
475,192,75881,1,0,0:0:0:0:
36,192,76124,1,0,0:0:0:0:
329,192,76124,1,0,0:0:0:0:
402,192,76124,1,0,0:0:0:0:
256,192,76124,1,0,0:0:0:0:
36,192,76368,1,0,0:0:0:0:
182,192,76368,1,0,0:0:0:0:
256,192,76368,1,0,0:0:0:0:
329,192,76368,1,0,0:0:0:0:
36,192,76854,1,0,0:0:0:0:
109,192,76854,1,0,0:0:0:0:
475,192,76854,1,0,0:0:0:0:
256,192,76854,1,0,0:0:0:0:
329,192,76854,1,0,0:0:0:0:
402,192,76935,1,0,0:0:0:0:
182,192,76935,1,0,0:0:0:0:
109,192,77016,1,0,0:0:0:0:
329,192,77016,1,0,0:0:0:0:
182,192,77097,1,0,0:0:0:0:
402,192,77097,1,0,0:0:0:0:
475,192,77178,1,0,0:0:0:0:
256,192,77178,1,0,0:0:0:0:
109,192,77178,1,0,0:0:0:0:
402,192,77259,1,0,0:0:0:0:
182,192,77259,1,0,0:0:0:0:
109,192,77341,1,0,0:0:0:0:
329,192,77341,1,0,0:0:0:0:
182,192,77422,1,0,0:0:0:0:
402,192,77422,1,0,0:0:0:0:
475,192,77503,1,0,0:0:0:0:
256,192,77503,1,0,0:0:0:0:
109,192,77503,1,0,0:0:0:0:
402,192,77584,1,0,0:0:0:0:
182,192,77584,1,0,0:0:0:0:
329,192,77665,1,0,0:0:0:0:
109,192,77665,1,0,0:0:0:0:
182,192,77746,1,0,0:0:0:0:
402,192,77746,1,0,0:0:0:0:
36,192,77827,1,0,0:0:0:0:
109,192,77827,1,0,0:0:0:0:
329,192,77827,1,0,0:0:0:0:
402,192,77908,1,0,0:0:0:0:
182,192,77908,1,0,0:0:0:0:
256,192,77989,1,0,0:0:0:0:
475,192,77989,1,0,0:0:0:0:
182,192,78070,1,0,0:0:0:0:
402,192,78070,1,0,0:0:0:0:
109,192,78151,1,0,0:0:0:0:
329,192,78151,1,0,0:0:0:0:
475,192,78151,1,0,0:0:0:0:
182,192,78232,1,0,0:0:0:0:
402,192,78232,1,0,0:0:0:0:
256,192,78314,1,0,0:0:0:0:
475,192,78314,1,0,0:0:0:0:
182,192,78395,1,0,0:0:0:0:
402,192,78395,1,0,0:0:0:0:
109,192,78476,1,0,0:0:0:0:
329,192,78476,1,0,0:0:0:0:
475,192,78476,1,0,0:0:0:0:
182,192,78557,1,0,0:0:0:0:
402,192,78557,1,0,0:0:0:0:
256,192,78638,1,0,0:0:0:0:
475,192,78638,1,0,0:0:0:0:
182,192,78719,1,0,0:0:0:0:
402,192,78719,1,0,0:0:0:0:
109,192,78800,1,0,0:0:0:0:
329,192,78800,1,0,0:0:0:0:
475,192,78800,1,0,0:0:0:0:
182,192,78881,1,0,0:0:0:0:
402,192,78881,1,0,0:0:0:0:
256,192,78962,1,0,0:0:0:0:
475,192,78962,1,0,0:0:0:0:
182,192,79043,1,0,0:0:0:0:
402,192,79043,1,0,0:0:0:0:
36,192,79124,1,0,0:0:0:0:
256,192,79124,1,0,0:0:0:0:
475,192,79124,1,0,0:0:0:0:
182,192,79205,1,0,0:0:0:0:
329,192,79286,1,0,0:0:0:0:
402,192,79368,1,0,0:0:0:0:
475,192,79449,1,0,0:0:0:0:
182,192,79449,1,0,0:0:0:0:
402,192,79530,1,0,0:0:0:0:
329,192,79611,1,0,0:0:0:0:
182,192,79692,1,0,0:0:0:0:
36,192,79773,1,0,0:0:0:0:
256,192,79773,1,0,0:0:0:0:
475,192,79773,1,0,0:0:0:0:
402,192,79854,1,0,0:0:0:0:
256,192,79935,1,0,0:0:0:0:
182,192,80016,1,0,0:0:0:0:
109,192,80097,1,0,0:0:0:0:
402,192,80097,1,0,0:0:0:0:
182,192,80178,1,0,0:0:0:0:
256,192,80259,1,0,0:0:0:0:
402,192,80341,1,0,0:0:0:0:
36,192,80422,1,0,0:0:0:0:
475,192,80422,1,0,0:0:0:0:
256,192,80422,1,0,0:0:0:0:
36,192,80746,1,0,0:0:0:0:
402,192,80746,1,0,0:0:0:0:
475,192,80746,1,0,0:0:0:0:
182,192,80746,1,0,0:0:0:0:
36,192,80908,1,0,0:0:0:0:
402,192,80908,1,0,0:0:0:0:
475,192,80908,1,0,0:0:0:0:
182,192,80908,1,0,0:0:0:0:
36,192,81232,1,0,0:0:0:0:
475,192,81232,1,0,0:0:0:0:
182,192,81232,1,0,0:0:0:0:
256,192,81232,1,0,0:0:0:0:
402,192,81232,1,0,0:0:0:0:
36,192,81719,1,0,0:0:0:0:
182,192,81719,1,0,0:0:0:0:
329,192,81719,1,0,0:0:0:0:
475,192,81719,1,0,0:0:0:0:
402,192,81719,1,0,0:0:0:0:
36,192,82043,1,0,0:0:0:0:
256,192,82043,1,0,0:0:0:0:
182,192,82368,1,0,0:0:0:0:
402,192,82692,1,0,0:0:0:0:
329,192,82854,1,0,0:0:0:0:
329,192,83178,1,0,0:0:0:0:
36,192,83341,1,0,0:0:0:0:
256,192,83341,1,0,0:0:0:0:
329,192,83503,1,0,0:0:0:0:
36,192,83665,1,0,0:0:0:0:
475,192,83665,1,0,0:0:0:0:
36,192,83989,1,0,0:0:0:0:
182,192,83989,1,0,0:0:0:0:
36,192,84314,1,0,0:0:0:0:
182,192,84314,1,0,0:0:0:0:
256,192,84476,1,0,0:0:0:0:
329,192,84638,1,0,0:0:0:0:
475,192,84800,1,0,0:0:0:0:
36,192,84962,1,0,0:0:0:0:
402,192,84962,1,0,0:0:0:0:
256,192,85124,1,0,0:0:0:0:
109,192,85205,1,0,0:0:0:0:
182,192,85286,1,0,0:0:0:0:
329,192,85449,1,0,0:0:0:0:
36,192,85611,1,0,0:0:0:0:
402,192,85611,1,0,0:0:0:0:
475,192,85773,1,0,0:0:0:0:
36,192,85935,1,0,0:0:0:0:
256,192,85935,1,0,0:0:0:0:
109,192,86097,1,0,0:0:0:0:
36,192,86259,1,0,0:0:0:0:
402,192,86259,1,0,0:0:0:0:
36,192,86503,1,0,0:0:0:0:
36,192,86746,1,0,0:0:0:0:
256,192,86908,1,0,0:0:0:0:
329,192,87232,1,0,0:0:0:0:
402,192,87557,1,0,0:0:0:0:
36,192,87881,1,0,0:0:0:0:
475,192,87881,1,0,0:0:0:0:
329,192,88043,1,0,0:0:0:0:
36,192,88205,1,0,0:0:0:0:
329,192,88368,1,0,0:0:0:0:
256,192,88530,1,0,0:0:0:0:
182,192,88692,1,0,0:0:0:0:
109,192,88854,1,0,0:0:0:0:
36,192,89178,1,0,0:0:0:0:
256,192,89178,1,0,0:0:0:0:
36,192,89503,1,0,0:0:0:0:
256,192,89503,1,0,0:0:0:0:
329,192,89665,1,0,0:0:0:0:
475,192,89827,1,0,0:0:0:0:
402,192,89989,1,0,0:0:0:0:
36,192,90151,1,0,0:0:0:0:
329,192,90151,1,0,0:0:0:0:
182,192,90314,1,0,0:0:0:0:
256,192,90395,1,0,0:0:0:0:
329,192,90476,1,0,0:0:0:0:
475,192,90638,1,0,0:0:0:0:
329,192,90800,1,0,0:0:0:0:
182,192,90800,1,0,0:0:0:0:
256,192,90962,1,0,0:0:0:0:
402,192,90962,1,0,0:0:0:0:
329,192,91124,1,0,0:0:0:0:
475,192,91124,1,0,0:0:0:0:
256,192,91286,1,0,0:0:0:0:
402,192,91286,1,0,0:0:0:0:
182,192,91449,1,0,0:0:0:0:
329,192,91449,1,0,0:0:0:0:
475,192,91611,1,0,0:0:0:0:
109,192,91611,1,0,0:0:0:0:
402,192,91692,1,0,0:0:0:0:
182,192,91692,1,0,0:0:0:0:
109,192,91773,1,0,0:0:0:0:
475,192,91773,1,0,0:0:0:0:
256,192,91935,1,0,0:0:0:0:
329,192,91935,1,0,0:0:0:0:
182,192,91935,1,0,0:0:0:0:
402,192,91935,1,0,0:0:0:0:
36,192,92422,1,0,0:0:0:0:
475,192,92422,1,0,0:0:0:0:
329,192,92422,1,0,0:0:0:0:
182,192,92422,1,0,0:0:0:0:
109,192,92422,1,0,0:0:0:0:
402,192,92503,1,0,0:0:0:0:
256,192,92503,1,0,0:0:0:0:
329,192,92584,1,0,0:0:0:0:
182,192,92584,1,0,0:0:0:0:
109,192,92665,1,0,0:0:0:0:
256,192,92665,1,0,0:0:0:0:
475,192,92746,1,0,0:0:0:0:
329,192,92746,1,0,0:0:0:0:
182,192,92746,1,0,0:0:0:0:
402,192,92827,1,0,0:0:0:0:
256,192,92827,1,0,0:0:0:0:
329,192,92908,1,0,0:0:0:0:
182,192,92908,1,0,0:0:0:0:
109,192,92989,1,0,0:0:0:0:
256,192,92989,1,0,0:0:0:0:
329,192,93070,1,0,0:0:0:0:
475,192,93070,1,0,0:0:0:0:
182,192,93070,1,0,0:0:0:0:
256,192,93151,1,0,0:0:0:0:
402,192,93151,1,0,0:0:0:0:
182,192,93232,1,0,0:0:0:0:
329,192,93232,1,0,0:0:0:0:
109,192,93314,1,0,0:0:0:0:
256,192,93314,1,0,0:0:0:0:
182,192,93395,1,0,0:0:0:0:
475,192,93395,1,0,0:0:0:0:
329,192,93395,1,0,0:0:0:0:
109,192,93476,1,0,0:0:0:0:
402,192,93476,1,0,0:0:0:0:
182,192,93557,1,0,0:0:0:0:
329,192,93557,1,0,0:0:0:0:
402,192,93638,1,0,0:0:0:0:
256,192,93638,1,0,0:0:0:0:
182,192,93719,1,0,0:0:0:0:
475,192,93719,1,0,0:0:0:0:
329,192,93719,1,0,0:0:0:0:
109,192,93800,1,0,0:0:0:0:
402,192,93800,1,0,0:0:0:0:
182,192,93881,1,0,0:0:0:0:
329,192,93881,1,0,0:0:0:0:
256,192,93962,1,0,0:0:0:0:
402,192,93962,1,0,0:0:0:0:
182,192,94043,1,0,0:0:0:0:
475,192,94043,1,0,0:0:0:0:
329,192,94043,1,0,0:0:0:0:
109,192,94124,1,0,0:0:0:0:
402,192,94124,1,0,0:0:0:0:
182,192,94205,1,0,0:0:0:0:
329,192,94205,1,0,0:0:0:0:
256,192,94286,1,0,0:0:0:0:
402,192,94286,1,0,0:0:0:0:
182,192,94368,1,0,0:0:0:0:
475,192,94368,1,0,0:0:0:0:
329,192,94368,1,0,0:0:0:0:
109,192,94449,1,0,0:0:0:0:
402,192,94449,1,0,0:0:0:0:
182,192,94530,1,0,0:0:0:0:
329,192,94530,1,0,0:0:0:0:
402,192,94611,1,0,0:0:0:0:
256,192,94611,1,0,0:0:0:0:
109,192,94692,1,0,0:0:0:0:
329,192,94692,1,0,0:0:0:0:
475,192,94692,1,0,0:0:0:0:
182,192,94773,1,0,0:0:0:0:
402,192,94773,1,0,0:0:0:0:
256,192,94854,1,0,0:0:0:0:
475,192,94854,1,0,0:0:0:0:
182,192,94935,1,0,0:0:0:0:
402,192,94935,1,0,0:0:0:0:
109,192,95016,1,0,0:0:0:0:
329,192,95016,1,0,0:0:0:0:
475,192,95016,1,0,0:0:0:0:
182,192,95097,1,0,0:0:0:0:
402,192,95097,1,0,0:0:0:0:
256,192,95178,1,0,0:0:0:0:
475,192,95178,1,0,0:0:0:0:
182,192,95259,1,0,0:0:0:0:
402,192,95259,1,0,0:0:0:0:
109,192,95341,1,0,0:0:0:0:
329,192,95341,1,0,0:0:0:0:
475,192,95341,1,0,0:0:0:0:
182,192,95422,1,0,0:0:0:0:
402,192,95422,1,0,0:0:0:0:
256,192,95503,1,0,0:0:0:0:
475,192,95503,1,0,0:0:0:0:
402,192,95584,1,0,0:0:0:0:
182,192,95584,1,0,0:0:0:0:
109,192,95665,1,0,0:0:0:0:
329,192,95665,1,0,0:0:0:0:
475,192,95665,1,0,0:0:0:0:
182,192,95746,1,0,0:0:0:0:
402,192,95746,1,0,0:0:0:0:
256,192,95827,1,0,0:0:0:0:
475,192,95827,1,0,0:0:0:0:
182,192,95908,1,0,0:0:0:0:
402,192,95908,1,0,0:0:0:0:
36,192,95989,1,0,0:0:0:0:
475,192,95989,1,0,0:0:0:0:
329,192,95989,1,0,0:0:0:0:
182,192,96070,1,0,0:0:0:0:
329,192,96151,1,0,0:0:0:0:
182,192,96232,1,0,0:0:0:0:
402,192,96314,1,0,0:0:0:0:
109,192,96395,1,0,0:0:0:0:
402,192,96476,1,0,0:0:0:0:
109,192,96557,1,0,0:0:0:0:
36,192,96638,1,0,0:0:0:0:
475,192,96638,1,0,0:0:0:0:
329,192,96638,1,0,0:0:0:0:
182,192,96719,1,0,0:0:0:0:
329,192,96800,1,0,0:0:0:0:
182,192,96881,1,0,0:0:0:0:
36,192,96962,1,0,0:0:0:0:
475,192,96962,1,0,0:0:0:0:
329,192,96962,1,0,0:0:0:0:
402,192,97043,1,0,0:0:0:0:
182,192,97124,1,0,0:0:0:0:
402,192,97205,1,0,0:0:0:0:
36,192,97286,1,0,0:0:0:0:
475,192,97286,1,0,0:0:0:0:
109,192,97286,1,0,0:0:0:0:
256,192,97286,1,0,0:0:0:0:
182,192,97368,1,0,0:0:0:0:
329,192,97368,1,0,0:0:0:0:
256,192,97449,1,0,0:0:0:0:
402,192,97449,1,0,0:0:0:0:
329,192,97530,1,0,0:0:0:0:
475,192,97530,1,0,0:0:0:0:
256,192,97611,1,0,0:0:0:0:
402,192,97611,1,0,0:0:0:0:
182,192,97692,1,0,0:0:0:0:
329,192,97692,1,0,0:0:0:0:
109,192,97773,1,0,0:0:0:0:
256,192,97773,1,0,0:0:0:0:
182,192,97854,1,0,0:0:0:0:
329,192,97854,1,0,0:0:0:0:
36,192,97935,1,0,0:0:0:0:
256,192,97935,1,0,0:0:0:0:
475,192,97935,1,0,0:0:0:0:
329,192,98016,1,0,0:0:0:0:
402,192,98097,1,0,0:0:0:0:
182,192,98178,1,0,0:0:0:0:
36,192,98259,1,0,0:0:0:0:
256,192,98259,1,0,0:0:0:0:
475,192,98259,1,0,0:0:0:0:
182,192,98341,1,0,0:0:0:0:
109,192,98422,1,0,0:0:0:0:
402,192,98503,1,0,0:0:0:0:
36,192,98584,1,0,0:0:0:0:
475,192,98584,1,0,0:0:0:0:
256,192,98584,1,0,0:0:0:0:
182,192,98665,1,0,0:0:0:0:
402,192,98665,1,0,0:0:0:0:
109,192,98746,1,0,0:0:0:0:
329,192,98746,1,0,0:0:0:0:
182,192,98827,1,0,0:0:0:0:
402,192,98827,1,0,0:0:0:0:
256,192,98908,1,0,0:0:0:0:
475,192,98908,1,0,0:0:0:0:
182,192,98989,1,0,0:0:0:0:
402,192,98989,1,0,0:0:0:0:
109,192,99070,1,0,0:0:0:0:
329,192,99070,1,0,0:0:0:0:
182,192,99151,1,0,0:0:0:0:
402,192,99151,1,0,0:0:0:0:
36,192,99232,1,0,0:0:0:0:
475,192,99232,1,0,0:0:0:0:
329,192,99232,1,0,0:0:0:0:
109,192,99314,1,0,0:0:0:0:
256,192,99395,1,0,0:0:0:0:
402,192,99476,1,0,0:0:0:0:
36,192,99557,1,0,0:0:0:0:
329,192,99557,1,0,0:0:0:0:
475,192,99557,1,0,0:0:0:0:
402,192,99638,1,0,0:0:0:0:
256,192,99719,1,0,0:0:0:0:
109,192,99800,1,0,0:0:0:0:
36,192,99881,1,0,0:0:0:0:
329,192,99881,1,0,0:0:0:0:
475,192,99881,1,0,0:0:0:0:
109,192,99962,1,0,0:0:0:0:
182,192,100043,1,0,0:0:0:0:
256,192,100124,1,0,0:0:0:0:
402,192,100124,1,0,0:0:0:0:
329,192,100205,1,0,0:0:0:0:
256,192,100286,1,0,0:0:0:0:
182,192,100368,1,0,0:0:0:0:
329,192,100368,1,0,0:0:0:0:
109,192,100449,1,0,0:0:0:0:
36,192,100530,1,0,0:0:0:0:
475,192,100530,1,0,0:0:0:0:
329,192,100530,1,0,0:0:0:0:
109,192,100611,1,0,0:0:0:0:
256,192,100611,1,0,0:0:0:0:
329,192,100692,1,0,0:0:0:0:
402,192,100773,1,0,0:0:0:0:
182,192,100854,1,0,0:0:0:0:
329,192,100854,1,0,0:0:0:0:
475,192,100935,1,0,0:0:0:0:
256,192,101016,1,0,0:0:0:0:
402,192,101016,1,0,0:0:0:0:
109,192,101097,1,0,0:0:0:0:
36,192,101178,1,0,0:0:0:0:
329,192,101178,1,0,0:0:0:0:
475,192,101178,1,0,0:0:0:0:
256,192,101259,1,0,0:0:0:0:
182,192,101341,1,0,0:0:0:0:
109,192,101422,1,0,0:0:0:0:
256,192,101422,1,0,0:0:0:0:
36,192,101503,1,0,0:0:0:0:
329,192,101503,1,0,0:0:0:0:
475,192,101503,1,0,0:0:0:0:
182,192,101584,1,0,0:0:0:0:
402,192,101665,1,0,0:0:0:0:
256,192,101665,1,0,0:0:0:0:
182,192,101746,1,0,0:0:0:0:
36,192,101827,1,0,0:0:0:0:
329,192,101827,1,0,0:0:0:0:
475,192,101827,1,0,0:0:0:0:
109,192,101908,1,0,0:0:0:0:
256,192,101908,1,0,0:0:0:0:
182,192,101989,1,0,0:0:0:0:
256,192,102070,1,0,0:0:0:0:
36,192,102151,1,0,0:0:0:0:
182,192,102151,1,0,0:0:0:0:
329,192,102151,1,0,0:0:0:0:
402,192,102232,1,0,0:0:0:0:
475,192,102314,1,0,0:0:0:0:
256,192,102314,1,0,0:0:0:0:
36,192,102476,1,0,0:0:0:0:
182,192,102476,1,0,0:0:0:0:
402,192,102476,1,0,0:0:0:0:
329,192,102476,1,0,0:0:0:0:
109,192,102476,1,0,0:0:0:0:
