osu file format v9

[General]
AudioFilename: Not Panties Racing - Copy.mp3
AudioLeadIn: 2007
PreviewTime: 13488
Countdown: 1
SampleSet: Normal
StackLeniency: 0.9
Mode: 0
LetterboxInBreaks: 1

[Editor]
Bookmarks: 33053,39992,53053,57951,72263
DistanceSpacing: 1
BeatDivisor: 4
GridSize: 8

[Metadata]
Title:Not Panties Racing
Artist:Nico Nico Douga
Creator:Gcode2
Version:Pantsu
Source:Strike Witches
Tags:Kirby Super Star SNES wakarimasenlol chocobo song

[Difficulty]
HPDrainRate:5
CircleSize:4
OverallDifficulty:7
ApproachRate:8
SliderMultiplier:1.6
SliderTickRate:1

[Events]
//Background and Video events
0,0,"1286499412353.jpg"
Video,99,"not pantsu.flv"
//Break Periods
2,36128,39252
2,57964,58844
//Storyboard Layer 0 (Background)
//Storyboard Layer 1 (Fail)
//Storyboard Layer 2 (Pass)
//Storyboard Layer 3 (Foreground)
//Storyboard Sound Samples
//Background Colour Transformations
3,100,255,162,162

[TimingPoints]
826,408.163265306122,4,1,0,100,1,0
12543,-100,4,1,1,100,0,0
12747,-100,4,1,0,100,0,0
15809,-100,4,1,1,100,0,0
16013,-100,4,1,0,100,0,0
32135,-100,4,1,1,100,0,0
32339,-100,4,1,0,100,0,0
47237,-100,4,1,1,100,0,0
48257,-100,4,1,0,100,0,0
49278,-100,4,1,1,100,0,0
49482,-100,4,1,0,100,0,0
49788,-100,4,1,0,80,0,0
52441,-100,4,1,0,100,0,0
53053,-100,4,1,0,100,0,1
57747,-100,4,1,0,100,0,0
63155,-100,4,1,1,100,0,0
64584,-100,4,1,0,100,0,0
74584,-100,4,1,1,100,0,0
74788,-100,4,1,0,100,0,0
88155,-100,4,1,0,21,0,0

[Colours]
Combo1 : 255,255,255
Combo2 : 0,128,255

[HitObjects]
256,192,825,2,0,B|256:232|216:256,1,80
144,296,1234,1,8
72,264,1438,1,0
32,192,1642,2,0,B|8:152|24:112,1,80,0|8
80,64,2050,2,0,B|120:40|160:64,1,80,8|8
232,80,2458,2,0,B|272:64|280:16,2,80,0|0|8
168,128,3070,2,0,B|136:160|144:208,2,80,0|0|8
240,160,3683,1,8
400,192,4091,6,0,B|432:160|416:96,2,80,0|0|8
352,256,4703,2,0,B|328:288|352:336,2,80,0|0|8
320,184,5315,2,0,B|288:152|296:112,2,80,8|0|0
272,248,5928,2,0,B|232:256|176:224,2,80,0|8|0
312,320,6540,5,0
232,320,6744,1,8
152,320,6948,2,0,B|80:280|64:192,1,160,8|0
104,120,7560,5,2
168,72,7764,1,2
232,120,7968,1,2
296,72,8172,2,0,B|344:72|376:112,1,80
416,168,8581,1,8
416,248,8785,1,8
360,304,8989,2,0,B|328:328|280:320,2,80,0|8|8
320,232,9601,1,0
240,224,9805,2,0,B|184:128|248:72,2,160
288,288,10825,5,0
224,336,11030,2,0,B|184:360|144:344,1,80,8|0
80,296,11438,2,0,B|56:256|88:216,2,80,0|8|8
147,345,12050,1,8
160,264,12254,6,0,B|192:136|336:200|384:48,1,320
256,56,13274,1,2
136,104,13479,1,2
48,192,13683,1,2
128,288,13887,6,0,B|208:352|272:280,1,160,4|8
272,120,14703,2,0,B|360:80|424:160,1,160,0|8
352,296,15519,2,0,B|288:136|152:240|104:72,1,320
224,56,16540,5,2
336,96,16744,1,2
424,176,16948,1,2
424,296,17152,6,0,B|360:344|256:304,1,160,4|8
264,232,17764,2,0,B|232:200|192:224,1,80,0|0
192,312,18172,2,0,B|152:336|120:296,1,80,8|8
80,232,18581,1,8
40,168,18785,2,0,B|8:104|48:56,1,120
168,56,19397,2,0,B|192:96|168:136,1,80,8|4
312,208,20009,1,0
400,344,20417,5,2
320,344,20621,2,2,B|320:304,2,40
240,344,21030,2,2,B|240:304,2,40
240,264,21438,2,0,B|224:224|184:208,2,80,0|8|0
320,264,22050,2,0,B|344:232|392:224,1,80
448,176,22458,2,0,B|488:160|496:104,1,80,8|0
448,48,22866,1,0
368,48,23070,1,0
288,48,23274,6,8,B|248:48,1,40
168,48,23581,2,8,B|120:48,1,40
48,48,23887,2,0,B|16:80|32:128,1,80,0|8
88,184,24295,2,0,B|120:160,2,40,8|8|8
144,240,24703,2,0,B|184:264|224:240,2,80
192,176,25315,5,4
424,72,25723,1,4
424,312,26132,1,4
200,168,26540,1,2
80,280,26948,6,0,B|32:200|88:128,1,160,0|8
320,80,27764,1,2
320,320,28172,1,2
112,192,28581,6,0,B|184:256|104:336,1,160,0|8
256,144,29397,1,2
368,192,29601,1,2
304,296,29805,2,0,B|232:336|144:312,1,160,2|0
80,216,30417,5,2
128,104,30621,1,0
232,40,30826,1,2
336,104,31030,2,0,B|392:160|408:248,1,160,0|2
407,244,31642,1,2
320,320,31846,2,0,B|192:360|88:280|96:160,1,320,0|4
256,192,32866,12,0,35928
256,64,40009,6,0,B|224:96,1,40
200,120,40213,2,0,B|176:152,1,40,8|0
160,184,40417,2,0,B|144:224,3,40,0|0|8|0
152,264,40826,2,0,B|176:296|224:320,1,80,0|8
296,320,41234,2,0,B|344:320|368:288,1,80,0|8
416,232,41642,6,0,B|432:192,1,40
432,152,41846,2,0,B|432:112,1,40,8|0
416,72,42050,2,0,B|376:56,3,40,0|0|8|0
344,48,42458,2,0,B|248:32|192:88,1,160
208,168,43070,6,0,B|248:184|288:160,1,80,2|2
352,112,43479,2,0,B|400:128|400:176,1,80,8|0
400,256,43887,2,0,B|368:288|328:288,1,80,8|0
168,264,44499,1,4
104,216,44703,6,0,B|80:176|104:136,1,80,2|2
160,80,45111,2,0,B|192:48|232:48,1,80,8|0
312,48,45519,2,0,B|360:40|384:88,2,80,8|0|8
320,128,46132,2,0,B|336:168|392:160,2,80,0|8|0
256,176,46744,1,0
176,184,46948,6,0,B|184:256|256:256|256:256|336:256|336:256|424:256|432:304|424:360|352:360|352:360|112:360,1,640
48,320,48785,1,0
24,248,48989,2,0,B|24:128|112:48|256:48,1,320,2|4
472,136,50213,5,4
288,312,50621,1,4
104,136,51030,1,4
352,192,51438,1,4
112,280,51846,1,4
248,64,52254,1,4
216,192,52458,1,2
216,192,52662,1,2
376,192,53070,6,0,B|408:160,6,40,0|0|8|0|0|0|8
376,272,53887,2,0,B|408:304,6,40,0|0|8|0|0|0|8
296,272,54703,2,0,B|264:304,6,40,0|0|8|0|0|0|8
296,192,55519,2,0,B|256:160,6,40,0|0|8|0|0|0|8
336,120,56336,5,0
264,80,56540,1,0
192,120,56744,1,0
168,200,56948,2,0,B|120:192,4,40,8|0|0|8|0
184,280,57560,1,0
256,320,57764,1,0
256,120,59601,6,0,B|200:48|112:56,1,160,0|8
256,248,60417,2,0,B|304:320|408:320,1,160,0|8
488,192,61234,5,0
448,120,61438,1,8
384,64,61642,1,0
304,32,61846,1,8
256,96,62050,2,0,B|256:128,6,26.6666666666667
432,224,62866,2,0,B|432:280|432:280|432:384|320:384|320:272|320:272|320:184|256:176|256:176|192:184|192:272|192:272|192:384|80:384|80:280|80:280|80:224,1,800
256,96,65315,1,0
256,224,65723,6,0,B|232:304|144:336,1,160,4|8
72,192,66540,1,8
216,120,66948,2,0,B|256:96|304:120,1,80,8|8
432,192,67560,2,0,B|400:216|344:200,1,80,8|8
280,192,67968,1,8
120,192,68377,2,0,B|96:232|136:272,1,80,8|4
256,360,68989,1,4
392,280,69397,5,8
496,160,69805,1,8
368,64,70213,2,0,B|328:40|288:56,1,80,8|8
216,192,70825,2,0,B|184:224|144:208,1,80,8|8
80,160,71234,1,8
144,304,71642,2,0,B|184:328|224:304,1,80,8|4
328,192,72254,1,4
256,48,72662,6,0,B|208:120|264:208,1,160,0|8
416,192,73479,2,0,B|472:272|416:344,1,160,0|8
256,344,74295,2,0,B|104:344|32:280|32:168,1,320
128,104,75315,5,2
248,128,75519,1,2
352,192,75723,1,2
432,280,75928,2,0,B|376:336|272:328,1,160,0|8
208,328,76540,2,0,B|160:328|144:288,1,80
208,240,76948,2,0,B|184:200|136:208,1,80,8|8
64,208,77356,1,8
80,128,77560,2,0,B|112:80|184:72,1,120,0|8
304,72,78172,2,0,B|344:72|376:104,1,80,8|0
240,192,78785,1,4
400,192,79193,5,2
352,256,79397,2,0,B|352:296,2,40,2|2|2
272,256,79805,2,0,B|272:296,2,40,2|2|2
272,176,80213,2,0,B|256:136|216:120,2,80,0|8|0
208,224,80825,2,0,B|168:232|128:200,1,80
96,120,81234,2,0,B|102:74|142:58,1,80,8|0
208,104,81642,1,0
272,152,81846,1,0
336,200,82050,6,8,B|368:224,1,40
368,304,82356,2,8,B|320:304,1,40
248,296,82662,2,0,B|208:272|192:232,1,80,0|8
160,168,83070,2,0,B|192:144,2,40,8|8|8
152,88,83479,2,0,B|192:64|232:88,2,80,0|8|0
192,152,84091,5,4
432,192,84499,1,4
256,352,84907,1,4
256,112,85315,1,6
256,192,85417,12,0,88172
