osu file format v8

[General]
AudioFilename: Night of McDonalds.mp3
AudioLeadIn: 1000
PreviewTime: -1
Countdown: 0
SampleSet: Normal
StackLeniency: 0.2
Mode: 0
LetterboxInBreaks: 1

[Editor]
DistanceSpacing: 0.5
BeatDivisor: 4
GridSize: 8

[Metadata]
Title:Night of McDonalds
Artist:Nico Nico Douga
Creator:Famfrit
Version:Newbie
Source:
Tags:Donald, Touhou, Kinght

[Difficulty]
HPDrainRate:3
CircleSize:5
OverallDifficulty:3
ApproachRate:4
SliderMultiplier:1.5
SliderTickRate:0.5

[Events]
//Background and Video events
0,0,"Night of McDonalds.png"
Video,320,"Night of McDonalds.avi"
//Break Periods
//Storyboard Layer 0 (Background)
//Storyboard Layer 1 (Fail)
//Storyboard Layer 2 (Pass)
//Storyboard Layer 3 (Foreground)
//Storyboard Sound Samples
//Background Colour Transformations
3,100,255,128,128

[TimingPoints]
840,333.333333333333,4,1,0,60,1,0
31506,-142.857142857143,4,1,0,60,0,0
34839,-76.9230769230769,4,1,0,60,0,0
35339,-142.857142857143,4,1,0,60,0,0
37506,-76.9230769230769,4,1,0,60,0,0
38173,-142.857142857143,4,1,0,60,0,0
40173,-76.9230769230769,4,1,0,60,0,0
40839,-100,4,1,0,60,0,0
42173,-142.857142857143,4,1,0,60,0,0
54109,-66.6666666666667,4,1,0,60,0,0
59442,-142.857142857143,4,1,0,60,0,0
75484,-142.857142857143,4,2,0,60,0,0
83442,-100,4,1,0,60,0,0
84692,-200,4,1,0,60,0,0
85526,-100,4,1,0,60,0,0
96151,-200,4,1,0,60,0,0
96567,-100,4,1,0,60,0,0
99423,-83.3333333333333,4,1,0,60,0,0
102173,-100,4,1,0,60,0,0
106734,-71.4285714285714,4,1,0,60,0,0
107067,-55.5555555555556,4,1,0,60,0,0
107401,-100,4,1,0,60,0,0
135470,-83.3333333333333,4,1,0,60,0,0
136700,-50,4,1,0,60,0,0
137942,-100,4,1,0,60,0,0
144817,-200,4,1,0,60,0,0
148363,-100,4,1,0,60,0,0
163442,-66.6666666666667,4,1,0,60,0,0
166109,-100,4,1,0,60,0,0
166650,-66.6666666666667,4,1,0,60,0,0

[Colours]
Combo1 : 244,244,0
Combo2 : 236,0,0

[HitObjects]
64,56,840,1,0
152,56,1173,1,0
152,144,1506,1,0
176,152,1673,1,0
200,136,1839,2,0,B|288:136,1,75
296,136,2173,5,0
384,136,2506,1,0
296,136,2839,1,0
296,224,3173,1,0
272,224,3339,1,0
248,224,3506,5,0
160,224,3839,1,0
96,160,4173,1,0
88,184,4339,1,0
96,208,4506,2,0,B|96:312,1,75
96,304,4839,5,0
184,304,5173,1,0
272,304,5506,1,0
360,304,5839,1,0
384,304,6006,1,0
408,304,6173,5,0
408,216,6506,1,0
408,128,6839,1,0
384,120,7006,1,0
360,128,7173,2,0,B|280:128,1,75
264,128,7506,5,0
264,216,7839,1,0
176,216,8173,1,0
176,128,8506,1,0
176,104,8673,1,0
176,80,8839,5,0
88,80,9173,1,0
176,80,9506,1,0
200,72,9673,1,0
224,80,9839,2,0,B|312:80,1,75
320,80,10173,5,0
408,80,10506,1,0
408,168,10839,2,0,B|416:264,1,75
344,248,11173,2,0,B|336:144,1,75
336,152,11506,5,0
248,152,11839,2,0,B|152:144,1,75
152,152,12173,1,0
96,224,12506,2,0,B|176:216,1,75
192,224,12839,1,0
248,296,13173,2,0,B|173:296,1,75
152,296,13506,1,0
192,224,13839,1,0
216,224,14006,1,0
240,224,14173,5,0
328,224,14506,2,0,B|416:216,1,75
424,224,14839,1,0
480,152,15173,2,0,B|400:144,1,75
384,152,15506,1,0
328,80,15839,2,0,B|424:80,1,75
424,80,16173,1,0
384,152,16506,1,0
360,152,16673,1,0
336,152,16839,5,0
248,152,17173,1,0
248,152,17339,1,0
240,144,17506,1,0
160,152,17839,2,0,L|168:248,1,75
160,248,18173,1,0
80,320,18506,1,0
80,296,18673,1,0
88,272,18839,1,0
80,248,19006,2,0,L|72:136,1,75
80,152,19339,1,0
80,128,19506,1,0
168,120,19839,1,0
168,208,20173,1,0
256,208,20506,1,0
256,120,20839,1,0
168,120,21173,1,0
168,208,21451,2,0,L|168:296,1,75
184,296,21784,2,0,L|272:296,1,75
288,296,22173,1,0
360,304,22506,1,0
432,296,22839,1,0
432,272,23006,1,0
432,248,23173,1,0
432,176,23506,1,0
408,144,23673,2,0,L|328:144,1,75
320,112,24006,2,0,L|240:112,1,75
208,128,24339,2,0,L|128:128,1,75
96,136,24673,1,0
96,136,24839,1,0
88,208,25173,1,0
96,280,25506,1,0
96,304,25673,1,0
96,328,25839,1,0
168,336,26173,1,0
192,304,26339,2,0,L|280:304,1,75
280,272,26673,2,0,L|360:272,1,75
384,296,27006,2,0,L|464:296,1,75
472,224,27506,1,0
464,152,27839,1,0
464,80,28173,1,0
440,80,28339,1,0
416,80,28506,1,0
368,136,28839,1,0
368,160,29006,1,0
368,184,29173,1,0
304,224,29506,1,0
240,192,29839,1,0
216,192,30006,1,0
256,192,30173,12,0,31339
256,192,31506,5,0
328,192,31839,1,0
256,192,32173,1,0
232,192,32339,1,0
208,192,32506,1,0
112,192,32839,2,0,L|112:112,2,52.4999987483025
112,192,33340,1,0
112,264,33506,2,0,L|112:336,2,52.4999987483025
112,264,34006,1,0
184,264,34173,2,0,L|240:264,1,52.4999987483025
336,264,34506,2,0,L|283:264,1,52.4999987483025
264,224,34839,2,0,L|288:216|240:216|288:200|232:200|296:176|240:168,1,292.499994769693
184,264,35506,2,0,L|184:320,2,52.4999987483025
184,264,36006,1,0
184,192,36173,2,0,L|184:136,2,52.4999987483025
184,192,36673,1,0
256,192,36839,2,0,L|312:192,1,52.4999987483025
408,192,37173,2,0,L|344:192,1,52.4999987483025
333,150,37506,2,0,L|357:142|309:142|357:126|301:126|365:102|309:94,1,292.499994769693
256,192,38173,2,0,L|256:256,2,52.4999987483025
256,192,38673,1,0
256,120,38839,2,0,L|256:56,2,52.4999987483025
256,120,39339,1,0
328,120,39506,2,0,L|384:120,1,52.4999987483025
480,120,39839,2,0,L|416:120,1,52.4999987483025
403,79,40173,2,0,L|427:71|379:71|427:55|371:55|435:31|379:23,1,292.499994769693
328,120,40839,2,0,L|248:120,1,75
328,120,41173,1,0
256,192,41506,2,0,L|336:192,1,75
256,192,41840,1,0
256,264,42173,2,0,L|256:312,6,26.2499993741512
256,264,42839,1,0
