osu file format v9

[General]
AudioFilename: Mr.Music.mp3
AudioLeadIn: 0
PreviewTime: 74805
Countdown: 0
SampleSet: Soft
StackLeniency: 0.7
Mode: 0
LetterboxInBreaks: 1

[Editor]
DistanceSpacing: 0.8
BeatDivisor: 4
GridSize: 8

[Metadata]
Title:Mr. Music
Artist:Nico Nico Douga
Creator:kawaiipandah
Version:Hard
Source:Vocaloid
Tags:hatsune miku kagamine len rin megurine luka utai riku gumi

[Difficulty]
HPDrainRate:6
CircleSize:5
OverallDifficulty:7
ApproachRate:8
SliderMultiplier:1.7
SliderTickRate:1

[Events]
//Background and Video events
0,0,"mr music.png"
Video,0,"Mr.Music2.flv"
//Break Periods
2,24841,26104
2,90251,91022
2,103283,107497
//Storyboard Layer 0 (Background)
//Storyboard Layer 1 (Fail)
//Storyboard Layer 2 (Pass)
//Storyboard Layer 3 (Foreground)
//Storyboard Sound Samples
//Background Colour Transformations
3,100,163,162,255

[TimingPoints]
7920,491.803278688525,4,2,0,100,1,0
74805,-100,4,2,0,100,0,1
90044,-100,4,2,0,100,0,0
123267,-100,4,2,0,100,0,1
139237,-100,4,2,0,100,0,0

[Colours]
Combo1 : 166,139,190
Combo2 : 243,114,114
Combo3 : 240,236,145
Combo4 : 146,215,100
Combo5 : 153,216,219

[HitObjects]
112,32,7920,1,8
112,256,8411,5,4
352,320,9887,5,0
424,320,10133,2,0,B|496:320|456:232,1,85,0|8
440,136,10870,1,0
440,136,11116,1,0
440,136,11362,1,8
392,88,11608,2,0,B|376:32|288:64,4,85,0|0|0|8|0
264,136,13083,6,0,B|176:200,1,85
136,216,13575,1,0
136,288,13821,1,8
272,288,14313,1,8
336,312,14559,2,0,B|360:248|288:224,1,85,0|0
312,168,15051,5,4
200,88,15542,1,0
136,64,15788,1,8
88,112,16034,2,0,B|72:176|160:192,1,85
120,248,16526,5,4
184,280,16772,2,0,B|120:328|208:360,1,85,8|0
248,344,17264,1,0
304,304,17510,1,0
360,264,17756,5,8
432,144,18247,1,8
344,40,18739,1,8
344,40,18862,1,0
344,40,18985,1,0
208,32,19477,6,8,B|152:16|128:88,1,85,8|0
192,104,19969,6,8,B|184:160|88:136,1,85,8|0
56,144,20460,1,4
56,280,20952,1,0
128,280,21198,1,0
200,280,21444,1,0
272,280,21690,6,8,B|392:280,1,85,8|0
408,240,22182,2,8,B|456:144,1,85,8|0
456,96,22674,2,0,B|344:96,1,85,8|0
304,96,23165,6,0,B|240:120|224:208|336:232,1,170
272,280,23903,1,8
208,280,24149,1,0
176,280,24272,1,8
144,280,24395,1,0
80,280,24641,1,4
328,32,26854,5,0
328,32,27100,1,0
296,104,27346,2,0,B|224:40|96:88,1,170
64,80,28083,1,8
64,184,28452,5,0
64,248,28698,2,0,B|112:328|210:293,1,127.5,0|4
240,304,29313,2,0,B|464:304,2,212.5
232,240,30788,2,0,B|248:176|304:168,1,85
352,168,31280,5,0
416,136,31526,1,0
416,64,31772,1,0
352,40,32018,1,0
232,104,32510,1,0
160,216,33001,6,0,B|104:136|-32:192|16:304,2,255,8|0|8
232,216,34723,1,0
232,216,34969,1,0
232,288,35215,2,0,B|400:288,1,170
472,288,35952,1,0
488,152,36444,5,0
376,72,36936,1,0
312,64,37182,2,0,B|208:64,1,85
168,24,37674,2,0,B|0:24|24:216,1,255,0|4
120,296,39149,6,0,B|128:360|208:328,1,85
280,336,39641,2,0,B|224:280|192:360,1,85
192,264,40133,2,0,B|191:153,1,85
192,112,40624,1,0
264,112,40870,2,0,B|312:48|448:48|496:136,1,255
232,40,42592,6,0,B|128:40,1,85
88,80,43083,2,0,B|32:112|77:168,1,85
144,264,43821,1,8
280,264,44313,1,0
344,264,44559,1,0
344,264,44805,2,0,B|424:256|480:224|504:160,2,170
248,88,46526,6,0,B|272:32|352:96,1,85
256,88,47018,6,0,B|232:32|152:96,1,85
208,208,47756,1,8
360,208,48247,2,0,B|352:264|272:264,1,85
296,192,48739,2,0,B|288:104|120:48|72:232|168:288,1,340,0|4
432,256,50460,6,0,B|336:312,1,85
328,240,50952,2,0,B|432:176,1,85
432,136,51444,1,0
368,112,51690,1,0
368,40,51936,2,0,B|262:42,1,85
216,40,52428,6,0,B|144:48|152:128,1,85
104,136,52920,1,8
80,200,53165,2,0,B|192:200,1,85,0|0
208,256,53657,2,0,B|296:200|280:304|400:240,1,170,0|4
416,64,54887,5,0
344,64,55133,1,0
272,64,55379,1,0
264,128,55624,2,0,B|192:112|216:32,1,85
144,64,56116,2,0,B|160:-8|240:16,1,85
256,192,56608,12,4,58083
256,192,59067,5,0
392,48,59559,1,8
256,192,60051,1,0
128,48,60542,1,8
128,48,61034,1,0
96,112,61280,6,0,B|24:88|32:176,3,85,0|8|0|0
48,208,62264,1,0
88,264,62510,1,8
152,240,62756,1,0
208,280,63001,6,0,B|312:280,1,85
376,280,63493,2,0,B|272:280,1,85,8|0
288,208,63985,2,0,B|360:208|384:104|296:80,2,170,0|8|0
280,144,65215,1,0
232,96,65460,1,8
176,56,65706,2,0,B|72:56,3,85,0|0|0|8
72,192,66936,5,0
160,296,67428,1,8
248,192,67920,1,0
200,144,68165,2,0,B|240:96|304:144,1,85
344,128,68657,1,4
416,248,69149,6,0,B|504:312,1,85
440,248,69641,2,0,B|360:312,1,85
256,272,70133,2,0,B|224:344|120:312,2,127.5,0|0|8
152,184,71362,1,8
48,40,71854,5,8
264,40,72346,1,8
416,184,72838,1,8
264,280,73329,1,8
264,280,73575,1,4
120,296,74805,6,0,B|176:376|304:320,2,170,0|0|8
120,232,76034,1,0
120,168,76280,2,0,B|64:128|144:88,1,85
192,96,76772,2,0,B|264:168|368:80,2,170,8|0|8
120,96,78001,5,0
48,96,78247,1,0
80,152,78493,2,0,B|-24:224|104:304,2,170,0|0|4
256,48,80215,2,0,B|360:0|432:96,1,170
448,128,80952,1,8
384,160,81198,2,0,B|312:152|328:240,2,85,0|0|4
272,80,82182,5,0
136,80,82674,1,8
64,200,83165,1,8
168,288,83657,1,8
304,312,84149,6,0,B|416:272|360:160,1,170,0|4
416,128,84887,1,0
376,72,85133,1,0
376,72,85379,1,0
376,72,85624,1,0
288,128,86116,5,8
136,32,86608,5,8
8,152,87100,5,8
88,304,87592,5,8
288,264,88083,5,4
256,192,88575,12,4,90051
440,160,91772,5,0
440,96,92018,1,0
440,32,92264,2,0,B|400:0|336:32,1,85
288,24,92756,2,0,B|240:64|304:128,1,85
280,168,93247,5,0
328,216,93493,1,0
360,280,93739,2,0,B|248:280,1,85
208,280,94231,6,0,B|112:288|80:128|192:88,1,255
400,48,95706,1,0
336,16,95952,2,0,B|320:128|440:112,2,170
264,24,97182,1,0
200,24,97428,5,0
136,24,97674,1,0
72,24,97920,2,0,B|8:48|8:128|72:160,2,170
224,160,99641,1,0
224,232,99887,5,0
296,232,100133,1,0
368,232,100379,2,0,B|368:120,1,85
368,80,100870,1,0
312,40,101116,5,0
256,8,101362,2,0,B|144:8,2,85
240,72,102100,1,0
192,120,102346,2,0,B|256:136|240:208,3,85
256,192,108247,5,0
160,96,108739,1,8
256,192,109231,1,0
360,104,109722,1,8
360,104,109969,1,0
360,104,110214,1,0
400,160,110460,6,0,B|472:136|472:216,3,85,0|8|0|0
472,256,111444,1,0
408,288,111690,1,8
344,288,111936,1,0
280,288,112181,6,0,B|184:288,1,85
192,216,112673,2,0,B|288:216,1,85,8|0
280,144,113165,2,0,B|216:160|160:72|248:16,2,170,0|8|0
272,80,114395,1,0
336,80,114640,5,8
400,80,114886,2,0,B|488:80,3,85,0|0|0|8
440,208,116116,1,0
336,288,116608,1,8
280,160,117100,5,0
336,120,117345,2,0,B|304:72|248:96,1,85
192,88,117837,1,4
120,208,118329,2,0,B|40:264,1,85
48,208,118821,6,0,B|120:264,1,85
184,280,119313,2,0,B|216:352|312:320,2,127.5,0|0|8
288,200,120542,1,8
392,112,121034,1,8
272,48,121526,5,8
160,128,122018,2,0,B|136:72|64:96,1,85
96,160,122509,1,8
96,160,122755,1,4
136,288,123985,6,0,B|208:376|304:288,2,170,0|0|8
168,232,125214,1,0
232,232,125460,2,0,B|288:192|240:136,1,85
256,88,125952,2,0,B|176:16|72:88,2,170,8|0|8
320,88,127181,5,0
384,88,127427,1,0
416,144,127673,2,0,B|360:232|248:160,2,170,0|0|4
448,80,128903,1,0
376,80,129149,5,0
312,48,129395,2,0,B|216:0|128:88,1,170
96,96,130132,1,8
144,144,130378,2,0,B|224:136|200:224,2,85,0|0|4
96,272,131362,5,0
232,272,131854,1,8
368,272,132345,1,8
368,136,132837,1,8
232,136,133329,6,0,B|120:128|104:240,1,170,0|4
40,224,134067,1,0
40,152,134313,2,0,B|40:48,2,85
168,112,135296,5,8
432,112,135788,5,8
432,296,136280,5,8
168,296,136772,5,8
304,200,137263,5,4
256,192,137755,12,4,139231
