osu file format v9

[General]
AudioFilename: Mr.Music.mp3
AudioLeadIn: 0
PreviewTime: 74805
Countdown: 0
SampleSet: Soft
StackLeniency: 0.7
Mode: 0
LetterboxInBreaks: 1

[Editor]
DistanceSpacing: 0.6
BeatDivisor: 4
GridSize: 8

[Metadata]
Title:Mr. Music
Artist:Nico Nico Douga
Creator:kawaiipandah
Version:Easy
Source:Vocaloid
Tags:hatsune miku kagamine len rin megurine luka utai riku gumi

[Difficulty]
HPDrainRate:3
CircleSize:3
OverallDifficulty:3
ApproachRate:3
SliderMultiplier:1.4
SliderTickRate:1

[Events]
//Background and Video events
0,0,"mr music.png"
Video,0,"Mr.Music2.flv"
//Break Periods
2,24841,25660
2,57299,57627
2,89758,90578
2,99103,106807
//Storyboard Layer 0 (Background)
//Storyboard Layer 1 (Fail)
//Storyboard Layer 2 (Pass)
//Storyboard Layer 3 (Foreground)
//Storyboard Sound Samples
//Background Colour Transformations
3,100,163,162,255

[TimingPoints]
7920,491.803278688525,4,2,0,100,1,0
74805,-100,4,2,0,100,0,1
90044,-100,4,2,0,100,0,0
123267,-100,4,2,0,100,0,1
139237,-100,4,2,0,100,0,0

[Colours]
Combo1 : 166,139,190
Combo2 : 243,114,114
Combo3 : 240,236,145
Combo4 : 146,215,100
Combo5 : 153,216,219

[HitObjects]
256,192,7919,1,8
256,192,8411,1,4
456,72,9887,2,0,B|432:0|352:-16,1,140,0|8
288,40,10870,1,0
200,40,11362,5,8
200,128,11854,2,0,B|368:128,2,140,0|8|0
112,128,13329,1,8
24,128,13821,1,0
24,216,14313,5,8
24,304,14805,2,0,B|88:352|168:296,1,140,0|8
240,304,15788,1,0
240,304,16280,1,8
328,304,16772,6,0,B|472:304,1,140,0|8
472,216,17756,1,0
472,216,18247,1,8
472,128,18739,1,0
472,40,19231,5,8
392,8,19723,2,0,B|248:8,2,140,0|8|0
392,96,21198,1,8
336,160,21690,1,0
264,208,22182,6,0,B|200:272|120:192,1,140,8|0
80,152,23165,2,0,B|80:0,2,140,8|0|8
80,152,24641,1,4
400,192,27100,5,0
400,104,27592,2,0,B|480:40|384:0,1,140
296,0,28575,1,0
200,0,29067,2,0,B|104:8|56:72|104:152|208:144,1,280
288,136,30542,6,0,B|344:72|424:96,1,140
464,160,31526,1,0
464,248,32018,1,0
400,304,32510,1,0
320,304,33001,6,0,B|256:384|192:296,1,140
72,208,34477,2,0,B|72:368,2,140
72,120,35952,1,0
72,40,36444,1,0
160,40,36936,6,0,B|224:104|200:176,1,140
288,168,37920,1,0
288,88,38411,1,0
368,88,38903,1,0
448,88,39395,6,0,B|448:248,1,140
448,312,40379,2,0,B|288:312,2,140
344,176,42346,2,0,B|344:32,1,140
264,32,43329,1,0
264,32,43821,5,0
184,32,44313,1,0
184,32,44805,1,0
96,32,45297,2,0,B|16:48|16:136,1,140
96,136,46280,5,0
176,136,46772,1,0
176,224,47264,2,0,B|24:224,2,140
176,312,48739,1,0
176,312,49231,6,0,B|344:312,1,140
472,272,50706,1,0
408,216,51198,1,0
472,160,51690,1,0
408,104,52182,6,0,B|496:48|400:0,1,140
320,0,53165,1,0
320,0,53657,1,0
232,0,54149,2,0,B|232:144,1,140
152,136,55133,5,0
232,136,55624,1,0
320,136,56116,2,0,B|472:136,2,140
32,312,59067,5,8
32,232,59559,1,8
32,152,60051,1,8
32,232,60542,1,8
120,232,61034,5,0
120,232,61526,2,0,B|272:232,2,140,0|0|4
120,144,63001,1,8
56,88,63493,1,8
120,32,63985,5,8
184,80,64477,1,8
184,80,64969,2,0,B|240:8|320:64,1,140
392,80,65952,2,0,B|336:8|256:64,1,140,0|4
232,136,66936,6,0,B|136:136,3,70
232,184,68165,2,0,B|328:184,2,70
232,272,69149,2,0,B|136:272,2,70
360,272,70379,2,0,B|504:288|480:144,2,210
304,208,72346,5,0
248,144,72838,1,0
192,80,73329,1,8
192,80,73575,1,4
48,232,74805,6,0,B|72:312|168:320,1,140,0|8
232,320,75788,1,0
320,320,76280,2,0,B|472:320,2,140,8|0|8
320,232,77756,1,0
400,232,78247,5,8
488,232,78739,1,0
440,160,79231,1,8
440,160,79723,1,0
360,128,80215,2,0,B|408:40|296:24,1,140,8|0
232,24,81198,1,8
144,24,81690,5,4
64,32,82182,2,0,B|-24:80|32:168,1,140,0|8
64,224,83165,2,0,B|152:176|96:88,1,140,0|8
192,128,84149,1,0
192,128,84641,6,0,B|272:72,4,70,8|0|0|0|0
240,200,86116,1,8
328,200,86608,1,8
416,200,87100,1,8
416,112,87592,5,8
416,32,88083,1,8
328,32,88575,2,0,B|304:104,4,70,0|0|0|0|4
96,64,92018,6,0,B|152:16|240:24,1,140
304,24,93001,2,0,B|392:16|448:88,1,140
464,144,93985,1,0
464,232,94477,1,4
304,288,95460,6,0,B|160:288,1,140
80,280,96444,1,0
32,216,96936,1,0
80,144,97428,1,0
80,144,97920,2,0,B|88:48|216:0|304:80,1,280,0|4
248,32,108247,5,8
248,120,108739,1,8
336,120,109231,1,8
248,120,109723,1,8
160,120,110215,6,0,B|104:136|120:200,4,70,0|0|0|0|4
248,120,111690,1,0
328,120,112182,2,0,B|488:120,1,140,8|0
472,120,113165,2,0,B|472:272,1,140,8|0
384,264,114149,5,8
320,208,114641,1,8
264,272,115133,2,0,B|176:272|128:240,2,140,8|0|0
248,192,116608,2,0,B|176:136,2,70,0|0|8
344,192,117592,6,0,B|400:136,2,70,0|0|8
296,120,118575,2,0,B|296:48,2,70,0|0|8
208,120,119559,1,8
144,64,120051,1,8
80,120,120542,5,8
144,176,121034,1,8
144,176,121526,2,0,B|112:280|224:288,1,140
280,288,122510,1,8
320,288,122756,1,4
456,128,123985,6,0,B|360:0,2,140,0|8|0
384,168,125460,1,8
456,216,125952,2,0,B|360:344,2,140,0|8|0
384,168,127428,1,8
384,168,127920,6,0,B|376:72|272:72,2,140,0|8|0
304,176,129395,1,8
216,176,129887,2,0,B|240:288|64:320|32:208,1,280,0|4
32,128,131362,1,8
88,64,131854,5,0
152,120,132346,1,8
96,184,132838,1,0
96,184,133329,1,8
96,184,133821,6,0,B|96:280|176:280,2,140,0|8|0
176,160,135297,5,8
240,112,135788,5,8
312,160,136280,5,8
280,240,136772,5,8
200,240,137264,5,8
256,192,137756,12,4,139231
