osu file format v7

[General]
AudioFilename: Misao of the Sprite Tribe.mp3
AudioLeadIn: 0
PreviewTime: 14033
Countdown: 1
SampleSet: Normal
StackLeniency: 0.7
Mode: 0
LetterboxInBreaks: 1
SkinPreference:LuckyStar

[Editor]
Bookmarks: 6003,22064,30597
DistanceSpacing: 0.699999988079071
BeatDivisor: 2
GridSize: 8

[Metadata]
Title:Misao of the Sprite Tribe
Artist:Nico Nico Douga
Creator:Teta268
Version:Normal
Source:
Tags:Secret of Mana Lucky Star

[Difficulty]
HPDrainRate:4
CircleSize:4
OverallDifficulty:5
SliderMultiplier:1.9
SliderTickRate:2

[Events]
//Background and Video events
0,0,"Konachan.com - 54981 sample.jpg"
Video,0,"Misao of the Sprite Tribe.avi"
//Break Periods
//Storyboard Layer 0 (Background)
//Storyboard Layer 1 (Fail)
//Storyboard Layer 2 (Pass)
//Storyboard Layer 3 (Foreground)
//Storyboard Sound Samples
//Background Colour Transformations
3,100,163,162,255

[TimingPoints]
6003,501.882057716437,4,1,0,100,1,0

[Colours]
Combo1 : 140,70,70
Combo2 : 86,251,38
Combo3 : 6,84,200
Combo4 : 255,74,74

[HitObjects]
416,72,6003,1,0
368,112,6253,1,8
320,152,6504,1,0
256,152,6755,2,0,B|144:152,1,95,8|0
64,240,7508,1,8
191,131,8010,5,2
255,131,8261,1,0
319,131,8512,1,8
321,253,9014,1,2
257,253,9265,1,0
193,253,9516,1,8
80,192,10018,6,0,B|80:96,1,95
144,96,10519,1,8
256,168,11021,1,0
368,96,11523,1,8
472,176,12025,5,0
472,240,12276,1,8
472,304,12527,2,0,B|336:304|432:208|275:208,1,190
186,211,13531,1,8
392,192,14033,5,0
256,192,14534,1,8
120,192,15036,1,0
168,144,15287,1,8
216,96,15538,2,0,B|296:16,1,95
336,64,16040,5,0
384,192,16542,1,8
336,320,17044,1,0
272,320,17295,1,8
208,320,17546,2,0,B|104:264|104:160,1,190,0|8
128,112,18299,5,0
192,112,18550,1,8
296,192,19051,1,8
232,192,19302,1,0
168,192,19553,1,8
256,320,20055,5,0
320,320,20306,2,0,B|384:322|384:248,1,95,0|8
383,197,20808,2,0,B|383:140|321:139,1,95,0|8
189,139,21561,1,8
64,192,22063,5,0
128,192,22314,1,8
192,192,22565,1,0
256,192,22816,1,8
320,192,23066,2,0,B|320:72,1,95,0|8
386,97,23568,2,0,B|386:194,1,95,0|8
320,192,24070,5,0
280,248,24321,1,8
240,296,24572,1,0
104,288,25074,2,4,B|15:201|113:122,1,190
216,56,26078,5,0
256,184,26580,2,0,B|348:90|421:195,1,190,8|8
372,237,27332,1,0
324,285,27583,1,8
168,192,28085,5,8
256,88,28587,1,0
344,192,29089,1,8
408,192,29340,1,8
472,192,29591,2,0,B|472:312,1,95
408,288,30093,5,0
272,296,30595,1,2
344,184,31097,1,0
280,184,31348,1,8
216,184,31598,2,0,B|120:184|120:96|48:96,1,190,2|0
48,232,32602,5,2
104,272,32853,1,0
160,312,33104,1,0
296,312,33606,1,2
208,96,34108,6,0,B|326:96,1,95
304,160,34610,1,8
304,288,35112,6,0,B|186:288,1,95
208,224,35614,1,8
336,192,36115,5,0
256,80,36617,1,8
176,192,37119,1,0
112,192,37370,2,8,B|112:296,1,95
168,128,38123,5,2
224,248,38625,1,2
344,128,39127,5,2
288,248,39629,1,2
400,320,40130,5,0
336,320,40381,1,0
272,320,40632,2,0,B|64:320,1,190,8|0
82,186,41636,1,8
192,112,42138,5,8
256,232,42640,1,8
320,112,43142,1,0
360,168,43393,1,0
400,224,43644,1,8
280,304,44146,6,4,B|80:304,1,190
232,80,45149,6,4,B|432:80,1,190
