osu file format v7

[General]
AudioFilename: Misao of the Sprite Tribe.mp3
AudioLeadIn: 0
PreviewTime: 14033
Countdown: 1
SampleSet: Normal
StackLeniency: 0.7
Mode: 0
LetterboxInBreaks: 1
SkinPreference:LuckyStar

[Editor]
Bookmarks: 6003,22064,30597
DistanceSpacing: 0.600000023841858
BeatDivisor: 2
GridSize: 8

[Metadata]
Title:Misao of the Sprite Tribe
Artist:Nico Nico Douga
Creator:Teta268
Version:Easy
Source:
Tags:Secret of Mana Lucky Star

[Difficulty]
HPDrainRate:3
CircleSize:3
OverallDifficulty:4
SliderMultiplier:1.5
SliderTickRate:2

[Events]
//Background and Video events
0,0,"Konachan.com - 54981 sample.jpg"
Video,0,"Misao of the Sprite Tribe.avi"
//Break Periods
//Storyboard Layer 0 (Background)
//Storyboard Layer 1 (Fail)
//Storyboard Layer 2 (Pass)
//Storyboard Layer 3 (Foreground)
//Storyboard Sound Samples
//Background Colour Transformations
3,100,163,162,255

[TimingPoints]
6003,501.882057716437,4,1,0,100,1,0

[Colours]
Combo1 : 140,70,70
Combo2 : 86,251,38
Combo3 : 6,84,200
Combo4 : 255,74,74

[HitObjects]
120,192,6003,1,0
192,248,6504,2,0,B|254:312|335:241,1,150,8|0
392,192,7508,1,8
320,136,8010,6,0,B|258:72|177:143,1,150,0|8
112,192,9014,2,0,B|177:281|223:315,1,150,8|8
300,304,10018,6,0,B|338:280|411:181,1,150,0|8
312,192,11021,1,0
256,120,11523,1,8
200,192,12025,5,0
256,264,12527,1,0
344,264,13029,1,12
288,192,13531,1,12
200,192,14033,5,0
112,192,14534,1,0
112,104,15036,2,8,B|200:104,2,75
112,192,16040,5,0
112,280,16542,1,0
200,280,17044,2,0,B|256:224|168:192|160:128|224:72|248:72|256:72,1,225,8|0
280,64,18048,1,8
330,133,18550,5,0
362,213,19051,1,8
402,293,19553,1,0
314,293,20055,5,0
274,213,20557,2,0,B|210:61,1,150,8|8
125,74,21561,1,8
256,192,22063,12,4,23568
344,248,24070,6,0,B|256:248,2,75
432,248,25074,2,8,B|421:178|320:214|346:92,1,150
256,104,26078,5,0
256,192,26580,1,8
294,273,27082,2,0,B|218:273,2,75,0|0|8
344,200,28085,5,0
304,120,28587,1,8
213,120,29089,1,0
168,200,29591,2,2,B|88:200,2,75,2|0|2
256,168,30595,5,0
344,192,31097,1,2
432,216,31598,1,0
376,288,32100,5,2
288,264,32602,2,0,B|184:200,2,75,2|0|2
344,192,33606,1,2
288,120,34108,6,0,B|132:120,1,150,0|8
192,192,35112,2,0,B|348:192,1,150,0|8
392,112,36115,5,0
312,72,36617,1,8
232,112,37119,2,8,B|152:112,1,75,8|0
112,112,37621,1,8
168,184,38123,5,2
211,263,38625,1,2
300,263,39127,1,2
344,184,39629,1,2
400,112,40130,5,0
312,112,40632,2,0,B|160:112,1,150
104,184,41636,1,0
104,272,42138,5,8
192,272,42640,1,8
280,272,43142,2,0,B|352:216,2,75,0|0|8
192,272,44146,5,2
120,216,44647,1,2
120,128,45149,2,4,B|188:54|276:145,1,150,4|4
