osu file format v9

[General]
AudioFilename: Misaka Misaka.mp3
AudioLeadIn: 2000
PreviewTime: 26187
Countdown: 0
SampleSet: Soft
StackLeniency: 0.7
Mode: 0
LetterboxInBreaks: 0

[Editor]
Bookmarks: 38093
DistanceSpacing: 1.3
BeatDivisor: 2
GridSize: 8

[Metadata]
Title:Misaka Misaka
Artist:Nico Nico Douga
Creator:Weezy
Version:Easy
Source:Toaru Majutsu no Index x Maimu Maimu
Tags:Saten-san mayim mikoto last order imouto

[Difficulty]
HPDrainRate:2
CircleSize:3
OverallDifficulty:2
ApproachRate:2
SliderMultiplier:0.8
SliderTickRate:1

[Events]
//Background and Video events
Video,0,"Misaka Misaka (To aru majutsu no Index x Maimu Maimu)_(360p).avi"
0,0,"BG.jpg"
//Break Periods
//Storyboard Layer 0 (Background)
//Storyboard Layer 1 (Fail)
//Storyboard Layer 2 (Pass)
//Storyboard Layer 3 (Foreground)
//Storyboard Sound Samples
//Background Colour Transformations
3,100,163,162,255

[TimingPoints]
206,432.744320230797,4,2,0,100,1,0
52568,-100,4,2,0,70,0,0
53000,-100,4,2,0,60,0,0
53433,-100,4,2,0,50,0,0
53866,-100,4,2,0,40,0,0
54299,-100,4,2,0,30,0,0
54731,-100,4,2,0,20,0,0
55164,-100,4,2,0,10,0,0
55597,-100,4,2,0,0,0,0

[Colours]
Combo1 : 255,128,192
Combo2 : 255,255,128
Combo3 : 128,255,128
Combo4 : 128,255,255

[HitObjects]
80,192,206,2,0,B|176:224|240:112,1,160,4|2
424,192,1937,2,0,B|328:224|264:112,1,160,4|2
152,256,3668,6,0,B|56:256,2,80
128,152,4966,1,2
232,136,5399,6,0,B|328:184,2,80
240,32,6697,1,2
136,56,7130,6,0,B|48:96|80:216,1,160
176,184,8428,1,2
192,288,8861,6,0,B|136:288|88:328,3,80,0|0|0|2
96,208,10592,6,0,B|160:144|256:144|312:216,1,240,4|4
392,272,12323,6,0,B|472:320,1,80
488,216,13188,1,2
488,216,13621,1,2
416,144,14054,6,0,B|352:80|256:80|200:152,1,240,4|4
120,200,15785,6,0,B|120:104,1,80
120,16,16650,1,2
216,48,17083,1,2
304,96,17516,6,0,B|304:192,3,80,4|4|4|4
216,248,19247,6,0,B|152:248|152:128|232:128,2,160
320,248,21410,1,2
328,144,21843,1,0
432,152,22276,2,2,B|488:152|488:240|488:240,1,80,2|4
312,320,23574,5,2
216,288,24007,1,0
168,200,24440,2,0,B|88:200,2,80,2|0|2
272,200,25738,1,4
256,192,26171,12,0,28768
112,128,29633,6,0,B|216:128,2,80,4|2|0
88,232,30931,1,2
176,288,31364,6,0,B|264:304|208:352|328:360,1,160
360,272,32662,1,2
304,184,33095,6,0,B|208:128,3,80,0|2|0|2
136,96,34826,6,0,B|192:24|288:24|336:104,1,240,0|2
288,200,36557,6,0,B|184:200,3,80,4|4|4|4
112,240,38288,6,0,B|112:328,1,80,0|2
16,272,39153,2,0,B|16:176,1,80,0|2
80,112,40019,6,0,B|320:112,1,240,4|4
360,208,41750,6,0,B|272:208,1,80
176,192,42615,1,2
72,208,43048,1,2
112,304,43481,6,0,B|208:304,1,80,4|4
296,280,44346,2,0,B|352:280|296:224|352:224,1,80,4|2
384,128,45212,6,0,B|272:128,1,80
216,184,46077,2,2,B|120:184,1,80
80,272,46943,2,0,B|-16:272,3,80,0|2|2|0
24,168,48674,5,4
80,80,49107,1,2
176,120,49539,2,2,B|176:168|128:208,1,80
64,264,50405,5,0
136,336,50838,1,2
240,328,51270,2,2,B|312:328|344:296,1,80
256,192,52136,12,4,55600
