osu file format v7

[General]
AudioFilename: vs.mp3
AudioLeadIn: 0
PreviewTime: 18440
Countdown: 1
SampleSet: Normal
StackLeniency: 0.7
Mode: 0
LetterboxInBreaks: 1

[Editor]
DistanceSpacing: 1
BeatDivisor: 4
GridSize: 16

[Metadata]
Title:Masukudo Kajan
Artist:Nico Nico Douga
Creator:LoweH
Version:Hard
Source:
Tags:K-ON! remix MAD yui jaka jaka jan KIA Teara

[Difficulty]
HPDrainRate:5
CircleSize:4
OverallDifficulty:6
SliderMultiplier:1.8
SliderTickRate:2

[Events]
//Background and Video events
0,0,"BG_DIFFICULTY_JAKA_JAKA.jpg"
Video,0,"jaka jaka.flv"
//Break Periods
2,42475,44125
//Storyboard Layer 0 (Background)
//Storyboard Layer 1 (Fail)
//Storyboard Layer 2 (Pass)
//Storyboard Layer 3 (Foreground)
//Storyboard Sound Samples
//Background Colour Transformations
3,100,163,162,255

[TimingPoints]
18475,400,4,1,0,100,1,0
42470,-50,4,2,0,100,0,0
45170,-100,4,2,0,100,0,0
45470,-100,4,2,0,51,0,0
45970,-100,4,2,0,59,0,0
46670,-100,4,2,0,69,0,0
47170,-100,4,2,0,80,0,0
47670,-100,4,1,0,91,0,0
55170,-200,4,2,0,12,0,0

[Colours]
Combo1 : 0,174,0
Combo2 : 192,115,63
Combo3 : 3,3,173
Combo4 : 171,3,3

[HitObjects]
64,112,18475,2,8,B|80:160,1,45
112,240,18775,1,0
112,240,18875,1,0
192,192,19075,6,8,B|240:176,1,45
176,96,19375,2,0,B|240:112,1,45
304,128,19675,6,0,B|336:80,3,45
320,176,20075,2,8,B|416:256,1,90
320,288,20475,2,0,B|224:288,1,90
144,288,20875,2,0,B|96:288,2,45
144,192,21275,2,0,B|144:144,2,45
240,192,21675,1,0
240,192,21775,1,0
240,192,21875,1,0
336,192,22075,2,0,B|448:192,1,90
448,96,22475,2,0,B|160:96,1,270
96,112,23275,5,8
16,160,23475,1,0
16,160,23575,1,0
16,160,23675,1,0
0,256,23875,2,0,B|192:256,1,180
272,256,24475,2,0,B|400:256,1,90
448,256,24875,6,0,B|512:224|512:144,3,135,0|0|0|8
464,128,25875,1,8
384,80,26075,1,0
384,80,26175,1,0
384,80,26275,1,0
288,80,26475,6,0,B|144:80,1,135
112,80,26875,2,0,B|32:80|32:224,1,180
32,304,27475,2,0,B|160:304,1,90
208,304,27875,2,0,B|368:304|368:192,1,180
368,192,28375,2,0,B|368:80|240:64,1,180
176,64,28975,2,0,B|176:16,3,45
176,112,29475,1,2
192,208,29675,6,0,B|64:208,1,90,0|8
32,160,30075,2,0,B|-16:208|48:272,1,90
64,320,30475,1,0
112,320,30575,2,0,B|272:320,1,135
432,304,31275,6,0,B|496:208,1,90,0|8
448,144,31675,2,0,B|384:80|512:96|448:32,1,135,8|0
400,32,32075,1,0
352,32,32175,2,0,B|208:32,1,135
256,112,32675,6,0,B|160:144,1,90,0|8
96,176,33075,2,0,B|96:272,1,90,0|8
96,266,33475,1,0
160,320,33675,2,0,B|112:368,4,45,0|0|0|2|0
224,256,34275,1,8
288,320,34475,6,0,B|384:320,1,90
448,256,34875,2,0,B|448:144,1,90
432,80,35275,2,0,B|320:80,1,90
304,160,35675,2,0,B|240:160,4,45,0|0|0|8|0
256,240,36275,5,0
224,320,36475,1,0
144,320,36675,1,0
80,256,36875,1,0
16,192,37075,2,0,B|-32:160|80:160|16:112,1,90
80,48,37475,1,0
192,32,37675,5,0
272,16,37875,1,0
256,96,38075,1,0
336,64,38275,1,0
336,144,38475,2,8,B|336:192,1,45
352,272,38775,1,0
256,272,38975,1,0
176,288,39175,6,0,B|176:336,5,45
96,288,39875,1,0
48,224,40075,2,8,B|48:176,1,45
32,96,40375,1,0
112,64,40575,1,0
192,48,40775,5,0
192,48,40875,1,0
192,48,40975,1,0
320,48,41275,2,8,B|320:0,2,45
400,48,41675,1,0
400,48,41775,1,0
400,48,41875,1,0
400,128,42075,2,0,B|400:224,1,90
256,192,45175,12,0,47675
192,144,48075,6,8,B|192:208,1,45
352,144,48375,2,8,B|352:192,1,45
272,224,48675,5,0
192,272,48875,1,0
96,272,49075,1,0
32,208,49275,1,0
16,112,49475,2,0,B|16:16,1,90
96,48,49875,2,0,B|192:48,1,90
272,48,50275,6,0,B|384:48,1,90,0|8
432,112,50675,2,0,B|464:208,1,90
464,288,51075,2,0,B|448:368|304:352,1,180
272,272,51675,1,0
272,272,51775,1,0
272,272,51875,1,0
176,288,52075,5,0
176,288,52275,2,0,B|80:240|80:240,1,90,0|8
176,208,52675,2,0,B|176:96|176:96,1,90,8|0
80,128,53075,5,0
32,64,53275,2,0,B|-16:64,2,45
112,48,53675,2,0,B|400:48,1,270
384,176,54575,2,0,B|384:224,7,45,0|2|2|2|0|2|0|2
