osu file format v5

[General]
AudioFilename: Lucky Star Mario song.mp3
AudioLeadIn: 0
PreviewTime: -1
Countdown: 1
SampleSet: Normal
StackLeniency: 0.7
Mode: 0
LetterboxInBreaks: 1
SkinPreference:LuckyStar

[Metadata]
Title:Lucky Super Star Mario
Artist:Nico Nico Douga
Creator:4649Hachiko
Version:Normal
Source:4649Hachiko
Tags:Lucky, Star, Super, Mario, World, lol, 4649Hachiko

[Difficulty]
HPDrainRate:2
CircleSize:3
OverallDifficulty:2
SliderMultiplier:1.4
SliderTickRate:2

[Events]
//Background and Video events
1,0,"video.flv"
0,0,"804464086_1c8eb72348_b.jpg"
//Break Periods
2,22870,24778
//Storyboard Layer 0 (Background)
//Storyboard Layer 1 (Failing)
//Storyboard Layer 2 (Passing)
//Storyboard Layer 3 (Foreground)
//Storyboard Sound Samples
//Background Colour Transformations
3,100,163,162,255

[TimingPoints]
1192.71591707515,305.810397553517,4,1,1,80,1

[HitObjects]
256,192,1906,12,8,2925
256,192,3435,12,2,4454
256,192,5066,12,4,6187
256,160,6697,5,0
224,224,7117,1,2
288,192,7258,1,2
224,192,7469,1,2
288,224,7614,1,2
128,192,8226,6,4,C|320:192,3,186.666666666667
256,192,9857,1,0
256,128,10163,1,0
192,128,10265,1,0
192,192,10468,1,0
0,160,10978,2,2,C|64:160,1,46.6666666666667
0,192,11386,2,2,C|64:192,1,46.6666666666667
256,192,11896,5,0
192,160,12405,2,2,C|320:160,3,93.3333333333333
256,192,13221,12,0,15056
224,160,15463,6,2,C|288:160,1,46.6666666666667
288,192,15769,2,2,C|224:192,1,46.6666666666667
192,224,16177,2,4,C|288:128,3,93.3333333333333
256,192,17094,5,0
256,256,17502,1,0
320,192,17808,1,0
192,192,18114,1,0
192,160,18623,2,8,C|320:160,2,93.3333333333333
320,224,19235,6,0,C|192:128,2,140
0,192,20051,2,8,C|256:0|512:192|256:384|32:224,1,1260
0,128,25963,5,4
64,128,26167,1,4
160,128,26473,1,4
224,128,26676,1,4
320,128,26982,1,4
384,128,27492,1,4
384,128,27594,1,4
384,128,27696,1,4
160,192,28104,2,2,C|416:192,1,233.333333333333
480,288,28919,5,4
384,288,29225,1,4
320,288,29531,1,4
288,288,29633,1,4
160,288,29938,1,4
64,288,30550,1,4
64,288,30652,1,4
64,288,30754,1,4
224,160,31264,6,0,C|320:160,3,93.3333333333333
256,384,32079,5,0
256,320,32385,1,0
256,256,32691,1,0
256,256,32793,1,0
256,192,32996,1,0
256,192,33098,1,0
256,32,33506,5,4
0,192,34729,5,4
64,192,34933,1,4
160,192,35239,1,4
192,192,35443,1,4
224,192,35647,1,0
288,192,35953,1,0
320,192,36360,1,0
512,384,36768,5,8
448,320,36972,1,8
384,256,37278,1,8
320,192,37482,1,8
256,128,37686,1,8
192,224,38093,6,0,C|320:96,3,140
320,224,39317,2,0,C|192:128,4,140
192,192,40846,2,2,C|352:192,1,140
332,192,41253,2,0,C|160:192,4,140
256,224,42680,2,0,C|256:160,5,46.6666666666667
160,192,43496,6,0,C|288:192,3,93.3333333333333
253,192,44210,2,0,C|352:192,5,93.3333333333333
346,192,45535,2,0,C|288:96,7,93.3333333333333
297,112,47268,2,0,C|160:192,3,140
256,192,48593,12,0,49816
224,192,50937,5,0
224,128,51753,1,0
288,192,52263,1,0
288,128,53282,1,0
224,192,54199,1,0
288,192,55015,1,0
256,192,56238,1,4
