osu file format v5

[General]
AudioFilename: niconico.MP3
AudioLeadIn: 0
PreviewTime: 440
Countdown: 0
SampleSet: Normal
StackLeniency: 0.6
Mode: 0
LetterboxInBreaks: 1

[Editor]
Bookmarks: 23029,44445,73944,83861,95111,105444,119360,124360,140443,151110,161693,172110,193776,215026,225110,236193,257442,271109,293775,315358,350025,381775,401775,427191,448108,464525,485858,506945,516111,532528,542997,548416,559163,569899,585733
DistanceSpacing: 1.39999997615814
BeatDivisor: 4
GridSize: 8

[Metadata]
Title:Kumikyoku
Artist:Nico Nico Douga
Creator:kingcobra52
Version:Epic Marathon!
Source:
Tags:medley

[Difficulty]
HPDrainRate:2
CircleSize:5
OverallDifficulty:6
SliderMultiplier:1.6
SliderTickRate:2

[Events]
//Background and Video events
//Break Periods
2,122310,123727
2,162310,171227
2,247642,257059
2,339641,349225
2,390807,391558
2,456645,460728
2,488312,489728
2,493645,495062
2,504645,506395
2,538145,542395
2,580682,585099
//Storyboard Layer 0 (Background)
Sprite,Background,TopLeft,"idol.jpg",0,0 F,0,22788,23445,0,1 F,0,44112,44778,1
Sprite,Background,TopLeft,"the_melancholy_of_haruhi__306_1280.jpg",0,0 F,0,44112,44778,0,1 F,0,73444,74111,1
Sprite,Background,TopLeft,"Kanbu de Todomatte Sugu Tokeru ~ Kyouki no Udongein.png",0,0 F,0,73444,74111,0,1 F,0,83444,84111,1
Sprite,Background,TopLeft,"touhou.jpg",0,0 F,0,83444,84111,0,1 F,0,94111,95444,1
Sprite,Background,TopLeft,"girlsxgunsmadlax1024hk7.png",0,0 F,0,94111,95444,0,1 F,0,119443,121110,1
Sprite,Background,TopLeft,"yugioh.jpg",0,0 F,0,119443,121110,0,1 F,0,138227,140777,1
Sprite,Background,TopLeft,"133395984_cdc19e27b2_o.jpg",0,0 F,0,138227,140777,0,1 F,0,150778,151443,1
Sprite,Background,TopLeft,"smrpg.jpg",0,0 F,0,150778,151443,0,1 F,0,159443,162112,1
Sprite,Background,TopLeft,"digimon.jpg",0,0 F,0,159443,162112,0,1 F,0,171612,172277,1
Sprite,Background,TopLeft,"busou1.jpg",0,0 F,0,171612,172277,0,1 F,0,193445,194110,1
Sprite,Background,TopLeft,"1302598.png",0,0 F,0,193445,194110,0,1 F,0,212777,215443,1
Sprite,Background,TopLeft,"prince-of-tennis-1-1024x768.gif",0,0 F,0,212777,215443,0,1 F,0,223443,225443,1
Sprite,Background,TopLeft,"uninstall.jpg",0,0 F,0,223443,225443,0,1 F,0,246109,247445,1
Sprite,Background,TopLeft,"air.jpg",0,0 F,0,246109,247445,0,1 F,0,268776,271442,1
Sprite,Background,TopLeft,"Minitokyo-3.jpg",0,0 F,0,268776,271442,0,1 F,0,292775,293941,1
Sprite,Background,TopLeft,"Marisa wa Taihen na Mono wo Nusunde Ikimashita.png",0,0 F,0,292775,293941,0,1 F,0,338275,339441,1,0
Sprite,Background,TopLeft,"mega.png",0,0 F,0,349612,350275,0,1 F,0,401778,402441,1
Sprite,Background,TopLeft,"haruhi_bunny_godknows_wallpaper.jpg",0,0 F,0,401778,402441,0,1 F,0,426945,427608,1
Sprite,Background,TopLeft,"luckystarb8.jpg",0,0 F,0,426945,427608,0,1 F,0,446108,448779,1
Sprite,Background,TopLeft,"cg_nao-wp_1280.jpg",0,0 F,0,446108,448779,0,1 F,0,464112,464778,1
Sprite,Background,TopLeft,"wing-of-glory.jpg",0,0 F,0,464112,464778,0,1 F,0,484778,486112,1
Sprite,Background,TopLeft,"1.jpg",0,0 F,0,484778,486112,0,1 F,0,496112,496778,1
Sprite,Background,TopLeft,"silver forest.jpg",0,0 F,0,496112,496778,0,1 F,0,506778,507445,1
Sprite,Background,TopLeft,"snes_super_mario_world_1.jpg",0,0 F,0,506778,507445,0,1 F,0,515445,516778,1
Sprite,Background,TopLeft,"top.jpg",0,0 F,0,515445,516778,0,1 F,0,529111,532445,1
Sprite,Background,Centre,"sakura.png",320,240 F,0,529111,532778,0,1 F,0,536944,537945,1,0
Sprite,Background,TopLeft,"half.jpg",0,0 F,0,536944,537945,0,1 F,0,548112,548445,1
Sprite,Background,TopLeft,"dq.jpg",0,0 F,0,548112,548445,0,1 F,0,558112,559445,1
Sprite,Background,TopLeft,"Final-Fantasy.jpg",0,0 F,0,558112,559445,0,1 F,0,568779,569778,1
Sprite,Background,TopLeft,"Gacha Gacha.jpg",0,0 F,0,568779,569778,0,1 F,0,593445,593945,1
Sprite,Background,TopLeft,"prince.gif",0,0 F,0,593445,593945,0,1 F,0,597445,598112,1
Sprite,Background,TopLeft,"pi-6.png",0,0 F,0,597445,598112,0,1 F,0,598779,599445,1,0
Sprite,Background,TopLeft,"default.jpg",0,0 F,0,598779,599445,0,1 F,0,602112,602778,1,0
//Storyboard Layer 1 (Fail)
//Storyboard Layer 2 (Pass)
//Storyboard Layer 3 (Foreground)
//Storyboard Sound Samples
//Background Colour Transformations
3,100,0,0,0

[TimingPoints]
10779,333.333333333333,4,1,0,80,1,0
44778,-100,4,1,0,79,0,0
95444,-100,4,1,0,70,0,0
140777,-100,4,1,0,81,0,0
236776,-100,4,2,0,90,0,0
291442,-100,4,1,0,81,0,0
448779,-100,4,2,0,90,0,0
515445,-100,4,1,0,80,0,0

[Colours]
Combo1 : 102,255,102
Combo2 : 255,0,128
Combo3 : 255,255,83
Combo4 : 255,23,255
Combo5 : 94,94,255

[HitObjects]
64,64,23445,2,0,B|144:96,1,80
216,96,23778,1,4
376,96,24112,1,4
288,320,24612,1,0
144,256,24945,1,0
80,304,25112,2,0,B|24:240,1,80
24,160,25445,2,0,B|88:80,1,80
128,40,25778,1,0
200,64,25945,1,0
272,88,26112,5,0
424,136,26445,2,2,B|472:160|456:216,1,80
368,336,26945,1,0
288,312,27112,1,2
48,336,27612,1,2
48,176,27945,1,0
112,120,28112,2,0,B|168:104|160:56,1,80,2|0
240,64,28445,2,0,B|256:120|304:112,1,80,2|0
384,112,28778,6,4,B|464:168|432:256,1,160
376,304,29278,2,4,B|328:368|224:336,1,160
160,296,29778,1,4
80,72,30278,5,0
152,40,30445,1,0
232,56,30612,1,0
264,128,30778,1,0
224,200,30945,1,0
144,216,31112,1,0
72,176,31278,1,0
72,256,31445,2,2,B|80:328|128:368|184:360,1,160
255,359,31945,2,2,B|299:367|347:327|355:255,1,160
360,176,32445,1,2
40,48,32945,5,2
120,48,33112,1,2
168,112,33278,1,2
120,176,33445,1,2
40,176,33612,1,2
0,112,33778,1,2
40,176,33945,1,2
40,256,34112,6,0,B|104:320,1,80
176,312,34445,1,4
336,312,34778,1,4
256,80,35278,1,0
416,80,35612,2,0,B|504:16,2,80
448,152,36112,2,0,B|472:192|440:232,1,80
392,280,36445,2,0,B|368:320|304:304,1,80
248,272,36778,5,0
248,112,37112,2,2,B|248:24,1,80
88,32,37612,1,0
88,112,37778,1,2
176,336,38278,2,2,B|264:360|328:296,1,160
384,248,38778,1,2
480,120,39112,1,2
327,159,39445,6,4,B|247:207|160:152,1,160
176,79,39945,2,4,B|96:127|9:72,1,160
24,0,40445,1,4
32,336,40945,5,0
88,280,41112,1,0
144,336,41279,1,0
200,280,41445,1,0
304,160,41779,1,0
424,56,42112,6,4,B|480:64|488:112,1,80
88,328,42612,6,4,B|32:320|24:272,1,80
256,192,43112,12,4,43779
96,120,44778,5,0
96,120,44944,1,0
256,120,45278,1,0
256,120,45444,1,0
416,120,45778,1,0
416,120,45944,2,2,B|456:168|456:232|424:272,1,160
360,320,46444,1,0
280,344,46611,2,2,B|152:312|136:152,1,240
24,56,47444,5,4
24,136,47611,2,2,B|8:232|88:280,1,160
152,312,48111,2,2,B|232:360|312:312,1,160
376,280,48611,1,0
256,160,48944,2,6,B|256:72,2,80
120,352,49778,5,0
56,296,49944,1,0
40,216,50111,2,2,B|24:128|96:64,1,160
160,32,50611,1,0
400,56,51111,5,0
456,112,51278,1,0
472,192,51444,2,2,B|464:288|376:320,1,160
312,344,51944,1,0
88,264,52444,5,0
88,184,52611,1,0
88,104,52778,2,0,B|224:16,1,160
280,64,53278,2,0,B|136:160,1,160
328,112,53944,5,6
328,272,54278,5,6
168,272,54611,5,6
168,112,54944,5,6
400,40,55444,5,0
464,88,55611,2,2,B|496:176|424:240,1,160
352,231,56111,2,2,B|255:210|200:280,1,160
168,344,56611,1,0
64,216,56944,1,0
120,160,57111,1,0
64,104,57278,2,2,B|96:32|176:8|296:32,1,240
424,72,58111,5,0
480,128,58278,1,0
464,208,58444,1,0
408,264,58611,1,0
336,296,58778,2,2,B|272:360|176:320,1,160
112,296,59278,1,0
112,136,59611,2,6,B|112:48|112:48,2,80
336,48,60444,5,0
400,96,60611,1,0
336,144,60778,2,2,C|360:176|336:200|360:232|336:256|352:288,1,160
336,344,61278,1,0
96,344,61778,5,0
96,184,62111,2,2,C|95:176|119:152|95:120|119:96|95:64,1,160
176,64,62611,2,2,C|208:40|232:64|264:40|288:64|320:48,1,160
464,248,63444,5,4
288,344,63778,5,4
288,160,64111,5,4
96,248,64444,5,0
48,176,64611,1,0
96,112,64778,2,2,B|192:136|256:48,1,160
304,16,65278,1,0
360,336,65778,5,0
280,336,65944,1,0
200,336,66111,2,2,B|80:208,1,160
32,160,66611,1,0
256,192,66944,12,0,68111
320,32,68444,5,0
376,88,68611,1,0
432,144,68778,2,2,B|304:264,1,160
248,304,69278,1,0
128,200,69611,2,2,B|64:128|144:56,1,160
139,60,70111,1,0
296,56,70444,5,0
416,160,70778,2,0,B|448:200|416:240,1,80
296,336,71278,1,0
456,336,71611,5,6
456,336,71778,1,6
48,336,72278,5,6
48,336,72444,1,6
48,32,72944,5,6
48,112,73111,1,6
128,112,73278,1,6
128,32,73444,1,6
240,336,74111,6,4,B|336:336,1,80
400,336,74444,2,0,B|496:336,1,80
480,256,74778,2,0,B|480:160,1,80
480,96,75111,1,0
400,96,75278,1,0
320,96,75444,1,0
320,176,75611,1,0
240,176,75778,1,0
240,256,75944,1,0
240,336,76111,2,2,B|80:336,1,160
80,256,76611,5,0
80,96,76944,1,0
80,16,77111,1,0
160,16,77277,1,0
240,16,77444,1,0
240,96,77611,1,0
320,96,77777,1,0
400,96,77944,2,0,B|480:96,1,80
480,176,78277,1,0
480,256,78444,1,0
480,336,78611,1,0
400,336,78777,2,2,B|240:336,1,160
32,152,79444,6,0,B|128:152,1,80
192,152,79777,2,0,B|296:152,1,80
352,152,80111,2,0,B|352:264,1,80
352,312,80444,1,0
272,312,80611,1,0
192,312,80777,1,0
192,232,80944,1,0
112,232,81111,1,0
112,152,81277,1,0
32,152,81444,2,2,B|128:16,1,160
200,24,81944,5,0
360,48,82277,1,0
408,112,82444,1,0
416,192,82611,1,0
376,264,82777,2,0,B|361:335|297:343,1,120
264,224,83277,1,0
304,160,83444,2,2,B|257:89|162:118,1,160
456,72,84111,6,4,B|397:154|325:66,1,160
464,216,84777,2,2,B|336:328,1,160
264,328,85277,1,0
184,328,85444,2,2,B|72:200,1,160
24,152,85944,1,2
160,64,86277,1,0
232,24,86444,1,0
304,64,86611,1,0
376,24,86777,1,0
464,152,87111,5,0
464,232,87277,1,0
408,288,87444,2,2,B|336:344|256:272,1,160
200,224,87944,1,0
120,208,88111,1,0
48,248,88277,1,2
8,176,88444,1,2
40,104,88611,1,2
96,48,88777,2,6,L|176:8|240:48,2,160
216,168,89777,5,0
160,224,89944,1,0
216,280,90111,2,2,L|264:328|368:320,1,160
416,264,90611,1,0
432,184,90777,2,2,L|384:136|280:144,1,160
216,168,91277,1,2
64,224,91611,2,4,L|144:224,1,80
144,304,91944,2,4,L|64:304,1,80
224,304,92444,5,0
296,336,92611,1,0
376,312,92777,2,2,B|464:288|488:200,1,160
480,128,93277,1,2
432,64,93444,1,2
352,40,93611,1,2
272,48,93777,1,2
200,88,93944,1,2
256,192,94111,12,4,95111
48,312,95444,6,4,B|104:368|152:312,1,120
48,248,95943,1,0
47,168,96110,2,4,B|94:114|168:168,1,120
152,288,96610,1,0
152,208,96777,2,4,B|208:264|256:208,1,120
152,144,97277,1,0
152,64,97443,2,2,B|208:8|256:64,2,120
152,144,98110,6,4,B|208:200|256:144,1,120
376,152,98610,1,0
375,72,98777,2,4,B|422:18|480:72,1,120
480,192,99277,1,0
480,271,99443,2,4,B|434:326|368:264,1,120
376,152,99943,1,0
376,72,100110,2,2,B|432:16|480:72,2,120
296,72,100777,6,4,B|168:72,1,120
296,72,101277,1,0
296,152,101443,2,4,B|168:152,1,120
296,152,101943,1,0
296,232,102110,2,4,B|168:232,1,120
296,232,102610,1,0
296,312,102777,2,2,B|352:360|424:304,2,120
216,312,103445,6,0,B|48:312,1,160
56,232,103945,1,0
136,232,104112,2,0,B|232:240|264:144,2,160
260,154,105112,2,0,B|289:241|385:233,1,160
88,40,105777,5,0
120,112,105943,1,0
184,160,106110,2,2,B|272:200|344:152,1,160
472,72,106777,1,2
472,232,107110,1,0
456,312,107277,1,0
392,264,107443,2,2,C|328:256|344:296|280:296,2,160
80,320,108777,5,0
80,160,109110,1,0
24,96,109277,1,0
80,40,109443,2,2,B|136:8|200:8|240:40,1,160
232,112,109943,2,2,B|288:144|352:144|392:112,1,160
456,80,110443,1,2
456,248,110777,1,2
320,328,111110,5,0
288,256,111277,1,0
248,328,111443,2,2,B|160:368|88:320,1,160
88,159,112110,2,2,B|154:116|242:156,1,160
320,160,112610,1,0
400,160,112777,2,2,C|464:152|448:192|512:192,2,160
96,56,114110,5,0
256,56,114443,1,0
176,56,114610,1,0
96,56,114777,2,2,B|64:112|64:176|96:216,1,160
144,264,115277,2,2,B|200:296|264:296|304:264,1,160
368,232,115777,1,2
472,112,116110,1,2
232,72,116610,5,0
152,72,116777,1,4
80,296,117110,5,4
344,336,117443,5,4
472,184,117777,5,4
392,184,117943,1,4
432,112,118110,1,4
112,120,118443,5,4
72,184,118610,1,4
152,184,118777,1,4
72,184,118943,1,4
112,120,119110,1,4
256,192,119443,12,8,120777
72,88,121110,5,4
152,88,121277,1,4
232,88,121443,1,4
440,288,121777,5,4
360,288,121943,1,4
280,288,122110,1,4
64,24,124777,6,0,B|152:24,2,80,4|0|0
64,104,125277,2,0,B|152:104,2,80,4|0|0
64,184,125777,2,0,B|152:184,2,80,4|0|0
64,264,126277,2,0,B|152:264,2,80,4|0|0
64,344,126777,2,2,B|112:368|152:344,1,80
208,312,127110,2,2,B|248:288|296:312,1,80
360,336,127443,6,0,B|456:320|440:200,1,160,4|0
440,128,127943,2,0,B|416:32|304:32,1,160,4|0
248,32,128443,2,0,B|144:16|96:112,1,160,4|0
80,168,128943,2,0,B|64:264|176:288,1,160,4|0
208,232,129443,2,2,B|288:160,1,80
208,128,129777,2,2,B|272:184,1,80
344,184,130110,5,4
344,184,130277,1,0
344,184,130443,1,0
344,264,130610,1,4
344,264,130777,1,0
344,264,130943,1,0
344,336,131110,1,4
344,336,131277,1,0
344,336,131443,1,0
264,336,131610,5,4
192,296,131777,1,0
128,336,131943,1,0
64,288,132110,1,2
128,240,132277,1,2
64,192,132443,1,2
128,144,132610,1,2
192,96,132777,6,0,L|256:40|352:64,1,160,4|0
280,120,133277,2,0,L|344:176|440:152,1,160,4|0
360,96,133777,2,0,L|424:40|520:64,1,160,4|0
440,120,134277,2,0,L|422:193|478:257,1,160,4|0
400,296,134777,5,0
328,328,134943,1,0
248,304,135110,1,0
192,240,135277,1,0
176,160,135445,2,0,B|168:64|264:40,5,160
256,200,137445,2,0,B|336:128|336:256|400:184,1,160
256,192,138112,12,4,140445
128,64,140777,5,0
64,112,140943,1,0
128,160,141110,1,0
64,216,141277,1,0
128,264,141443,2,2,B|288:320,1,160
344,168,142110,2,2,B|168:104,1,160
193,113,142777,1,2
416,344,143443,6,0,B|472:272|416:192,1,160
416,112,143943,1,0
440,80,144027,1,0
400,72,144110,2,0,B|344:16|240:40,1,160
112,112,144777,2,2,B|128:200|240:216,1,160
352,304,145443,2,2,B|296:368|192:336,1,160
72,248,146110,5,0
136,200,146277,1,0
200,152,146443,1,0
264,104,146610,1,0
328,56,146777,2,2,B|504:56,1,160
488,136,147277,1,0
488,216,147443,2,2,B|320:216,1,160
328,296,147943,1,0
248,296,148110,2,2,B|72:296,1,160
40,232,148610,1,0
88,168,148777,5,4
344,64,149110,5,4
464,280,149443,5,4
240,360,149777,5,4
176,24,150110,6,4,B|224:-32|504:-8|376:280|200:88|240:304,1,480
80,288,151443,5,0
80,208,151610,1,0
80,128,151777,1,0
80,48,151943,1,0
144,88,152110,2,2,L|216:48|288:96,1,160
408,184,152777,1,4
408,344,153110,1,8
328,344,153277,1,8
248,344,153443,1,8
88,344,153777,1,4
88,184,154110,1,0
248,184,154443,1,8
328,184,154610,1,8
408,184,154777,1,8
408,24,155110,2,4,L|240:24,5,160
168,40,156943,5,8
88,64,157110,1,8
48,136,157277,1,8
72,208,157443,1,8
200,304,157777,1,0
280,320,157943,1,0
352,296,158110,2,2,L|432:264|432:160,1,160
360,160,158610,1,0
416,104,158777,2,2,L|352:48|264:72,1,160
256,192,159443,12,0,162110
256,192,172277,5,0
256,192,172443,1,0
256,192,172610,1,0
256,192,172777,2,4,B|80:192,1,160
96,112,173277,2,4,B|144:40|248:64,1,160
400,64,173943,2,0,B|464:128,1,80
456,200,174277,1,2
456,288,174443,2,0,B|392:344,1,80,0|2
232,336,174943,1,2
128,224,175277,1,0
96,152,175443,2,0,B|128:56|240:72,1,160
296,72,175943,2,2,B|384:112|456:40,4,160
296,152,177443,5,2
352,208,177610,1,0
408,152,177777,1,2
472,200,177943,1,0
472,280,178110,2,0,B|416:352|312:320,1,160
248,296,178610,2,0,B|208:216|144:336|112:200,1,160
120,72,179277,1,0
200,72,179443,2,2,B|368:72,1,160
432,216,180110,5,4
296,128,180360,5,4
296,320,180610,5,4
216,320,180777,6,0,B|176:304|168:256,1,80
88,264,181110,1,0
88,184,181277,2,0,B|104:136|160:128,1,80,2|0
144,48,181610,1,0
224,48,181777,2,2,B|264:24|304:56,1,80
368,88,182110,1,0
432,128,182277,1,2
496,176,182443,1,2
432,232,182610,1,0
368,280,182777,1,2
280,280,182943,6,0,B|280:368,2,80
200,280,183443,2,4,B|56:168,1,160
72,96,183943,2,4,B|216:16,1,160
368,16,184610,1,0
432,64,184777,2,0,B|488:128,1,80
488,192,185110,1,2
480,272,185277,2,0,B|400:320,1,80
328,312,185610,1,2
256,272,185777,1,0
240,192,185943,1,2
160,192,186110,2,2,B|168:248|112:264,2,80
160,104,186610,1,2
256,192,186777,12,0,188110
40,328,188443,5,0
200,328,188777,2,4,B|456:328,1,240
440,176,189610,1,0
440,96,189777,1,0
280,96,190110,2,4,B|32:96,1,240
40,264,190943,1,0
120,264,191110,1,0
280,264,191443,2,4,B|488:272|496:56,2,320
264,104,193110,1,4
328,56,193277,1,4
200,152,193610,1,4
136,200,193777,1,4
8,88,194110,5,2
8,16,194777,2,0,B|336:16,1,320
368,16,195777,1,0
408,16,196110,1,0
448,16,196443,1,0
488,16,196777,2,4,C|488:176|312:152,3,320
504,296,199443,5,2
504,368,200110,2,0,B|176:368,1,320
144,368,201110,1,0
104,368,201443,1,0
64,368,201777,1,0
24,368,202110,2,4,C|24:208|200:232,3,320
240,272,204277,5,0
312,296,204443,1,0
392,280,204610,1,0
448,224,204777,2,4,B|456:80|272:48,1,240
308,56,205443,2,4,B|224:24|144:72,1,160
40,184,206110,2,0,B|96:264,1,80
128,312,206443,2,0,B|208:336,1,80
280,336,206777,2,0,B|360:304,1,80
424,272,207110,2,0,B|440:176,1,80
408,112,207443,2,0,B|320:64,1,80
256,72,207777,2,0,B|176:120,1,80
184,192,208110,2,0,B|104:256,1,80
40,240,208443,2,0,B|8:152,1,80
80,120,208777,1,2
144,80,208943,1,2
208,40,209110,1,2
272,0,209277,1,2
408,80,209610,6,0,B|488:24,2,80
336,120,210110,2,0,B|256:176,2,80
408,160,210610,2,0,B|456:248|384:312,1,160
232,304,211277,1,0
152,304,211443,2,2,B|72:240,1,80
88,176,211777,2,2,B|160:128,1,80
296,48,212277,5,0
352,104,212443,1,0
408,48,212610,1,0
256,192,212777,12,0,215110
56,296,215443,5,0
120,336,215610,1,0
192,296,215777,1,0
256,336,215943,2,2,B|360:352|400:280,1,160
440,216,216443,1,0
440,56,216777,5,0
376,104,216943,1,0
304,56,217110,1,0
239,103,217277,2,2,B|168:56|88:112,1,160,2|0
40,160,217777,1,2
256,320,218110,5,0
200,264,218277,1,0
256,208,218443,1,0
312,264,218610,1,0
256,112,218943,6,0,B|296:104|312:56,2,80
176,112,219443,1,4
144,88,219527,1,4
144,48,219610,1,4
72,288,219943,5,4
256,208,220277,5,4
432,288,220610,5,4
432,208,220777,5,0
480,144,220943,1,0
432,80,221110,1,0
352,80,221277,2,2,B|280:-8|272:112|200:32,1,160
144,88,221777,1,0
72,128,221943,1,0
8,176,222110,2,2,B|0:224|40:256,1,80
96,296,222443,2,0,B|136:264|184:288,1,80
232,336,222777,2,2,B|280:344|304:304,1,80
312,224,223110,2,2,B|328:176|376:184,1,80
448,176,223445,6,4,B|488:120|472:40|376:32|400:128|312:136|256:80|304:8,2,320
184,200,225443,6,4,B|248:280|320:200,1,160
424,80,226110,1,0
352,40,226277,1,0
272,32,226443,2,0,B|192:56,1,80,2|0
112,48,226777,1,0
152,120,226943,1,0
72,120,227110,1,2
32,192,227277,2,0,B|56:240|8:264,1,80,0|2
48,328,227610,1,0
112,280,227777,1,0
176,328,227943,1,2
240,280,228110,6,0,B|336:280,1,80
320,200,228443,2,0,B|408:200,1,80
408,112,228777,2,4,B|408:24|296:16,1,160
223,16,229277,2,4,B|118:24|112:120,1,160
120,192,229777,1,4
224,312,230110,2,4,B|288:368|392:336,1,160
392,264,230610,2,4,B|328:208|224:240,1,160
176,264,231110,2,4,B|144:296|88:280,2,80
144,192,231610,5,0
104,120,231777,1,0
72,48,231943,1,0
144,16,232110,2,0,B|184:96,1,80
264,88,232443,2,0,B|296:8,1,80
293,13,232777,1,2
480,192,233110,6,0,B|472:240|432:256,1,80
360,288,233443,2,2,B|304:288|296:336,1,80
216,328,233777,2,2,B|160:328|152:280,1,80
256,192,234110,12,4,235777
96,192,236110,5,4
256,192,236443,1,4
416,192,236776,1,2
256,368,237276,2,0,B|96:360|64:232,1,240
64,88,238109,1,2
376,32,238776,6,0,B|464:64|488:160,1,160
384,264,239442,1,0
312,296,239609,1,0
232,280,239776,1,0
184,216,239942,1,2
384,80,240442,2,0,B|336:0|248:8,1,160
168,16,240942,1,0
96,48,241109,1,0
48,112,241276,2,2,B|0:200|64:264,1,160
120,312,241776,1,0
192,344,241942,1,0
264,312,242109,5,2
264,72,242609,1,0
336,32,242776,2,2,B|432:32|464:128,2,160
192,120,243776,1,0
304,232,244109,6,0,B|376:320|248:360,1,160
104,344,244776,1,0
48,288,244942,1,0
72,208,245109,1,0
32,136,245276,2,2,B|64:32|184:88,1,160
232,104,245776,1,0
304,64,245942,1,2
384,80,246112,1,2
440,232,246445,2,2,B|440:328|312:328,1,160
392,176,247112,2,2,B|288:176|288:280,1,160,2|4
160,56,258109,5,0
320,56,258442,2,0,B|408:56,2,80
320,232,259109,2,2,B|320:344|440:312,1,160
432,136,259776,5,0
368,176,259942,1,0
296,136,260109,1,0
224,176,260276,1,0
152,136,260442,1,0
80,176,260609,1,0
16,224,260776,2,0,B|24:320|128:336,1,160
200,336,261276,1,0
200,336,261359,1,0
400,328,261776,2,2,B|384:240|304:304|288:216,1,160
288,64,262442,1,0
208,64,262609,6,0,C|152:80|192:112|128:144,1,160
72,176,263109,1,0
16,232,263276,1,0
32,312,263442,2,0,B|104:368|200:328,1,160
248,288,263942,1,0
248,288,264026,1,0
440,320,264442,2,2,B|504:248|440:168,1,160
368,32,265109,5,0
288,32,265276,1,0
288,112,265442,1,0
368,112,265609,1,0
368,32,265776,1,0
288,32,265942,1,0
288,112,266109,1,0
72,200,266442,5,2
304,328,266776,5,0
448,144,267109,5,2
232,56,267442,5,0
72,200,267776,5,2
304,328,268109,5,0
448,144,268442,5,2
256,192,268776,12,2,271109
128,344,271442,6,2,B|64:280|184:264|136:192,1,160
136,32,272109,1,0
216,32,272276,1,0
176,104,272442,1,0
320,32,272776,6,2,B|384:96|264:112|312:184,1,160
312,336,273442,1,0
392,336,273609,1,0
352,264,273776,1,0
432,264,273942,1,0
432,184,274109,6,2,B|370:227|354:107|290:171,1,160,2|2
152,248,274776,1,0
112,176,274942,1,0
152,104,275109,1,0
152,248,275442,2,2,C|192:304|224:272|256:304,2,160
384,344,276775,6,2,B|448:280|328:264|376:192,1,160
376,32,277442,1,0
296,32,277609,1,0
336,104,277775,1,0
192,32,278109,6,2,B|128:96|248:112|200:184,1,160
200,336,278775,1,0
120,336,278942,1,0
160,264,279109,1,0
159,104,279442,6,2,B|222:147|238:27|302:91,1,160,2|2
448,32,280109,1,0
480,104,280275,1,0
448,176,280442,1,0
296,120,280775,2,2,C|256:176|224:144|192:176,2,160
48,328,282109,6,2,B|112:264|128:384|200:336,1,160
320,248,282775,1,0
360,176,282942,1,0
320,104,283109,1,0
176,32,283442,6,2,B|112:96|96:-24|24:24,1,160
32,176,284109,1,0
96,224,284275,1,0
160,176,284442,1,0
216,232,284609,1,0
216,311,284775,6,2,B|279:354|295:234|359:298,1,160,2|2
360,136,285442,1,0
360,56,285609,1,0
424,96,285775,1,0
264,96,286109,2,2,C|235:126|203:94|152:144,2,160
360,224,287109,1,0
216,304,287442,5,4
40,144,287942,5,4
248,32,288442,5,4
456,144,288942,5,4
336,352,289442,5,4
184,168,289942,5,4
32,352,290442,5,4
24,112,290942,5,4
256,192,291442,6,0,B|256:128,15,40
256,192,292775,12,0,293775
256,192,293941,5,0
256,192,294025,1,0
256,192,294108,2,0,C|440:192,1,160
464,136,294775,1,2
464,64,295025,1,2
400,64,295275,5,0
400,64,295358,1,0
400,64,295441,2,0,C|232:64,1,160
176,64,296108,2,0,C|16:64,1,160
80,128,296775,5,0
168,192,297108,1,2
256,248,297441,1,0
256,248,297608,1,0
336,192,297941,1,2
416,128,298275,1,0
416,128,298441,1,0
256,128,298775,1,2
256,192,299108,5,0
256,192,299275,1,0
256,192,299441,2,0,C|256:352,1,160
336,360,300108,1,0
176,360,300441,1,0
256,288,300775,2,0,C|256:128,1,160
256,48,301275,2,0,C|48:48,1,200
56,48,301775,1,2
56,192,302108,6,0,C|56:352,1,160
136,368,302608,2,0,C|136:208,1,160
136,208,303025,1,0
136,208,303108,1,2
216,192,303441,2,0,C|216:352,1,160
296,352,304108,5,2
360,352,304358,1,2
424,352,304608,1,2
488,352,304775,2,0,C|488:192,1,160
488,120,305441,1,2
488,56,305691,1,2
416,56,305941,1,0
416,56,306025,1,0
416,56,306108,2,0,C|248:56,1,160
192,56,306775,2,0,C|32:56,1,160
64,192,307441,5,0
192,192,307775,1,2
320,192,308108,1,0
320,192,308275,1,0
448,192,308608,1,2
448,336,308941,5,0
384,336,309108,1,0
256,336,309441,1,2
168,336,309691,1,2
80,336,309941,2,0,C|80:56,1,280
80,56,310608,2,0,C|320:64,1,240
384,64,311441,2,0,C|384:312,2,240
464,64,312775,2,0,C|464:240,1,160
464,296,313275,2,0,C|224:296,1,240
256,192,314108,5,0
256,192,314191,1,0
256,192,314275,1,0
256,192,314358,1,0
256,192,314441,1,0
256,192,314525,1,0
256,192,314608,1,0
256,192,314691,1,0
256,192,314775,1,0
256,192,314858,1,0
256,192,314941,1,0
256,192,315025,1,0
256,192,315108,1,0
256,192,315191,1,0
256,192,315275,1,0
256,192,315358,1,0
256,192,315441,5,4
320,160,315775,1,2
384,128,316108,1,0
448,96,316334,1,0
448,160,316608,1,2
448,224,316775,5,0
384,192,316941,2,0,C|384:144,10,40
320,160,317941,1,2
256,192,318108,5,0
320,224,318441,1,2
384,256,318775,1,0
448,288,319001,1,0
448,224,319275,1,2
448,136,319441,6,0,C|448:176,2,40
384,192,319775,2,0,C|384:240,11,40
384,192,320775,5,0
320,224,321108,1,2
256,192,321441,1,0
256,192,321667,1,0
256,192,321941,1,2
184,192,322275,2,0,C|24:192,1,160
24,192,322775,2,0,C|192:192,1,160
256,192,323441,2,0,C|416:192,2,160
256,192,324358,1,2
256,192,324608,1,2
256,128,324775,5,0
256,256,325108,1,2
256,128,325441,1,0
256,256,325775,1,2
256,192,326108,5,4
192,160,326441,1,2
128,128,326775,1,0
64,96,327001,1,0
64,160,327275,1,2
64,224,327441,5,0
128,192,327608,2,0,C|128:144,10,40
192,160,328608,1,2
256,192,328775,5,0
192,224,329108,1,2
128,256,329441,1,0
64,288,329667,1,0
64,224,329941,1,2
64,136,330108,6,0,C|64:176,2,40
128,192,330441,2,0,C|128:240,11,40
128,192,331441,5,0
192,224,331775,1,2
256,192,332108,1,0
256,192,332334,1,0
256,192,332608,1,2
328,192,332941,2,0,C|488:192,1,160
488,192,333441,2,0,C|320:192,1,160
328,256,334108,2,0,C|72:256,1,240
88,256,334691,1,2
88,192,335108,1,0
88,128,335441,6,0,C|280:128,1,160
248,64,335941,1,0
312,64,336108,5,0
432,192,336358,5,0
304,336,336608,5,0
240,336,336775,1,0
176,336,336941,5,2
80,128,337275,5,2
312,64,337608,5,2
432,264,337941,5,2
176,336,338275,6,0,B|176:272,2,40
176,256,338608,6,0,B|176:200,2,40
176,176,338941,6,0,B|176:120,2,40
176,96,339275,5,4
224,32,339441,1,4
352,336,350275,5,0
304,280,350441,1,0
256,336,350608,1,0
208,280,350775,1,0
160,336,350941,1,0
64,216,351275,1,0
128,184,351441,1,0
120,112,351608,1,0
48,96,351775,1,0
16,160,351941,1,0
216,40,352275,6,2,C|296:40,2,80
224,120,352941,1,0
288,152,353108,1,0
224,192,353275,1,0
288,232,353441,1,0
224,264,353608,1,0
176,344,353941,2,2,C|336:344,3,160
96,288,355608,5,0
96,184,355941,1,0
96,184,356108,1,0
96,184,356275,1,0
96,88,356608,1,0
200,88,356941,1,0
304,88,357275,1,0
400,88,357608,1,4
472,192,357941,6,0,B|448:248|344:208|312:200|320:184,1,160
256,192,358441,1,0
224,256,358608,1,0
192,192,358775,1,0
80,296,359275,6,0,B|104:352|208:312|240:304|232:288,1,160
296,296,359775,1,0
328,360,359941,1,0
360,296,360108,1,0
464,296,360441,1,0
464,296,360608,1,0
496,192,360941,5,0
432,192,361108,1,0
368,160,361275,1,0
304,160,361441,1,0
240,160,361608,2,2,B|104:256,1,160
88,208,362108,2,2,B|88:120,1,80
88,72,362441,1,2
88,72,362608,1,2
216,40,362941,6,0,C|296:40,2,80
424,40,363608,5,0
488,80,363775,1,0
424,120,363941,1,0
488,160,364108,1,0
424,200,364275,1,0
496,288,364608,2,0,C|336:288,3,160
224,360,366275,6,0,B|224:272,1,80
224,280,366608,2,0,B|224:184,1,80
224,120,366941,1,0
128,120,367275,2,0,B|128:288,3,160
40,192,368608,6,0,B|64:248|168:208|200:200|192:184,1,160
256,192,369108,1,0
288,256,369275,1,0
320,192,369441,1,0
432,296,369941,6,0,B|408:352|304:312|272:304|280:288,1,160
216,296,370441,1,0
184,360,370608,1,0
152,296,370775,1,0
48,296,371108,1,0
48,296,371275,2,4,B|24:200|48:128|96:80|152:48|224:40|288:48,1,400
424,64,372441,5,0
424,136,372608,2,0,B|360:184|264:152,2,160
424,288,373608,1,0
360,328,373775,1,0
216,288,374108,2,2,B|88:312|-8:192,1,240
24,128,374775,1,0
88,88,374941,1,0
304,32,375441,1,2
376,104,375608,1,2
304,104,375775,1,2
376,32,375941,1,2
376,184,376275,5,0
440,216,376441,1,0
376,256,376608,1,0
440,296,376775,2,0,B|400:336|344:352|288:352|224:344|164:324|120:272,1,320
64,176,377775,1,0
64,104,377941,2,0,B|232:104,3,160
376,104,379275,5,0
304,104,379441,1,0
336,176,379608,1,0
376,240,379775,1,0
304,240,379941,1,0
336,304,380108,1,0
288,360,380275,1,0
216,360,380441,1,0
160,304,380608,1,0
160,152,380941,6,2,B|160:64,3,80
424,64,381941,5,0
336,64,382275,2,0,B|88:64,1,240
72,160,383108,1,0
72,224,383275,1,0
72,328,383608,2,0,B|240:328,1,160
320,328,384275,1,0
320,232,384608,5,0
320,144,384941,2,2,B|320:56,2,80
320,208,385441,1,2
192,232,385941,5,0
192,144,386275,2,2,B|192:56,2,80
192,208,386775,1,2
80,144,387108,5,0
80,144,387275,1,0
80,240,387608,1,0
80,240,387775,1,0
80,336,388108,1,0
176,336,388441,1,0
176,336,388608,1,0
280,336,388941,1,0
376,336,389275,1,0
472,336,389608,1,0
472,192,390108,6,0,B|376:192,3,80
64,80,392608,6,0,B|80:160|192:176,1,160
200,103,393108,2,0,B|163:110|131:70,2,80
351,103,393775,2,0,B|389:110|421:70,1,80
464,192,394275,5,4
256,304,394608,5,4
64,192,394941,5,4
256,32,395275,6,0,B|160:80|192:168,1,160
224,224,395775,2,2,B|264:248|304:216,1,80
368,184,396108,1,2
368,336,396441,1,0
288,336,396608,6,0,B|240:240|152:272,1,160
152,192,397108,2,2,B|118:221|64:192,1,80
80,120,397441,1,2
216,48,397775,1,0
216,48,397941,1,0
368,48,398275,5,0
432,88,398441,1,0
368,120,398608,1,0
432,160,398775,1,0
432,312,399108,1,0
352,312,399275,2,4,B|168:312,1,160
192,160,399941,2,4,B|360:160,1,160
152,48,400775,1,0
80,64,400941,1,0
40,128,401108,1,0
40,200,401275,2,4,B|72:256|112:296|176:336|255:341|344:344|400:320,1,400
504,192,402441,5,4
432,192,402775,1,0
400,192,402941,1,6
328,192,403275,6,0,B|224:192,1,80,0|0
208,192,403608,1,0
168,192,403775,1,0
136,192,403941,2,0,B|48:192,1,80
16,192,404275,1,6
64,272,404608,6,0,B|160:272,1,80
176,272,404941,1,0
208,272,405108,1,0
240,272,405275,2,0,B|328:272,1,80
352,272,405608,1,6
424,272,405941,5,2
424,200,406275,2,0,B|424:112,1,80
392,96,406608,1,2
320,96,406941,2,0,B|224:96,1,80
200,96,407275,1,2
200,168,407608,1,2
200,240,407941,1,2
200,312,408275,1,4
200,344,408441,1,6
200,376,408608,1,0
240,376,408775,5,0
320,376,409275,2,6,B|392:368|448:280,1,160
448,216,409941,5,0
448,168,410108,1,0
392,128,410441,1,0
320,128,410775,1,0
248,128,411108,1,0
176,128,411441,2,4,B|176:304,1,160
176,288,412275,6,6,B|264:288,2,80
80,56,413108,5,2
248,56,413441,2,0,B|144:56,1,80,6|0
80,192,413941,2,0,B|80:280|200:296,1,160
264,304,414441,1,0
336,264,414608,1,0
336,264,414691,1,0
248,176,414941,1,6
416,160,415275,6,0,B|424:64|328:40,1,160
248,40,415775,1,0
176,80,415941,1,0
176,80,416025,1,0
248,176,416275,1,6
184,328,416608,5,0
352,336,416941,1,0
424,296,417108,1,0
496,256,417275,1,2
496,88,417608,1,0
424,40,417775,1,0
352,0,417941,1,2
184,24,418275,1,2
80,152,418608,1,2
112,312,418941,5,2
184,352,419108,1,6
264,336,419275,1,0
336,296,419441,2,0,B|432:272|456:192,1,160
472,112,419941,1,0
304,112,420275,1,0
256,40,420441,1,0
168,40,420608,1,0
88,40,420775,6,0,B|16:88,1,80
24,168,421108,2,0,B|104:216,1,80
96,288,421441,2,0,B|24:336,1,80
96,288,421775,2,0,B|184:288,1,80
256,288,422108,2,4,B|344:304|392:224,1,160
424,152,422608,1,6
280,64,422941,1,2
120,112,423275,1,2
120,280,423608,1,2
120,192,423775,5,4
288,192,424108,1,4
408,192,424358,1,4
288,192,424608,1,4
176,168,424775,2,4,B|200:64|352:48|456:184|360:328|240:360|160:288|168:192,2,560
408,48,427608,6,0,B|312:48,1,80,0|0
304,80,427941,1,0
296,120,428108,2,0,B|232:288,1,160
239,269,428608,2,4,B|240:352,5,80
152,352,429775,1,0
112,352,429941,2,0,B|16:344|16:232,1,160
16,200,430441,1,0
16,152,430608,2,0,B|16:64,1,80
40,40,430941,2,4,B|192:112,1,160
264,128,431608,2,4,B|360:128,1,80
432,128,432108,5,0
432,128,432275,1,0
432,128,432441,1,0
432,128,432608,1,2
376,240,433108,1,0
376,240,433275,1,2
248,240,433775,1,0
208,240,433941,2,2,B|64:152,3,160
72,112,435108,1,2
72,24,435441,1,2
160,24,435775,1,0
160,24,435941,2,2,B|312:80,1,160
376,192,436775,5,2
336,192,436941,1,2
288,192,437108,1,2
240,192,437275,1,2
200,192,437441,1,2
152,192,437608,1,2
104,192,437775,1,2
96,328,438108,6,4,C|256:16|408:344|56:128|464:128|96:360,1,2000
296,72,442941,5,0
368,40,443108,1,0
440,72,443275,2,2,B|488:136|424:224,1,160
344,224,443775,1,0
392,288,443941,2,2,B|368:352|240:352,1,160
216,280,444441,1,0
168,352,444608,2,2,B|64:336|40:232,2,160
256,208,445608,1,0
256,120,445775,1,4
256,192,446108,12,4,448441
112,80,448779,5,0
272,32,449112,1,0
416,112,449445,2,0,B|472:184|432:264,1,160
376,320,449945,2,2,B|288:352|208:288,1,160
224,216,450445,1,2
152,264,450612,1,2
136,184,450778,1,2
240,56,451112,1,0
408,56,451445,6,0,B|480:104,1,80
480,184,451778,2,0,B|416:240,1,80
344,280,452112,2,2,B|280:360|192:192|120:328,1,240
48,280,452778,1,0
8,208,452945,1,0
56,136,453112,1,2
176,24,453445,1,2
424,56,453778,5,2
392,304,454112,5,2
128,248,454445,5,2
176,24,454778,5,2
352,192,455278,6,0,B|296:272|192:224,1,160
152,160,455778,1,2
184,80,455945,1,2
264,48,456112,2,2,B|360:24|416:96,1,160
176,344,461778,5,0
96,344,461945,1,0
16,344,462112,1,4
256,24,462778,5,4
496,344,463445,5,4
432,288,463612,1,0
496,232,463778,1,0
432,176,463945,1,0
432,88,464112,2,2,B|416:48|360:56,1,80
297,64,464445,2,2,B|342:94|366:54,1,80,0|0
297,64,464778,5,0
216,40,464945,1,0
136,56,465112,2,0,B|56:120|112:216,1,160
192,335,465778,2,0,B|248:248|162:190,1,160
336,192,466445,1,0
408,144,466612,1,0
408,224,466778,1,0
408,56,467112,1,0
408,144,467278,1,0
480,104,467445,1,0
256,56,467778,5,2
40,160,468112,5,2
256,264,468445,5,2
256,56,468778,6,2,B|72:64|248:264|40:248,2,320
424,64,470445,2,0,B|488:128|336:152|448:232,1,160
320,344,471112,1,0
256,288,471278,1,0
192,344,471445,1,0
192,160,471778,1,0
136,96,471945,1,0
192,40,472112,1,0
360,40,472445,5,0
424,88,472612,1,0
496,136,472778,2,2,B|440:208,1,80
384,264,473112,2,2,B|328:328,1,80
248,328,473445,2,2,B|144:312|248:240|144:216,1,160
72,200,473945,2,2,B|80:88|192:24|320:40,1,320
344,56,474695,1,0
384,40,474778,2,2,B|472:80|448:176,1,160
448,335,475445,6,0,B|370:382|306:302,1,160,0|0
167,216,476112,2,0,B|220:137|312:192,1,160
304,24,476778,1,0
136,24,477112,1,0
64,72,477278,1,0
48,152,477445,1,0
56,320,477778,1,0
136,344,477945,1,0
208,312,478112,1,0
464,312,478445,5,2
424,72,478778,5,2
192,104,479112,5,2
464,312,479445,6,2,B|456:128|256:304|272:96,2,320
376,312,480945,1,0
296,312,481112,2,0,B|256:344|224:288,1,80
223,128,481612,2,0,B|250:81|290:113,1,80
120,128,482112,1,0
40,272,482445,5,2
112,304,482612,1,2
184,336,482778,1,2
80,200,483112,5,2
152,232,483278,1,2
224,264,483445,1,2
128,128,483778,5,2
200,160,483945,1,2
272,200,484112,1,2
168,64,484445,5,2
240,96,484612,1,2
256,192,484778,12,4,486112
256,192,486445,5,4
32,296,486945,2,0,B|80:368|184:344,1,160
256,336,487445,1,2
312,280,487612,1,2
392,296,487778,1,2
392,128,488112,1,2
160,88,490778,5,0
328,88,491112,1,0
224,216,491445,5,4
392,216,491778,1,4
144,216,492278,2,0,B|51:238|0:160,1,160
32,88,492778,1,2
104,48,492945,1,2
184,72,493112,1,2
352,72,493445,1,2
328,296,496112,5,0
160,296,496445,1,0
24,192,496778,5,4
160,192,497112,1,4
296,192,497445,1,4
432,192,497778,1,4
432,56,498112,1,2
360,56,498278,1,2
296,56,498445,2,2,B|112:56,1,160
72,56,498945,1,2
72,56,499112,1,2
256,192,499278,12,4,499778
256,192,499945,12,6,500445
256,192,500612,12,4,501778
184,88,502112,6,4,B|72:240,1,160
88,352,502778,2,4,B|192:216,1,160
320,216,503445,1,2
384,216,503612,1,2
448,216,503778,2,2,B|488:152|400:136|440:56,1,160
435,64,504278,1,2
435,64,504445,1,2
152,216,507445,6,2,B|256:320|368:216,1,240
360,152,508112,2,2,B|253:52|144:160,1,240
80,160,508778,1,0
80,224,508945,2,2,B|88:320|184:328,1,160
312,328,509612,1,0
376,304,509778,1,0
416,248,509945,1,0
416,176,510112,6,0,B|328:176,1,80
336,104,510445,2,0,B|248:104,1,80
248,176,510778,2,0,B|160:176,1,80
168,104,511112,2,0,B|72:104,1,80
40,152,511445,2,2,B|8:288|176:320,1,240
296,328,512278,1,0
360,304,512445,1,0
392,248,512612,1,0
416,184,512778,6,2,B|344:136|448:64|384:0|296:32,1,240
232,32,513445,2,2,B|160:80|264:152|200:216|112:184,1,240
64,224,514112,1,0
80,288,514278,2,2,B|152:360|240:320,1,160
344,264,514945,2,2,B|416:216,1,80
472,184,515278,1,2
256,192,515445,12,4,516445
256,192,516778,5,0
184,232,516945,1,0
112,184,517112,1,2
96,104,517278,1,0
152,48,517445,2,0,B|232:8|288:56,1,120
328,88,517862,1,0
328,88,517945,1,0
408,64,518112,5,0
456,128,518278,1,0
408,192,518445,2,0,B|320:288,1,120
272,336,518862,1,0
272,336,518945,1,0
240,264,519112,1,2
168,296,519278,1,2
136,224,519445,5,2
72,176,519612,1,0
72,96,519778,1,0
120,32,519945,1,2
200,32,520112,2,0,B|296:120,1,120
360,72,520528,1,0
360,72,520612,1,0
344,152,520778,5,8
408,200,520945,1,0
472,248,521112,1,8
408,304,521278,1,0
344,248,521445,1,8
408,200,521612,1,0
472,152,521778,1,8
408,96,521945,1,0
344,40,522112,5,0
264,16,522278,1,0
272,96,522445,1,2
192,72,522612,1,0
112,80,522778,2,0,B|40:88|32:160,1,120
112,160,523195,1,0
112,160,523278,1,0
112,240,523445,5,0
176,288,523612,1,0
256,296,523778,2,0,B|360:232,1,120
424,184,524195,1,0
424,184,524278,1,0
400,104,524445,1,2
336,56,524612,1,2
272,104,524778,2,2,B|336:16|416:224|248:328|248:328|112:224|176:8|240:120,2,640
104,64,527778,6,0,B|192:64,1,80
264,64,528111,1,0
344,64,528278,1,0
424,64,528444,1,0
424,144,528611,1,0
424,224,528778,2,2,B|336:224,1,80
256,192,529111,12,4,532444
280,40,532778,6,4,B|312:104|384:104,1,120,4|4
256,136,533278,1,0
232,216,533444,2,4,B|264:280|336:280,1,120
200,304,533944,1,0
120,304,534111,2,4,B|64:256|8:312,2,120
120,304,534778,1,4
88,144,535111,1,0
232,56,535444,6,2,B|272:8|392:56,1,160
456,96,535944,1,0
455,176,536111,2,2,B|503:216|454:333,1,160
376,328,536611,1,2
336,320,536694,1,2
312,288,536778,2,2,B|288:224|240:336|200:216,1,120
208,128,537278,1,0
264,72,537445,2,0,B|296:32|344:48,1,80
320,120,537778,2,0,B|360:152|336:192,1,80
256,104,543445,6,2,B|256:48,4,40
392,192,544112,6,0,B|440:192,4,40
256,288,544778,6,2,B|256:344,4,40,2|2|2|2|2
120,192,545445,6,0,B|64:192,4,40,0|0|0|0|0
256,104,546112,5,0
120,192,546445,5,2
256,288,546778,5,0
392,192,547112,5,2
256,192,547445,12,4,548445
312,32,548778,6,4,B|440:144,1,160
312,256,549445,2,4,B|192:136,1,160
192,320,550112,1,4
40,248,550445,2,4,B|24:152|88:72|168:32|264:48,1,320
312,40,551278,1,0
392,40,551445,5,0
456,88,551612,1,0
456,168,551778,1,2
440,248,551945,2,0,B|416:296|368:280,1,80
296,248,552278,1,0
224,288,552445,1,2
152,240,552612,1,2
96,176,552778,1,0
160,128,552945,2,0,B|112:104|120:56,1,80
200,64,553278,2,2,B|208:16|264:16,1,80
312,80,553612,1,0
368,24,553778,1,0
424,80,553945,1,2
368,136,554112,6,0,B|368:232,3,80
368,296,554778,2,0,B|288:336,1,80
200,328,555112,2,0,B|120:280,1,80
72,232,555445,2,4,L|8:168|48:96,2,160
136,176,556278,1,2
192,112,556445,1,2
272,112,556612,1,2
336,40,556778,2,2,B|416:56|496:120|488:224|408:280,1,320
344,320,557612,1,4
264,344,557778,1,4
184,312,557945,1,4
144,240,558112,6,0,L|176:160|264:192,1,160
296,31,558778,2,0,L|277:103|360:128,1,160
152,56,559445,5,4
80,208,559778,1,4
224,136,560112,1,4
144,280,560445,1,4
312,280,560778,2,2,B|400:272|480:224|496:128|480:40,1,320
368,176,561778,6,2,B|360:264|464:312,1,160
280,320,562445,1,0
232,248,562612,1,0
184,320,562779,2,0,B|88:312|64:224,1,160
64,64,563445,2,2,B|128:8|224:40,1,160
264,96,563945,1,0
304,168,564112,2,2,B|384:224|456:184,1,160
480,264,564612,1,0
424,320,564779,5,4
112,320,565112,5,4
264,96,565445,5,4
112,320,565779,5,4
264,272,566112,6,2,B|64:280|232:112|32:96,1,320
176,56,567112,2,2,B|280:80|264:168,1,160
440,128,567779,1,0
464,208,567945,1,0
424,280,568112,2,2,B|376:360|264:304,1,160
256,192,568779,12,4,569779
384,144,570112,6,0,B|328:208,1,80
312,136,570445,2,0,B|368:72,1,80,0|0
312,136,570779,2,2,C|280:128|240:144|200:128|160:144,1,160
160,208,571279,1,0
112,256,571445,1,0
160,296,571612,1,0
112,344,571779,2,2,B|152:384|216:360|224:320|272:320,1,160,2|10
392,320,572445,5,0
432,272,572612,2,0,B|360:216,1,80
264,136,573112,2,4,B|287:147|312:152|320:120|360:112|376:160|408:160|440:136,1,160
416,80,573612,1,0
368,32,573779,1,0
304,56,573945,1,0
240,32,574112,2,2,B|208:80|168:88|128:16|88:56,1,160
56,104,574612,1,0
32,168,574779,2,2,B|40:232|112:200|144:160|184:200,1,160
232,192,575279,5,8
296,192,575445,6,0,B|368:264,1,80
368,184,575779,2,0,B|296:120,2,80,0|0|2
200,288,576612,1,0
200,288,576779,1,0
64,288,577112,1,2
200,288,577445,1,2
296,200,577779,2,4,B|344:256|376:232|400:192|456:192,1,160
256,40,578445,5,4
40,192,578779,5,8
216,344,579112,5,6
280,344,579279,2,0,B|360:344|352:280|424:280,1,160
424,208,579779,2,0,B|328:208,1,80
344,136,580112,2,0,B|384:88|264:72|328:24|384:24,1,160,0|2
104,56,586112,5,0
48,120,586279,1,0
32,200,586445,1,0
64,272,586612,1,0
136,312,586779,2,2,B|192:256|240:360|296:264,1,160
352,248,587279,2,0,B|368:304|424:296,1,80
472,240,587612,1,0
472,152,587779,2,2,B|480:48|360:32,1,160
88,40,588445,5,6
160,264,588779,5,6
208,40,589112,5,6
280,264,589445,5,6
472,192,589779,5,0
424,120,589945,2,2,B|352:72|264:128,1,160
208,168,590445,1,0
160,232,590612,1,0
80,256,590779,1,8
24,192,590945,1,0
24,192,591029,1,0
24,192,591112,1,0
40,112,591279,6,2,B|128:128|184:40,1,160
256,48,591779,1,0
328,88,591945,1,0
400,128,592112,1,8
328,168,592279,1,0
328,168,592362,1,0
328,168,592445,1,0
400,216,592612,2,2,B|376:304|264:304,1,160
200,304,593112,1,0
128,264,593279,1,0
256,192,593445,12,4,593945
88,48,594445,5,4
256,48,594779,1,4
424,48,595112,1,4
424,216,595445,2,4,B|384:328|280:184|216:320,1,240
72,104,596445,1,4
152,128,596612,2,4,B|176:224|232:120|272:208,1,160
296,280,597112,1,0
368,320,597279,1,0
440,280,597445,6,0,B|440:224,3,40
440,200,597779,6,0,B|440:152,3,40
440,120,598112,5,4
256,32,598445,5,4
72,120,598779,5,4
