osu file format v9

[General]
AudioFilename: Koromo.mp3
AudioLeadIn: 2000
PreviewTime: 8029
Countdown: 0
SampleSet: Normal
StackLeniency: 0.7
Mode: 0
LetterboxInBreaks: 0

[Editor]
DistanceSpacing: 1.5
BeatDivisor: 4
GridSize: 8

[Metadata]
Title:Koromo of the Sprite Tribe
Artist:Nico Nico Douga
Creator:Saten-san
Version:Koromo
Source:Secret of Mana
Tags:Hiroki Kikuta Seiken no Densetsu Saki amae mahjong fukuhara kaori Teta Weezy chamelepeace710 OzzyOzrock

[Difficulty]
HPDrainRate:5
CircleSize:4
OverallDifficulty:5
ApproachRate:7
SliderMultiplier:2.4
SliderTickRate:2

[Events]
//Background and Video events
Video,0,"Koromo-vid.avi"
0,0,"BG3.jpg"
//Break Periods
//Storyboard Layer 0 (Background)
//Storyboard Layer 1 (Fail)
//Storyboard Layer 2 (Pass)
//Storyboard Layer 3 (Foreground)
//Storyboard Sound Samples
//Background Colour Transformations
3,100,163,162,255

[TimingPoints]
0,501.862599247806,4,1,0,75,1,0
24089,-100,4,1,0,75,0,1
31617,-100,4,1,0,75,0,0
31993,-100,4,2,0,95,0,0
34001,-100,4,1,0,75,0,0
36071,-100,4,2,0,95,0,0
38078,-100,4,1,0,75,0,0

[Colours]
Combo1 : 255,136,187
Combo2 : 223,32,37
Combo3 : 252,186,97
Combo4 : 21,197,234

[HitObjects]
32,192,0,2,0,B|80:152|144:152,1,120,0|8
176,184,376,1,0
192,232,501,2,0,B|272:224|336:128|416:152,1,240
448,184,1129,1,0
456,232,1254,1,8
432,272,1380,1,0
376,288,1505,6,0,B|312:288,1,60
288,200,1756,2,0,B|352:200,1,60,8|0
376,112,2007,2,0,B|352:56|288:24,1,120,0|8
80,96,2509,2,0,B|112:40|176:24,1,120,0|8
104,256,3011,2,0,B|128:184|240:152|272:80,1,240
256,40,3638,1,0
208,32,3763,1,8
168,64,3889,1,0
152,104,4014,6,0,B|152:224,1,120,0|8
360,280,4516,2,0,B|360:160,2,120,0|8|0
328,320,5144,1,0
280,336,5269,1,8
232,336,5395,1,0
192,304,5520,2,0,B|176:240,3,60,0|0|8|0
168,200,6022,6,0,B|168:136|224:96,1,120,0|8
256,184,6524,2,0,B|248:248|192:280,2,120,0|8|0
256,136,7151,1,0
272,88,7277,1,8
312,64,7402,1,0
360,56,7527,1,6
256,328,8029,6,0,B|200:312|200:312|144:280,1,120,0|8
120,240,8406,1,0
120,192,8531,2,0,B|128:136|128:136|160:72,2,120,0|8|0
120,240,9158,1,0
160,272,9284,1,8
208,264,9409,1,0
240,224,9535,2,0,B|256:168,2,60,0|0|8
336,328,10037,5,0
384,312,10162,1,0
416,272,10288,1,8
408,96,10539,1,0
368,64,10664,1,0
320,64,10790,1,8
256,192,11040,6,0,B|200:216|136:208,1,120,0|8
96,192,11417,1,0
64,160,11542,2,0,B|48:104|72:40,1,120,0|8
176,144,12044,6,0,B|200:208|168:264,1,120,0|8
128,288,12421,1,0
80,296,12546,1,0
32,280,12672,1,0
8,240,12797,1,8
336,240,13048,6,0,B|312:176|344:120,1,120,0|8
384,96,13425,1,0
432,88,13550,1,0
480,104,13676,1,0
504,144,13801,1,8
392,288,14052,6,0,B|392:352,2,60,0|0|8
416,248,14428,2,0,B|464:208,2,60
368,240,14804,2,0,B|328:192|336:128,2,120,8|0|8
256,328,15557,5,0
208,320,15683,1,0
176,288,15808,1,8
176,240,15934,1,0
216,208,16059,6,0,B|272:208|320:152,1,120,0|8
296,112,16436,1,0
256,88,16561,2,0,B|304:40|368:48,1,120,0|8
408,72,16937,1,0
408,120,17063,2,4,B|304:200|184:128,1,240,4|0
144,104,17690,1,0
96,112,17816,1,8
64,152,17941,1,0
64,200,18067,6,0,B|96:256|160:264,1,120,0|8
184,224,18443,2,0,B|240:208|304:232,1,120
344,256,18819,2,0,B|400:232|416:160,2,120,8|0|8
152,112,19572,1,0
360,112,19823,1,8
256,192,20074,5,0
216,208,20199,2,0,B|160:176|152:112,1,120
160,64,20576,1,0
200,40,20701,1,0
248,40,20827,1,8
288,64,20952,1,0
312,104,21078,2,0,B|288:160|216:176,1,120,0|8
128,192,21580,6,0,B|96:312,1,120,0|8
232,112,22081,2,0,B|200:232,1,120,0|8
336,32,22583,2,0,B|304:152,1,120,0|8
256,320,23085,5,0
208,304,23211,1,0
176,272,23336,1,8
160,224,23462,1,0
168,176,23587,1,4
256,112,23838,6,0,B|256:232,2,120,8|0|8
280,72,24465,1,0
328,64,24591,1,0
376,80,24716,1,0
400,120,24842,1,8
392,168,24967,1,0
360,200,25093,1,0
312,216,25218,6,0,B|248:216,2,60,0|8|0
320,168,25594,2,0,B|272:120|216:104,1,120,0|8
168,104,25971,1,0
128,136,26096,1,2
112,184,26222,2,0,B|96:240,2,60,0|8|0
160,176,26598,2,0,B|216:200|224:272,2,120,0|8|0
112,160,27226,5,0
72,128,27351,1,8
64,80,27476,1,0
96,48,27602,2,0,B|160:16|224:32,1,120,0|8
240,72,27978,1,0
280,104,28104,6,0,B|352:96|376:32,1,120,2|8
416,24,28480,2,0,B|464:64|464:136,1,120,2|0
440,168,28857,2,0,B|376:176|320:136,2,120,8|0|8
488,184,29484,1,0
504,232,29609,1,0
488,280,29735,1,0
440,296,29860,1,8
400,272,29986,1,0
384,224,30111,6,0,B|328:184|272:200,1,120,0|8
240,232,30488,1,0
200,256,30613,1,0
152,248,30739,1,0
112,224,30864,1,8
112,176,30990,2,0,B|128:112|184:80,1,120
216,112,31366,2,0,B|280:96|304:32,2,120,8|4|0
120,40,32119,6,0,B|56:56|24:112,1,120,0|8
24,160,32495,1,0
48,200,32621,1,0
88,224,32746,1,0
136,232,32872,1,8
184,216,32997,1,0
208,176,33122,2,0,B|264:136|320:160,1,120,0|8
360,184,33499,1,0
360,232,33624,2,0,B|408:272|472:248,1,120,0|8
480,128,34126,5,0
376,64,34377,1,8
256,48,34628,1,0
136,64,34879,2,0,B|136:128,1,60,8|0
152,168,35130,2,0,B|208:192,3,60,0|0|8|0
256,192,35632,2,0,B|304:152,3,60,0|0|8|0
344,128,36134,5,0
392,128,36259,1,0
432,160,36385,1,8
432,208,36510,1,0
408,248,36635,1,0
368,272,36761,2,0,B|312:296|248:256,1,120
232,216,37137,2,0,B|176:184|104:208,2,120,0|8|0
256,256,37765,1,0
248,304,37890,1,8
208,328,38016,1,0
256,192,38141,12,4,39647
