osu file format v11

[General]
AudioFilename: SteinsGate.mp3
AudioLeadIn: 2000
PreviewTime: 59620
Countdown: 0
SampleSet: Normal
StackLeniency: 0.7
Mode: 0
LetterboxInBreaks: 1

[Editor]
Bookmarks: 23381,31346
DistanceSpacing: 1
BeatDivisor: 2
GridSize: 4

[Metadata]
Title:Kokoro Okarin
TitleUnicode:Kokoro Okarin
Artist:Nico Nico Douga
ArtistUnicode:Nico Nico Douga
Creator:BinJip
Version:Okarin
Source:Steins;Gate
Tags:Naryuga mad
BeatmapID:185120
BeatmapSetID:62328

[Difficulty]
HPDrainRate:6
CircleSize:4
OverallDifficulty:8
ApproachRate:9
SliderMultiplier:1.8
SliderTickRate:1

[Events]
//Background and Video events
0,0,"e0039470_4de6f2f53b3c3.jpg"
Video,0,"1.avi"
//Break Periods
2,72407,74793
2,79841,91784
//Storyboard Layer 0 (Background)
//Storyboard Layer 1 (Fail)
//Storyboard Layer 2 (Pass)
//Storyboard Layer 3 (Foreground)
//Storyboard Sound Samples
//Background Colour Transformations
3,100,163,162,255

[TimingPoints]
526,265.486725663717,4,1,0,40,1,0
8623,-200,4,1,0,60,0,0
8888,-100,4,1,0,60,0,0
9021,-100,4,1,0,60,0,1
15791,-133.333333333333,4,1,0,60,0,1
16189,-200,4,1,0,60,0,1
16455,-100,4,1,0,60,0,1
23357,-200,4,1,0,60,0,1
23623,-100,4,1,0,60,0,1
25481,-66.6666666666667,4,1,0,60,0,1
26012,-100,4,1,0,60,0,0
29729,-200,4,1,0,5,0,0
29995,-100,4,1,0,5,0,0
30260,-100,4,1,0,60,0,0
37030,-200,4,1,0,60,0,0
37295,-100,4,1,0,60,0,0
59596,-200,4,1,0,60,0,0
59995,-100,4,1,0,60,0,1
66764,-80,4,1,0,60,0,1
67163,-66.6666666666667,4,1,0,60,0,1
67428,-100,4,1,0,60,0,1
72207,-100,4,1,0,40,0,0
75393,265.486725663717,4,1,0,60,1,1
79641,-100,4,1,0,60,0,0
96101,-200,4,1,0,60,0,0
96632,-100,4,1,0,60,0,0
130216,-200,4,1,0,60,0,0
130614,-100,4,1,0,60,0,1
136986,-66.6666666666667,4,1,0,60,0,1
137384,-80,4,1,0,60,0,1
137782,-100,4,1,0,60,0,1
147605,-100,4,1,0,40,0,0

[HitObjects]
56,152,526,2,0,B|144:96|280:96,1,180,2|0,0:0|0:0,0:0:0
312,76,924,2,0,B|360:84|388:144,1,90,0|2,0:0|0:0,0:0:0
296,328,1189,2,0,B|248:320|220:260,1,90
212,208,1455,1,2,0:0:0
136,252,1587,6,0,B|200:328|352:332,1,180,2|0,0:0|0:0,0:0:0
376,132,1986,2,0,B|312:56|160:52,1,180,2|0,0:0|0:0,0:0:0
132,84,2384,1,0,0:0:0
72,148,2517,1,0,0:0:0
56,236,2649,6,0,B|100:324|284:324,1,180,2|0,0:0|0:0,0:0:0
456,148,3048,2,0,B|412:60|228:60,1,180,2|0,0:0|0:0,0:0:0
56,236,3446,2,0,B|87:274|136:269,1,90
364,252,3711,1,2,0:0:0
160,176,3844,2,0,B|255:215|333:171,2,180,0|0|2,0:0|0:0|0:0,0:0:0
333,171,4508,2,0,B|328:232|400:280,1,90,2|0,0:0|0:0,0:0:0
352,340,4773,6,0,B|256:300|178:344,1,180,2|2,0:0|0:0,0:0:0
96,304,5172,1,0,0:0:0
108,216,5304,2,0,B|55:213|14:149,1,90,2|0,0:0|0:0,0:0:0
333,171,5570,2,0,B|385:173|426:237,1,90
108,216,5835,1,2,0:0:0
108,216,5968,2,0,B|189:153|191:63,2,180,0|2|0,0:0|0:0|0:0,0:0:0
188,260,6632,1,0,0:0:0
256,320,6764,5,2,0:0:0
408,96,7163,2,0,B|456:132|448:220,1,90
256,192,7561,1,0,0:0:0
104,288,7826,2,0,B|56:252|64:164,1,90,0|2,0:0|0:0,0:0:0
256,24,8623,6,0,B|256:148,1,90
256,204,9021,1,12,0:0:0
120,344,9287,6,0,B|76:316|68:252,1,90
116,192,9552,1,8,0:0:0
104,40,9685,2,0,B|148:68|156:132,1,90
120,344,9950,2,0,B|164:376|240:344,1,90,0|8,0:0|0:0,0:0:0
256,280,10216,1,0,0:0:0
476,200,10349,2,0,B|392:172|276:200,1,180,0|8,0:0|0:0,0:0:0
256,116,10747,6,0,B|204:120|168:160,1,90
120,344,11012,2,0,B|172:340|208:300,1,90,0|8,0:0|0:0,0:0:0
100,160,11410,5,0,0:0:0
68,76,11543,1,0,0:0:0
156,96,11676,2,0,B|196:64|264:68,1,90,8|0,0:0|0:0,0:0:0
324,104,11941,2,0,B|380:132,2,45
324,196,12207,2,0,B|360:296,1,90,8|0,0:0|0:0,0:0:0
264,276,12472,2,0,B|224:380,1,90
231,360,12672,1,0,0:0:0
231,360,12738,1,8,0:0:0
56,328,13003,6,0,B|20:296|12:232,1,90
104,252,13269,2,0,B|128:156|260:116,2,180,12|0|8,0:0|0:0|0:0,0:0:0
144,80,13933,2,0,B|228:12|348:72,1,180
416,208,14464,1,0,0:0:0
356,376,14729,1,0,0:0:0
200,288,14995,2,0,B|152:296|96:264,1,90
172,204,15260,1,0,0:0:0
168,104,15393,6,0,B|260:64|328:99|368:116,1,180,8|0,0:0|0:0,0:0:0
192,140,15791,6,0,B|261:110|312:136|341:149,1,135.000005149842
216,168,16189,6,0,B|262:148|296:165|316:174,1,90,0|8,0:0|0:0,0:0:0
372,224,16587,5,0,0:0:0
404,308,16720,1,0,0:0:0
328,356,16853,1,0,0:0:0
244,324,16986,2,0,B|192:320|148:368,1,90,8|0,0:0|0:0,0:0:0
372,224,17251,2,0,B|348:128|216:96,1,180,0|12,0:0|0:0,0:0:0
84,28,17782,6,0,B|40:60|60:132,1,90
72,196,18048,1,8,0:0:0
148,248,18180,2,0,B|236:196|247:105,1,180
292,28,18579,1,8,0:0:0
247,105,18711,2,0,B|348:128|372:224,1,180
172,340,19110,6,0,B|254:296|352:340,1,180,8|0,0:0|0:0,0:0:0
345,337,19441,1,0,0:0:0
345,337,19508,1,0,0:0:0
396,264,19641,6,0,B|448:168|396:40,1,180,8|0,0:0|0:0,0:0:0
328,116,20039,2,0,B|312:164|240:192,1,90,0|8,0:0|0:0,0:0:0
324,252,20304,2,0,B|243:312|145:286,1,180
96,360,20702,6,0,B|16:284|20:188,1,180,8|0,0:0|0:0,0:0:0
112,196,21101,1,0,0:0:0
324,252,21233,1,8,0:0:0
444,120,21499,6,0,B|400:92|356:120,1,90
348,28,21764,2,0,B|243:46|217:145,1,180,12|0,0:0|0:0,2:0:0
256,320,22163,6,0,B|200:316|172:284,1,90,0|8,0:0|0:0,0:0:0
164,196,22428,1,0,0:0:0
217,265,22561,6,0,B|171:233|164:196,1,90
196,112,22826,1,8,0:0:0
208,200,22959,6,0,B|183:149|196:112,1,90
264,52,23225,1,0,0:0:0
178,133,23357,6,0,B|182:77|212:52,1,90,8|0,0:0|0:0,0:0:0
300,36,23756,1,0,0:0:0
356,108,23888,6,0,B|388:156,2,45,8|0|0,0:0|0:0|0:0,0:0:0
316,192,24154,1,8,0:0:0
316,192,24220,1,0,0:0:0
316,192,24287,1,0,0:0:0
264,268,24419,1,8,0:0:0
184,308,24552,1,0,0:0:0
96,324,24685,2,0,B|36:236|96:128,1,180,8|8,0:0|0:0,0:0:0
83,152,25017,1,0,0:0:0
83,152,25083,1,0,0:0:0
60,64,25216,2,0,B|124:32,2,45,8|0|0,0:0|0:0|0:0,0:0:0
192,92,25481,6,2,B|272:28|404:116|368:189|324:268,1,270.000010299683,8|0,0:0|0:0,0:0:0
468,331,26012,6,0,B|366:311|350:213,1,180,2|0,0:0|0:0,0:0:0
280,272,26410,2,0,B|256:320|168:324,1,90,0|2,0:0|0:0,0:0:0
64,272,26676,2,0,B|88:224|176:220,1,90
148,136,26941,1,0,0:0:0
220,80,27074,6,0,B|300:40|440:88,1,180,2|0,0:0|0:0,0:0:0
148,136,27472,2,0,B|176:176|232:176,1,90,0|2,0:0|0:0,0:0:0
312,156,27738,1,0,0:0:0
400,168,27871,2,0,B|380:260|248:312,1,180,0|2,0:0|0:0,0:0:0
200,328,28269,1,0,0:0:0
112,320,28402,1,0,0:0:0
52,252,28534,1,0,0:0:0
44,164,28667,6,0,B|72:52,1,90,2|0,0:0|0:0,0:0:0
156,88,28933,2,0,B|252:52,1,90
288,132,29198,2,0,B|380:164,1,90,2|0,0:0|0:0,0:0:0
336,244,29464,2,0,B|384:324,1,90
292,316,29729,6,0,B|240:392,2,90,2|0|2,0:0|0:0|0:0,0:0:0
212,276,30393,5,0,0:0:0
132,232,30525,1,0,0:0:0
72,164,30658,1,0,0:0:0
72,164,30791,2,0,B|44:120|56:56,1,90,2|0,0:0|0:0,0:0:0
140,108,31056,2,0,B|140:56|192:20,1,90
228,104,31322,2,0,B|260:60|336:56,1,90,2|0,0:0|0:0,0:0:0
308,148,31587,2,0,B|352:124|400:148,1,90
256,216,31853,5,2,0:0:0
297,335,31986,1,0,0:0:0
177,376,32118,1,0,0:0:0
136,257,32251,1,0,0:0:0
84,184,32384,6,0,B|24:152,2,45,2|0|0,0:0|0:0|0:0,0:0:0
112,96,32649,1,0,0:0:0
112,96,32716,1,0,0:0:0
112,96,32782,1,0,0:0:0
204,96,32915,1,2,0:0:0
292,104,33048,1,0,0:0:0
344,32,33180,2,0,B|392:48|408:120,1,90
412,188,33446,5,2,0:0:0
412,188,33579,1,0,0:0:0
388,276,33711,1,0,0:0:0
388,276,33844,1,0,0:0:0
312,320,33977,2,0,B|296:364,2,45,2|0|0,0:0|0:0|0:0,0:0:0
236,268,34242,1,0,0:0:0
236,268,34375,2,0,B|116:268,1,90,0|6,0:0|0:0,0:0:0
32,128,34773,6,0,B|92:56|205:27,1,180,0|2,0:0|0:0,0:0:0
252,96,35172,1,0,0:0:0
312,160,35304,1,0,0:0:0
380,100,35437,1,0,0:0:0
456,152,35570,2,0,B|472:196|448:264,1,90,2|0,0:0|0:0,0:0:0
360,344,35835,2,0,B|344:300|368:232,1,90
224,224,36101,6,0,B|180:240|112:216,1,90,2|0,0:0|0:0,0:0:0
32,128,36366,2,0,B|76:112|144:136,1,90
176,56,36632,5,2,0:0:0
256,100,36764,1,0,0:0:0
336,56,36897,1,0,0:0:0
256,100,37030,6,0,B|256:196,1,90
312,260,37428,6,0,B|324:308|376:336,1,90
380,200,37694,2,0,B|368:152|316:124,1,90,2|0,0:0|0:0,0:0:0
256,190,37959,1,0,0:0:0
188,248,38092,1,0,0:0:0
96,252,38225,1,2,0:0:0
96,252,38357,2,0,B|47:224|40:163,1,90
216,84,38756,6,0,B|252:52|298:59,1,90,6|0,0:0|0:0,0:0:0
384,96,39021,1,0,0:0:0
452,156,39154,1,0,0:0:0
460,244,39287,1,2,0:0:0
424,324,39419,2,0,B|388:356|341:348,1,90
228,208,39818,6,0,B|128:140,1,90,2|0,0:0|0:0,0:0:0
64,180,40083,2,0,B|36:64,1,90
128,64,40349,1,2,0:0:0
216,84,40481,1,0,0:0:0
300,56,40614,1,0,0:0:0
384,96,40747,1,0,0:0:0
392,184,40879,6,0,B|388:232|320:284,1,90,6|0,0:0|0:0,0:0:0
272,208,41145,2,0,B|231:236|227:284,1,90,0|0,0:0|0:0,0:0:0
140,308,41410,1,6,0:0:0
56,276,41543,2,0,B|24:188|48:76,1,180
120,148,41941,1,6,0:0:0
144,60,42074,2,0,B|200:52|256:100,1,90,0|0,0:0|0:0,0:0:0
208,168,42340,2,0,B|237:196|293:188,1,90,0|6,0:0|0:0,0:0:0
172,324,42738,6,0,B|256:376|352:320,1,180,0|6,0:0|0:0,0:0:0
412,268,43136,1,0,0:0:0
480,208,43269,2,0,B|488:152|448:124,1,90
408,48,43534,1,2,0:0:0
320,68,43667,6,0,B|296:112|212:112,1,90
220,200,43933,1,0,0:0:0
168,272,44065,2,0,B|124:244|112:180,1,90,2|0,0:0|0:0,0:0:0
168,124,44331,1,0,0:0:0
220,200,44464,6,0,B|256:164|336:164,1,90,0|2,0:0|0:0,0:0:0
300,256,44729,1,0,0:0:0
388,280,44862,6,0,B|468:220|472:96,1,180,0|2,0:0|0:0,0:0:0
396,72,45260,1,0,0:0:0
300,84,45393,6,0,B|256:108|212:84,2,90,0|0|2,0:0|0:0|0:0,0:0:0
156,192,45924,6,0,B|204:192|259:252,1,90
160,276,46189,2,0,B|232:348|368:324,1,180,2|0,0:0|0:0,0:0:0
408,288,46587,1,0,0:0:0
496,296,46720,2,0,B|500:184|368:148,1,180,2|0,0:0|0:0,0:0:0
344,88,47118,1,0,0:0:0
256,68,47251,5,6,0:0:0
168,52,47384,2,0,B|120:72|104:124,2,90
184,140,47782,1,2,0:0:0
112,192,47915,1,0,0:0:0
84,276,48048,1,0,0:0:0
124,356,48180,1,0,0:0:0
196,300,48313,6,0,B|276:236,1,90,6|0,0:0|0:0,0:0:0
344,292,48579,2,0,B|360:336|415:341,1,90
464,268,48844,1,2,0:0:0
472,180,48977,1,0,0:0:0
420,108,49110,1,0,0:0:0
420,108,49242,1,0,0:0:0
336,80,49375,2,0,B|248:36|152:80,1,180,6|0,0:0|0:0,0:0:0
84,116,49773,6,0,B|48:228,1,90,0|2,0:0|0:0,0:0:0
148,204,50039,2,0,B|204:292,1,90
256,348,50304,1,0,0:0:0
336,304,50437,6,0,B|388:308|432:280,1,90,2|0,0:0|0:0,0:0:0
424,108,50702,2,0,B|372:104|328:132,1,90
352,268,50968,2,0,B|404:267|445:235,1,90,2|0,0:0|0:0,0:0:0
380,76,51233,6,0,B|327:76|286:108,1,90
248,180,51499,1,6,0:0:0
132,308,51764,2,0,B|185:308|216:282,1,90
56,256,52030,1,2,0:0:0
80,168,52163,1,0,0:0:0
80,80,52295,6,0,B|171:81|273:192,1,180,0|2,0:0|0:0,0:0:0
256,68,52694,1,0,0:0:0
344,88,52826,2,0,B|352:144|436:164,1,90
400,231,53092,2,0,B|352:240|344:296,1,90,2|0,0:0|0:0,0:0:0
256,316,53357,1,0,0:0:0
184,372,53490,2,0,B|96:348|48:248,1,180
48,168,53888,1,0,0:0:0
188,56,54154,6,0,B|200:100|272:132,1,90,2|0,0:0|0:0,0:0:0
324,72,54419,2,0,B|312:116|358:179,1,90
416,212,54685,1,2,0:0:0
412,300,54818,1,0,0:0:0
340,352,54950,1,0,0:0:0
252,344,55083,1,0,0:0:0
164,320,55216,2,0,B|100:332,2,45,2|0|0,0:0|0:0|0:0,0:0:0
92,252,55481,1,0,0:0:0
92,252,55548,1,0,0:0:0
92,252,55614,1,0,0:0:0
112,164,55747,6,0,B|92:112,2,45,6|0|0,0:0|0:0|0:0,0:0:0
188,116,56012,1,0,0:0:0
188,116,56079,1,0,0:0:0
188,116,56145,1,0,0:0:0
276,92,56278,2,0,B|308:40,2,45,2|0|0,0:0|0:0|0:0,0:0:0
364,116,56543,1,0,0:0:0
364,116,56610,1,0,0:0:0
364,116,56676,1,0,0:0:0
420,184,56809,6,0,B|420:292|272:352,1,180,6|0,0:0|0:0,0:0:0
236,308,57207,2,0,B|192:336|144:316,1,90,0|2,0:0|0:0,0:0:0
24,188,57472,2,0,B|68:160|116:180,1,90
176,116,57738,1,0,0:0:0
264,104,57871,6,0,B|312:176|436:184,1,180,6|0,0:0|0:0,0:0:0
248,280,58402,2,0,B|200:208|76:200,1,180,6|0,0:0|0:0,0:0:0
76,164,58800,6,0,B|36:128,2,45,0|0|6,0:0|0:0|0:0,0:0:0
176,116,59065,1,0,0:0:0
264,104,59198,2,0,B|360:144|476:104,1,180,0|6,0:0|0:0,0:0:0
448,204,59596,6,0,B|408:308,1,90
328,316,59995,1,8,0:0:0
72,272,60260,6,0,B|124:284|168:256,1,90
104,188,60526,1,8,0:0:0
28,140,60658,2,0,B|92:64|204:108,1,180
252,172,61056,1,8,0:0:0
340,156,61189,2,0,B|336:100|288:84,2,90
316,244,61587,2,0,B|368:352,1,90,8|0,0:0|0:0,0:0:0
196,244,61853,2,0,B|144:352,1,90
104,252,62118,6,0,B|40:176|72:48,1,180,8|0,0:0|0:0,0:0:0
148,48,62517,1,0,0:0:0
328,68,62782,1,0,0:0:0
456,304,63180,1,8,0:0:0
368,284,63313,6,0,B|340:240|264:220,1,90
228,292,63579,2,0,B|185:282|157:238,1,90,0|8,0:0|0:0,0:0:0
284,92,63844,2,0,B|327:102|355:146,1,90,0|0,0:0|0:0,0:0:0
228,292,64242,6,0,B|140:348,2,90,12|0|0,0:0|0:0|0:0,0:0:0
156,240,64641,2,0,B|104:248|64:212,1,90,0|8,0:0|0:0,0:0:0
140,156,64906,1,0,0:0:0
88,84,65039,1,0,0:0:0
168,40,65172,1,0,0:0:0
256,40,65304,6,0,B|364:52|428:176,1,180,8|0,0:0|0:0,0:0:0
424,220,65702,1,0,0:0:0
412,308,65835,2,0,B|308:372,1,90,8|0,0:0|0:0,0:0:0
256,312,66101,1,0,0:0:0
168,104,66366,6,0,B|260:64|328:99|368:116,1,180,8|0,0:0|0:0,0:0:0
152,144,66764,6,0,B|255:98|332:138|375:157,1,225,8|0,0:0|0:0,0:0:0
120,184,67163,6,0,B|258:124|360:174|420:202,1,270.000010299683,8|8,0:0|0:0,0:0:0
388,272,67561,5,0,0:0:0
324,332,67694,1,0,0:0:0
236,320,67826,1,0,0:0:0
144,316,67959,2,0,B|96:312|60:276,1,90,8|0,0:0|0:0,0:0:0
368,68,68225,2,0,B|416:72|452:108,1,90
372,152,68490,6,0,B|304:216|168:204,1,180,12|0,0:0|0:0,0:0:0
148,276,68888,2,0,B|112:264|96:208,1,90,0|8,0:0|0:0,0:0:0
52,128,69154,1,0,0:0:0
220,68,69419,1,0,0:0:0
356,184,69685,1,0,0:0:0
476,320,69950,6,0,B|440:352|392:352,1,90,0|8,0:0|0:0,0:0:0
324,292,70216,1,0,0:0:0
252,236,70349,1,0,0:0:0
172,272,70481,1,0,0:0:0
144,180,70614,2,0,B|100:92,1,90,8|0,0:0|0:0,0:0:0
192,92,70879,6,0,B|260:32|380:72,1,180,0|8,0:0|0:0,0:0:0
312,140,71278,2,0,B|348:168|352:240,1,90
316,304,71543,1,0,0:0:0
252,236,71676,2,0,B|168:276|28:220,1,180,8|0,0:0|0:0,0:0:0
44,152,72074,1,0,0:0:0
84,72,72207,1,8,0:0:0
344,140,75393,6,0,B|428:176|456:300,1,180,12|0,0:0|0:0,0:0:0
360,260,75791,2,0,B|332:292|268:288,1,90,0|8,0:0|0:0,0:0:0
208,344,76056,1,0,0:0:0
120,364,76189,2,0,B|76:332|72:264,1,90
48,204,76455,1,8,0:0:0
80,120,76587,2,0,B|136:56|284:68,2,180
152,176,77251,6,0,B|164:220|228:240,1,90
244,148,77517,2,0,B|316:208|448:180,1,180,8|0,0:0|0:0,0:0:0
464,112,77915,1,0,0:0:0
388,64,78048,1,8,0:0:0
288,68,78180,2,0,B|204:16|84:60,1,180
24,48,78579,6,0,B|20:90|48:134,1,90,8|0,0:0|0:0,0:0:0
80,216,78844,1,8,0:0:0
148,272,78977,1,0,0:0:0
184,192,79110,2,0,B|276:224|304:332,1,180,8|8,0:0|0:0,0:0:0
388,336,79508,1,0,0:0:0
464,288,79641,1,4,0:0:0
88,248,92384,6,0,B|132:272|180:252,1,90,6|0,0:0|0:0,0:0:0
136,172,92649,2,0,B|164:128|236:132,1,90
256,52,92915,1,2,0:0:0
336,96,93048,1,0,0:0:0
424,248,93446,6,0,B|380:272|332:252,1,90,6|0,0:0|0:0,0:0:0
376,172,93711,2,0,B|348:128|276:132,1,90
256,52,93977,1,2,0:0:0
176,96,94110,1,0,0:0:0
108,348,94508,6,0,B|124:300|180:296,1,90,6|0,0:0|0:0,0:0:0
256,256,94773,1,0,0:0:0
256,256,94906,1,0,0:0:0
453,232,95039,6,0,B|415:198|364:222,1,90,6|0,0:0|0:0,0:0:0
256,256,95304,1,0,0:0:0
256,256,95437,1,0,0:0:0
75,107,95570,6,0,B|124:96|156:143,1,90,6|0,0:0|0:0,0:0:0
256,256,95835,1,0,0:0:0
256,256,95968,1,0,0:0:0
300,44,96101,6,0,B|252:16|208:48,2,90,6|0|2,0:0|0:0|0:0,0:0:0
376,92,96764,6,0,B|448:172,1,90
452,248,97030,1,0,0:0:0
408,328,97163,1,2,0:0:0
320,348,97295,2,0,B|268:340|244:280,1,90
256,128,97561,2,0,B|308:136|332:196,1,90,0|2,0:0|0:0,0:0:0
244,216,97826,5,0,0:0:0
168,264,97959,2,0,B|76:200,1,90
172,168,98225,2,0,B|128:88,1,90,2|0,0:0|0:0,0:0:0
216,104,98490,2,0,B|216:8,1,90
288,68,98756,6,0,B|384:96|424:184,1,180,2|0,0:0|0:0,0:0:0
436,268,99154,1,0,0:0:0
368,324,99287,2,0,B|332:352|248:344,1,90,2|0,0:0|0:0,0:0:0
312,260,99552,2,0,B|260:272|208:248,1,90
272,176,99818,2,0,B|172:172|86:98,2,180,2|0|2,0:0|0:0|0:0,0:0:0
360,184,100481,1,0,0:0:0
332,99,100614,5,0,0:0:0
240,100,100747,1,0,0:0:0
172,156,100879,2,0,B|152:252|36:276,1,180,6|0,0:0|0:0,0:0:0
72,184,101278,2,0,B|36:84,1,90,0|2,0:0|0:0,0:0:0
132,96,101543,2,0,B|164:56|168:4,1,90
240,100,101809,5,0,0:0:0
332,99,101941,2,0,B|424:100|516:184,1,180,2|0,0:0|0:0,0:0:0
408,192,102340,2,0,B|436:244|384:308,1,90,0|2,0:0|0:0,0:0:0
324,236,102605,2,0,B|316:284|252:312,1,90
184,332,102871,1,0,0:0:0
96,324,103003,2,0,B|24:264|24:132,1,180,2|0,0:0|0:0,0:0:0
112,192,103402,1,0,0:0:0
160,116,103534,6,0,B|232:176|232:308,1,180,2|0,0:0|0:0,0:0:0
268,304,103866,1,0,0:0:0
288,344,103933,2,0,B|328:372|412:344,1,90,0|2,0:0|0:0,0:0:0
484,192,104198,2,0,B|444:164|360:192,1,90
388,272,104464,1,0,0:0:0
316,220,104596,6,0,B|252:140,1,90,2|0,0:0|0:0,0:0:0
212,228,104862,2,0,B|116:228,1,90
164,308,105127,2,0,B|108:384,1,90,6|0,0:0|0:0,0:0:0
52,308,105393,5,0,0:0:0
32,220,105525,1,0,0:0:0
52,132,105658,1,2,0:0:0
112,68,105791,1,0,0:0:0
204,64,105924,2,0,B|256:52|316:100,1,90
232,152,106189,6,0,B|248:256|360:288,1,180,2|0,0:0|0:0,0:0:0
424,320,106587,1,0,0:0:0
492,260,106720,2,0,B|464:204|492:128,1,90,2|0,0:0|0:0,0:0:0
448,88,106986,2,0,B|368:52|272:64,2,180,0|2|0,0:0|0:0|0:0,0:0:0
392,160,107649,5,0,0:0:0
360,244,107782,2,0,B|348:288|288:328,1,90,2|0,0:0|0:0,0:0:0
260,236,108048,2,0,B|124:236,1,90
92,192,108313,2,0,B|120:97|260:76,2,180,2|0|2,0:0|0:0|0:0,0:0:0
92,284,108977,6,0,B|104:332|180:364,1,90
240,348,109242,1,0,0:0:0
324,312,109375,2,0,B|372:340,2,45,6|0|0,0:0|0:0|0:0,0:0:0
396,256,109641,1,0,0:0:0
396,256,109707,1,0,0:0:0
396,256,109773,1,0,0:0:0
420,168,109906,2,0,B|480:72,1,90,2|0,0:0|0:0,0:0:0
380,68,110172,2,0,B|364:16,2,45
308,120,110437,2,0,B|272:92|196:100,1,90,6|0,0:0|0:0,0:0:0
252,184,110702,2,0,B|156:164|40:244,1,180,0|2,0:0|0:0,0:0:0
116,300,111101,5,0,0:0:0
200,332,111233,2,0,B|416:304,1,180,0|6,0:0|0:0,0:0:0
444,248,111632,1,0,0:0:0
472,164,111764,1,0,0:0:0
476,72,111897,1,0,0:0:0
311,64,112030,6,0,B|360:68|392:100,1,90,6|0,0:0|0:0,0:0:0
200,64,112295,2,0,B|152:68|120:100,1,90
336,120,112561,6,0,B|382:135|404:175,1,90,6|0,0:0|0:0,0:0:0
176,120,112826,2,0,B|129:135|107:175,1,90,0|0,0:0|0:0,0:0:0
336,176,113092,6,0,B|376:203|388:247,1,90,6|0,0:0|0:0,0:0:0
176,176,113357,2,0,B|135:203|123:247,1,90
256,336,113623,6,0,B|256:132,1,180,6|0,0:0|0:0,0:0:0
256,64,114021,1,0,0:0:0
168,40,114154,1,2,0:0:0
96,92,114287,1,0,0:0:0
36,160,114419,6,0,B|28:264|108:348,2,180,0|2|0,0:0|0:0|0:0,0:0:0
112,212,115083,2,0,B|176:288|304:280,1,180
232,200,115481,2,0,B|320:188|396:64,2,180,0|2|0,0:0|0:0|0:0,0:0:0
272,280,116145,1,0,0:0:0
348,328,116278,2,0,B|384:356|460:364,1,90,2|0,0:0|0:0,0:0:0
412,272,116543,2,0,B|456:256|492:180,1,90
440,128,116809,1,2,0:0:0
380,60,116941,2,0,B|288:60,1,90
200,60,117207,1,0,0:0:0
100,212,117472,6,0,B|56:244|56:316,2,90
148,288,117871,2,0,B|216:344|356:340,1,180,6|0,0:0|0:0,0:0:0
408,332,118269,1,0,0:0:0
452,252,118402,2,0,B|452:204|384:148,1,90,2|0,0:0|0:0,0:0:0
464,100,118667,2,0,B|400:32|280:48,1,180,0|2,0:0|0:0,0:0:0
216,84,119065,1,0,0:0:0
128,64,119198,2,0,B|84:88|72:180,1,90
160,180,119464,2,0,B|133:222|169:308,1,90,2|0,0:0|0:0,0:0:0
236,228,119729,2,0,B|356:228,1,90
408,188,119995,2,0,B|484:124|476:-4,2,180,2|0|2,0:0|0:0|0:0,0:0:0
328,148,120658,5,0,0:0:0
252,100,120791,1,0,0:0:0
180,152,120924,1,0,0:0:0
120,220,121056,6,0,B|76:240|72:296,1,90,2|0,0:0|0:0,0:0:0
256,312,121322,2,0,B|300:292|304:236,1,90
120,168,121587,6,0,B|74:151|32:187,1,90,2|0,0:0|0:0,0:0:0
260,360,121853,2,0,B|305:376|347:340,1,90
476,192,122118,6,0,B|408:128|308:124,1,180,6|0,0:0|0:0,0:0:0
260,52,122517,1,0,0:0:0
172,64,122649,2,0,B|128:72|80:132,2,90,2|0|0,0:0|0:0|0:0,0:0:0
184,156,123048,1,0,0:0:0
108,204,123180,6,0,B|72:240|84:316,1,90,2|0,0:0|0:0,0:0:0
172,272,123446,2,0,B|158:321|207:380,1,90
264,304,123711,2,0,B|277:353|348:380,1,90,2|0,0:0|0:0,0:0:0
352,284,123977,2,0,B|388:319|463:307,1,90
352,284,124242,5,2,0:0:0
386,153,124375,1,0,0:0:0
256,118,124508,1,0,0:0:0
221,249,124640,1,0,0:0:0
300,204,124773,1,2,0:0:0
322,70,124906,1,0,0:0:0
189,48,125039,1,0,0:0:0
166,179,125171,1,0,0:0:0
116,92,125304,2,0,B|48:152|48:288,1,180,2|0,0:0|0:0,0:0:0
100,328,125702,1,0,0:0:0
192,328,125835,6,0,B|320:328,1,90,2|0,0:0|0:0,0:0:0
468,248,126101,2,0,B|344:248,1,90
308,192,126366,2,0,B|208:144|188:44,1,180,6|0,0:0|0:0,0:0:0
104,48,126764,1,0,0:0:0
72,132,126897,2,0,B|48:256,1,90,2|0,0:0|0:0,0:0:0
144,196,127163,2,0,B|192:308,1,90
104,324,127428,6,0,B|176:376|316:368,1,180,6|0,0:0|0:0,0:0:0
360,340,127826,1,0,0:0:0
436,292,127959,2,0,B|472:256|468:176,1,90,2|0,0:0|0:0,0:0:0
376,216,128225,2,0,B|356:176|356:128,1,90
344,40,128490,2,0,B|256:76|160:36,2,180,6|0|6,0:0|0:0|0:0,0:0:0
328,144,129154,5,0,0:0:0
301,230,129287,1,0,0:0:0
211,230,129419,1,0,0:0:0
183,144,129552,1,6,0:0:0
256,92,129685,1,0,0:0:0
256,92,129818,2,0,B|256:228,1,90
256,360,130083,5,6,0:0:0
256,360,130216,2,0,B|256:236,1,90
256,180,130614,1,8,0:0:0
392,40,130879,6,0,B|436:68|444:132,1,90
396,192,131145,1,8,0:0:0
408,344,131278,2,0,B|364:316|356:252,1,90
392,40,131543,2,0,B|348:8|272:40,1,90,0|8,0:0|0:0,0:0:0
256,104,131809,1,0,0:0:0
36,184,131941,2,0,B|120:212|236:184,1,180,0|8,0:0|0:0,0:0:0
256,268,132340,6,0,B|308:264|344:224,1,90
392,40,132605,2,0,B|340:44|304:84,1,90,0|8,0:0|0:0,0:0:0
412,224,133003,5,0,0:0:0
444,308,133136,1,0,0:0:0
356,288,133269,2,0,B|316:320|248:316,1,90,8|0,0:0|0:0,0:0:0
188,280,133534,1,0,0:0:0
188,280,133667,1,0,0:0:0
188,188,133800,2,0,B|152:88,1,90,8|0,0:0|0:0,0:0:0
248,108,134065,2,0,B|288:4,1,90
497,134,134331,6,0,B|492:88|456:56,1,90,8|0,0:0|0:0,0:0:0
407,134,134596,2,0,B|412:180|448:212,1,90,8|0,0:0|0:0,0:0:0
407,134,134862,2,0,B|384:228|286:255,2,180,12|0|8,0:0|0:0|0:0,0:0:0
368,304,135525,2,0,B|284:372|164:312,1,180
96,176,136056,1,0,0:0:0
156,8,136322,1,0,0:0:0
312,96,136587,2,0,B|360:88|416:120,1,90
340,180,136853,1,0,0:0:0
388,300,136986,6,0,B|250:360|147:307|87:282,1,270.000010299683,8|0,0:0|0:0,0:0:0
368,272,137384,6,0,B|264:316|188:278|144:258,1,225
348,236,137782,6,0,B|256:276|188:242|148:224,1,180,0|8,0:0|0:0,0:0:0
140,160,138180,5,0,0:0:0
108,76,138313,1,0,0:0:0
184,28,138446,1,0,0:0:0
268,60,138579,2,0,B|320:64|364:16,1,90,8|0,0:0|0:0,0:0:0
140,160,138844,2,0,B|164:256|296:288,1,180,0|12,0:0|0:0,0:0:0
428,356,139375,6,0,B|472:324|452:252,1,90
440,188,139641,1,8,0:0:0
364,136,139773,2,0,B|276:188|265:279,1,180
220,356,140172,1,8,0:0:0
265,279,140304,2,0,B|164:256|140:160,1,180
340,44,140702,6,0,B|258:88|160:44,1,180,8|0,0:0|0:0,0:0:0
76,40,141101,1,0,0:0:0
116,120,141233,6,0,B|64:216|116:344,1,180,8|0,0:0|0:0,0:0:0
184,268,141632,2,0,B|200:220|272:192,1,90,0|8,0:0|0:0,0:0:0
188,132,141897,2,0,B|269:72|367:98,1,180
416,24,142295,6,0,B|496:100|492:196,1,180,8|0,0:0|0:0,0:0:0
400,188,142694,1,0,0:0:0
188,132,142826,1,8,0:0:0
104,292,143092,6,0,B|328:292,1,180,0|12,0:0|0:0,0:0:0
376,292,143490,1,0,0:0:0
456,252,143623,6,0,B|364:224|336:124,1,180,0|8,0:0|0:0,0:0:0
292,48,144021,1,0,0:0:0
204,60,144154,6,0,B|96:68|28:180,1,180,0|12,0:0|0:0,0:0:0
36,236,144552,1,0,0:0:0
100,300,144685,6,0,B|192:356|256:300|328:236|472:336,1,360
468,232,145349,1,0,0:0:0
456,144,145481,1,12,0:0:0
260,48,145747,5,0,0:0:0
92,112,146012,1,12,0:0:0
88,292,146278,1,0,0:0:0
260,344,146543,1,12,0:0:0
348,328,146676,2,0,B|400:232,1,90,0|8,0:0|0:0,0:0:0
308,212,146941,2,0,B|264:112,1,90,0|12,0:0|0:0,0:0:0
360,108,147207,2,0,B|412:24,2,90,0|8|0,0:0|0:0|0:0,0:0:0
256,192,147605,5,12,0:0:0
116,76,147871,2,0,B|64:96|56:156,1,90
52,232,148136,1,2,0:0:0
212,316,148402,2,0,B|340:316,1,90
388,284,148667,1,2,0:0:0
424,108,148933,6,0,B|340:64,1,90
288,136,149198,1,2,0:0:0
200,116,149331,1,0,0:0:0
132,176,149464,2,0,B|96:208|104:272,1,90
164,324,149729,2,0,B|264:312|332:256,1,180,2|0,0:0|0:0,0:0:0
420,256,150127,1,0,0:0:0
260,36,150393,5,0,0:0:0
260,36,150525,1,2,0:0:0
44,324,151056,1,2,0:0:0
360,168,151322,2,0,B|252:192|200:304,1,180,2|0,0:0|0:0,0:0:0
292,324,151720,1,0,0:0:0
218,270,151853,2,0,B|112:244|72:112,1,180,6|0,0:0|0:0,0:0:0
128,72,152251,1,0,0:0:0
396,44,152649,5,2,0:0:0
436,220,152915,1,2,0:0:0
368,280,153048,2,0,B|348:324|260:328,1,90
204,324,153313,2,0,B|96:308|48:216,2,180
180,236,153977,2,0,B|180:108,1,90,2|0,0:0|0:0,0:0:0
256,96,154242,1,2,0:0:0
256,96,154773,5,2,0:0:0
432,140,155039,2,0,B|432:248,1,90,2|0,0:0|0:0,0:0:0
340,232,155304,2,0,B|340:336,1,90
256,356,155570,1,2,0:0:0
108,252,155835,1,0,0:0:0
100,72,156101,6,0,B|184:36|288:52,1,180,6|0,0:0|0:0,0:0:0
352,100,156499,1,0,0:0:0
180,308,156897,1,2,0:0:0
356,340,157163,2,0,B|444:304|468:168,1,180,2|0,0:0|0:0,0:0:0
464,112,157561,1,0,0:0:0
304,192,157826,1,0,0:0:0
64,68,158225,6,0,B|24:176|64:288,1,180,2|0,0:0|0:0,0:0:0
96,324,158623,1,0,0:0:0
256,108,159021,1,2,0:0:0
256,108,159552,1,2,0:0:0
404,212,159818,1,2,0:0:0
404,212,159950,1,0,0:0:0
404,212,160083,1,0,0:0:0
404,212,160216,1,0,0:0:0
404,212,160349,6,0,B|352:292|184:316,1,180,6|0,0:0|0:0,0:0:0
176,356,160747,1,0,0:0:0
64,112,161145,1,2,0:0:0
416,48,161676,1,2,0:0:0
176,356,162207,1,2,0:0:0
156,140,162472,6,0,B|167:89|215:80,1,90,2|0,0:0|0:0,0:0:0
308,92,162738,2,0,B|358:103|367:151,1,90,2|0,0:0|0:0,0:0:0
356,244,163003,2,0,B|344:294|296:303,1,90,2|0,0:0|0:0,0:0:0
204,292,163269,2,0,B|153:280|144:232,1,90,2|0,0:0|0:0,0:0:0
156,140,163534,6,0,B|105:128|96:80,1,90,2|0,0:0|0:0,0:0:0
308,92,163800,2,0,B|319:41|367:32,1,90,2|0,0:0|0:0,0:0:0
356,244,164065,2,0,B|406:255|415:303,1,90,2|0,0:0|0:0,0:0:0
204,292,164331,2,0,B|192:342|144:351,1,90,2|0,0:0|0:0,0:0:0
