osu file format v9

[General]
AudioFilename: _Ievan_Polkka.mp3
AudioLeadIn: 0
PreviewTime: 18041
Countdown: 0
SampleSet: Soft
StackLeniency: 0.7
Mode: 0
LetterboxInBreaks: 0
StoryFireInFront: 0

[Editor]
Bookmarks: 2166,17875,29812,41916,50041,61291,65791,82041,98166,114041
DistanceSpacing: 0.8
BeatDivisor: 4
GridSize: 8

[Metadata]
Title:Ievan_Polkka
Artist:Nico Nico Douga
Creator:SniperSAR
Version:Hard
Source:
Tags:polkka yui azusa jaka jan k-on! k-on!! Lennox989 -Lennox-

[Difficulty]
HPDrainRate:7
CircleSize:4
OverallDifficulty:5
ApproachRate:6
SliderMultiplier:2.1
SliderTickRate:2

[Events]
//Background and Video events
0,0,"hirasawa_yui nakano_azusa.jpg"
//Break Periods
2,33741,40866
2,61365,64991
//Storyboard Layer 0 (Background)
//Storyboard Layer 1 (Fail)
//Storyboard Layer 2 (Pass)
//Storyboard Layer 3 (Foreground)
Sprite,Foreground,Centre,"1\Bb.png",320,240 M,0,61666,61916,212,-72,212,91 M,0,61916,62166,212,91,310,91 M,0,62166,,310,91 M,0,62166,,310,91 M,0,62166,64666,310,91 S,0,63666,63916,0.9488,0.7632 S,0,63916,64166,0.7632,0.936 S,0,64166,,0.936 M,0,64666,64916,310,91,310,26 M,0,64916,65166,310,26,857,26
Sprite,Foreground,Centre,"1\Ss.png",320,240 M,0,62666,62916,437,547,437,354 M,0,62916,63166,437,354,334,354 M,0,63166,64666,334,354 S,0,63666,63916,1.1344,0.9807996 S,0,63916,64166,0.9807996,1.1728 M,0,64666,64916,334,354,334,424 M,0,64916,65166,334,424,-247,424
Sprite,Foreground,Centre,"1\Y A.png",320,240 F,0,65541,65791,0,0.3279999 S,0,65541,65791,0.6992,0.7312
//Storyboard Sound Samples
//Background Colour Transformations
3,100,163,162,255

[TimingPoints]
2166,500,4,2,0,90,1,0
48166,-200,4,2,0,91,0,0
49166,-100,4,2,0,90,0,0
57666,-100,4,2,0,90,0,0
65666,-100,4,2,0,90,0,1
74416,-100,4,2,0,90,0,0
82166,-100,4,2,0,80,0,0
98166,-100,4,2,0,91,0,1
106416,-100,4,2,0,91,0,0
113166,-200,4,2,0,91,0,0
114166,-200,4,2,0,91,0,1
114291,-200,4,2,0,91,0,0

[Colours]
Combo1 : 175,164,255
Combo2 : 255,94,94
Combo3 : 225,215,155

[HitObjects]
88,72,2166,2,0,L|192:40|192:40|304:72,1,210
408,120,3166,1,0
376,240,3666,1,0
328,200,3916,1,0
280,240,4166,1,0
152,240,4666,2,0,C|88:240|87:319|184:320,1,210
272,328,5666,5,0
272,264,5916,1,0
272,200,6166,1,0
280,72,6666,2,0,C|344:96|344:96|368:176|368:176|424:192,1,210
296,216,7666,2,0,C|288:152|288:152|232:136|232:136|184:64,1,210
80,48,8666,5,0
200,88,9166,1,0
288,152,9666,1,0
224,232,9916,1,0
184,128,10166,1,8
184,128,10416,5,0
264,80,10666,1,8
264,80,10916,1,0
360,88,11166,2,0,C|360:192,1,105,8|0
360,288,11666,2,0,C|512:288,2,105,8|8|8
352,192,12416,5,0
256,192,12666,1,8
256,192,12916,1,0
232,280,13166,2,0,C|120:280,1,105,8|0
40,240,13666,2,0,C|40:136,1,105,8|8
128,104,14166,5,8
208,56,14416,1,0
288,104,14666,1,8
208,152,14916,1,0
288,104,15166,2,0,C|392:104,1,105,8|0
448,184,15666,5,8
384,256,15916,1,8
288,256,16166,1,8
192,256,16416,2,0,C|88:256,1,105,0|8
96,160,16916,1,0
192,160,17166,1,8
64,64,18041,6,0,C|128:64,1,52.5,0|8
208,64,18416,1,0
288,64,18666,1,8
368,64,18916,2,0,C|480:64,1,105,0|8
424,136,19416,1,0
384,208,19666,5,8
424,280,19916,1,0
384,208,20166,1,8
328,272,20416,1,0
256,232,20666,1,8
192,288,20916,6,0,C|104:216,1,105,0|8
104,136,21416,1,0
104,136,21666,1,8
104,136,21916,2,0,C|216:136,1,105,0|8
256,64,22416,1,0
304,136,22666,6,0,C|416:136,1,105,8|0
408,48,23166,1,8
496,48,23416,2,0,C|496:160,1,105,0|8
424,200,23916,1,0
464,272,24166,5,8
424,344,24416,1,8
368,280,24666,1,8
304,328,24916,1,0
368,280,25166,1,8
288,248,25416,5,0
216,288,25666,1,8
216,288,25916,2,0,C|104:288,1,105,0|8
64,224,26416,2,0,C|168:176,1,105,0|8
224,64,26916,2,0,C|129:109,1,105,0|8
296,32,27416,6,0,C|352:120,1,105,0|8
424,168,27916,1,8
416,248,28166,1,8
352,304,28416,1,8
272,328,28666,1,0
232,256,28916,5,8
280,184,29166,1,0
224,120,29416,2,0,C|192:168,1,52.5,8|0
216,328,30041,2,0,C|184:272,1,52.5,8|0
128,224,30416,6,0,C|240:224,1,105,8|0
264,144,30916,2,0,C|264:39,1,105,8|0
336,88,31416,2,0,C|448:88,1,105,8|0
392,160,31916,1,8
392,240,32166,1,8
320,200,32416,5,8
320,280,32666,1,0
320,200,32916,1,8
320,280,33166,1,0
248,240,33416,2,0,C|192:240,1,52.5,8|0
112,64,41916,6,0,C|200:144,1,105
272,136,42416,1,0
344,184,42666,1,0
272,232,42916,1,0
336,280,43166,1,0
256,312,43416,6,0,C|152:312,1,105
72,328,43916,1,0
48,248,44166,1,0
128,216,44416,1,0
56,168,44666,1,0
128,128,44916,6,0,C|216:72,1,105
280,128,45416,2,0,C|312:176,1,52.5
472,128,46041,2,0,C|440:176,1,52.5
376,224,46416,1,0
376,304,46666,1,0
304,264,46916,1,0
224,264,47166,5,0
152,304,47416,1,0
208,200,47666,1,0
128,224,47916,1,0
40,256,48166,2,0,C|83:255|83:255|144:211|144:211|208:200,1,210
160,128,49416,2,0,C|160:56,1,52.5
456,120,50166,5,0
288,120,50666,1,0
288,120,50916,1,0
208,120,51166,1,0
320,248,52166,5,0
152,248,52666,1,0
152,248,52916,2,0,C|40:248,1,105
48,64,54166,6,0,C|256:64,1,210
344,72,54916,1,0
424,88,55166,1,0
288,184,55666,1,0
368,184,55916,1,0
440,232,56166,1,0
288,304,56666,5,0
248,232,56916,1,0
160,232,57166,1,0
48,112,57666,5,0
48,192,57916,1,0
120,144,58166,2,0,B|120:39,1,105
200,48,58666,1,0
200,128,58916,1,0
200,128,59166,2,0,B|312:128,1,105
392,96,59666,5,0
392,200,59916,1,0
392,200,60166,2,0,B|392:80,1,105
288,96,60666,2,0,B|400:96,2,105
392,40,66041,6,0,C|392:104,1,52.5,0|8
392,176,66416,2,0,C|328:264,1,105,0|8
248,264,66916,1,0
168,264,67166,2,0,C|64:264,1,105,8|0
56,184,67666,1,8
136,184,67916,6,0,C|136:80,1,105,0|8
304,80,68666,2,8,C|416:80,2,105
144,136,69666,1,8
200,200,69916,1,0
248,136,70166,1,8
400,56,70666,5,0
320,56,70916,2,0,C|320:168,1,105,8|0
472,224,71666,1,8
424,160,71916,2,0,C|312:160,1,105,0|8
312,240,72416,1,0
256,304,72666,1,8
184,264,72916,5,0
184,176,73166,1,8
256,128,73416,1,0
184,176,73666,1,8
128,112,73916,2,0,C|32:176,1,105,0|8
40,256,74416,5,0
40,256,74666,1,0
104,312,74916,1,0
104,312,75166,1,0
168,256,75416,1,0
168,256,75666,2,0,C|253:211|253:211|336:255,1,210
416,272,76416,5,0
464,208,76666,1,0
464,128,76916,1,0
416,56,77166,1,0
336,88,77416,2,0,C|296:48,1,52.5
128,56,78041,6,0,C|80:104,1,52.5
160,144,78416,1,0
240,144,78666,1,0
240,64,78916,1,0
240,144,79166,1,0
200,216,79416,6,0,L|304:216,1,105
304,296,79916,1,0
376,248,80166,1,0
376,168,80416,1,0
304,128,80666,1,0
232,168,80916,1,0
232,248,81166,1,0
216,16,82166,6,0,B|151:54|128:96|144:200,1,210
304,152,83166,1,0
304,152,83416,1,0
80,256,84166,1,0
80,256,84416,2,0,L|184:256,1,105
352,256,85166,6,0,L|352:144,1,105
112,72,86166,1,0
280,72,86666,1,0
448,72,87166,2,0,B|344:72,1,105
88,72,88166,1,0
88,72,88416,5,0
88,72,88666,1,0
256,72,89166,2,0,B|256:200,1,105
24,272,90166,1,0
104,272,90416,1,0
184,272,90666,1,0
264,272,90916,6,0,B|264:160,1,105
368,168,91416,2,0,B|256:168,1,105
96,152,92166,1,0
152,88,92416,1,0
208,152,92666,1,0
96,152,92916,6,0,B|96:264,1,105
168,304,93416,2,0,B|275:304,1,105
168,168,94166,1,0
168,168,94416,1,0
168,168,94666,2,0,B|280:168,1,105
344,208,95166,5,0
344,208,95416,2,0,B|344:96,1,105
432,104,95916,1,0
384,40,96166,1,0
304,40,96416,1,0
224,40,96666,5,0
168,104,96916,1,0
112,168,97166,1,0
56,232,97416,1,0
96,304,97666,2,0,B|208:304,1,105
288,304,98166,5,0
288,304,98416,1,8
288,304,98666,2,0,B|288:192,1,105,0|8
368,168,99166,2,0,B|368:120|368:120|296:120,1,105,0|8
224,120,99666,1,8
144,120,99916,1,8
120,40,100166,6,0,B|48:128,1,105,0|8
40,208,100666,1,8
40,288,100916,1,8
40,288,101166,2,0,B|152:288,1,105,0|8
208,344,101666,1,8
272,288,101916,6,0,B|360:224,1,105,0|8
424,184,102416,2,0,B|496:272,1,105,0|8
368,128,102916,2,0,B|272:200,1,105,0|0
208,160,103416,1,8
80,160,103666,1,8
144,160,103916,5,8
176,240,104166,2,0,B|176:296,1,52.5,8|2
216,272,104416,2,0,B|216:328,1,52.5,8|2
256,344,104666,1,0
336,320,104916,1,0
400,264,105166,5,0
400,184,105416,1,0
400,264,105666,1,0
400,184,105916,2,0,B|320:184,2,52.5,8|0|0
368,104,106416,2,0,B|256:104,1,105,0|8
216,176,106916,6,0,B|104:176,1,105,0|8
160,248,107416,2,0,B|232:328,1,105,0|8
304,288,107916,1,0
304,208,108166,1,0
224,208,108416,1,0
304,208,108666,5,0
384,208,108916,1,0
384,128,109166,1,0
304,128,109416,2,0,B|240:128,1,52.5
80,128,110041,2,0,B|80:64,1,52.5
144,136,110416,5,0
144,136,110666,1,0
144,136,110916,2,0,B|144:256,1,105
208,296,111416,1,0
288,328,111666,1,0
288,248,111916,5,0
360,296,112166,2,0,B|360:184,1,105
352,104,112666,2,0,B|240:104,2,105
256,192,113291,12,2,114166
