osu file format v9

[General]
AudioFilename: _Ievan_Polkka.mp3
AudioLeadIn: 0
PreviewTime: 18041
Countdown: 0
SampleSet: Soft
StackLeniency: 0.7
Mode: 0
LetterboxInBreaks: 0
StoryFireInFront: 0

[Editor]
Bookmarks: 17875,34045,49045,77670
DistanceSpacing: 1
BeatDivisor: 4
GridSize: 8

[Metadata]
Title:Ievan_Polkka
Artist:Nico Nico Douga
Creator:SniperSAR
Version:Easy
Source:
Tags:polkka yui azusa jaka jan k-on! k-on!! Lennox989 -Lennox-

[Difficulty]
HPDrainRate:3
CircleSize:3
OverallDifficulty:2
ApproachRate:2
SliderMultiplier:1
SliderTickRate:2

[Events]
//Background and Video events
0,0,"hirasawa_yui nakano_azusa.jpg"
//Break Periods
2,49745,56610
2,61870,64610
//Storyboard Layer 0 (Background)
//Storyboard Layer 1 (Fail)
//Storyboard Layer 2 (Pass)
//Storyboard Layer 3 (Foreground)
Sprite,Foreground,Centre,"1\Bb.png",320,240 M,0,61666,61916,212,-72,212,91 M,0,61916,62166,212,91,310,91 M,0,62166,,310,91 M,0,62166,,310,91 M,0,62166,64666,310,91 S,0,63666,63916,0.9488,0.7632 S,0,63916,64166,0.7632,0.936 S,0,64166,,0.936 M,0,64666,64916,310,91,310,26 M,0,64916,65166,310,26,857,26
Sprite,Foreground,Centre,"1\Ss.png",320,240 M,0,62666,62916,437,547,437,354 M,0,62916,63166,437,354,334,354 M,0,63166,64666,334,354 S,0,63666,63916,1.1344,0.9807996 S,0,63916,64166,0.9807996,1.1728 M,0,64666,64916,334,354,334,424 M,0,64916,65166,334,424,-247,424
//Storyboard Sound Samples
//Background Colour Transformations
3,100,163,162,255

[TimingPoints]
2166,500,4,2,0,75,1,0
10170,-100,4,2,0,50,0,1
17170,-100,4,2,0,70,0,0
34170,-100,4,2,0,70,0,1
47795,-100,4,2,0,70,0,0
58170,-100,4,2,0,90,0,0
65545,-100,4,2,0,90,0,1
73670,-100,4,2,0,90,0,0
80170,-200,4,2,0,90,0,0
81170,-100,4,2,0,90,0,0
82170,-50,4,2,0,90,0,0
90170,-100,4,2,0,90,0,0
113545,-100,4,2,0,90,0,1
113670,-100,4,2,0,90,0,0

[Colours]
Combo1 : 175,164,255
Combo2 : 255,94,94
Combo3 : 225,215,155

[HitObjects]
152,72,2170,6,0,B|256:72,1,100
344,72,3170,1,0
432,104,3670,2,0,B|488:144|432:208,1,100
352,192,4670,1,0
264,192,5170,1,0
176,200,5670,6,0,B|133:246|176:288,1,100,0|0
264,296,6670,1,0
352,296,7170,1,0
440,296,7670,2,0,B|483:255|440:209,1,100,0|0
256,192,8420,12,0,9670
400,64,10170,6,0,B|328:136,1,100
240,136,11170,1,0
240,48,11670,1,0
152,48,12170,2,0,B|80:120,1,100
80,208,13170,5,0
160,256,13670,1,0
232,200,14170,1,0
304,256,14670,1,0
376,200,15170,2,0,B|480:200,1,100
480,112,16170,5,0
392,112,16670,1,0
320,168,17170,1,0
184,48,18170,5,0
184,136,18670,1,0
176,184,18920,2,0,B|120:184,1,50
80,264,19670,1,0
80,312,19920,2,0,B|136:312,1,50
216,312,20670,5,0
216,312,20920,2,0,B|216:262,1,50
264,184,21670,2,0,B|208:184,2,50
352,184,22670,2,0,B|408:272,1,100
496,272,23670,1,0
472,184,24170,6,0,B|512:136|464:80,3,100
400,40,26170,2,0,B|344:40,1,50
336,80,26670,2,0,B|280:80,1,50
288,128,27170,2,0,B|232:128,1,50
192,128,27670,6,0,B|66:71|-96:176|208:184|208:224|-96:224|72:320|208:272,1,400
272,264,30170,1,0
352,224,30670,1,0
408,152,31170,1,0
408,64,31670,1,0
256,192,32170,12,0,33670
256,192,34170,5,0
344,192,34670,2,0,B|344:88,1,100
264,48,35670,2,0,B|160:48,1,100
96,104,36670,2,0,B|96:216,1,100
256,120,38170,5,0
256,296,39170,1,0
424,240,40170,2,0,B|368:192|368:192|288:192|288:192|240:144|240:144|144:144,1,300
96,88,42170,5,0
32,176,42666,1,0
88,264,43170,1,0
121,190,43670,2,0,B|153:86|241:158|233:222|185:286|81:262,1,300
32,136,45920,2,0,B|32:80,1,50
104,32,46670,6,0,B|208:32,1,100
288,72,47670,1,0
256,192,47920,12,0,49545
256,56,58170,5,0
256,144,58670,2,0,B|256:200,2,50
176,192,59670,1,0
168,280,60170,5,0
264,320,60670,2,0,B|200:320,2,50
264,224,61670,1,0
184,48,66170,6,0,B|200:96|200:96|144:120|144:120|168:168|168:168|120:200|120:200|120:200,1,200
136,280,67670,1,0
224,288,68170,2,0,B|328:288|328:288|328:192,1,200
328,104,69670,1,0
240,104,70170,6,0,B|192:152|136:96,1,100
64,112,71170,2,0,B|16:160|72:216,1,100,0|0
144,240,72170,1,0
208,296,72670,1,0
272,240,73170,1,0
320,168,73670,1,0
368,160,73920,6,0,B|368:96,1,50
408,88,74420,2,0,B|368:48,1,50
328,48,74920,2,0,B|272:48,1,50
232,56,75420,2,0,B|197:92,1,50
160,120,75920,6,0,B|88:160|56:208|96:288|208:360|280:248,1,350
344,208,78170,1,0
376,120,78670,1,0
312,56,79170,1,0
224,56,79670,1,0
224,56,80170,2,0,B|224:160,1,100
88,248,82170,5,0
192,312,82670,1,0
288,248,83170,2,0,B|392:248,1,100
424,72,84170,1,0
304,72,84670,1,0
248,176,85170,2,0,B|144:176,1,100
40,320,86170,5,0
40,200,86670,1,0
128,120,87170,1,0
184,120,87420,1,0
176,296,88170,5,0
248,200,88670,1,0
368,200,89170,1,0
368,144,89420,1,0
224,96,90170,6,0,B|224:152,1,50
152,96,90670,2,0,B|152:152,1,50
152,192,91170,1,0
56,192,91670,1,0
56,288,92170,6,0,B|56:232,1,50
128,288,92670,2,0,B|128:232,1,50
176,232,93170,1,0
272,232,93670,1,0
320,144,94170,5,0
272,56,94670,1,0
184,56,95170,1,0
136,144,95670,1,0
176,232,96170,1,0
256,344,96670,5,0
256,192,97170,5,0
256,72,97670,5,0
200,152,98170,6,0,B|200:256,1,100
248,280,98920,2,0,B|304:280,1,50
408,280,99670,1,0
448,240,99920,2,0,B|448:184,1,50
416,88,100670,1,0
376,48,100920,2,0,B|320:48,1,50
256,128,101670,5,0
168,192,102170,1,0
256,256,102670,1,0
344,192,103170,1,0
256,256,103670,1,0
168,192,104170,2,0,B|-120:152|224:144|184:120|224:104|-120:88|184:56,1,400
256,128,106670,5,0
256,128,106920,2,0,B|320:128,1,50
416,128,107670,1,0
416,128,107920,2,0,B|360:128,1,50
360,240,108670,2,0,B|304:288|224:296|168:232,1,200
80,72,110420,6,0,B|136:72,1,50
184,72,110920,2,0,B|184:136,1,50
184,176,111420,2,0,B|248:176,1,50
344,184,112170,1,0
344,296,112670,1,0
232,296,113170,6,0,B|232:208,1,75
