osu file format v7

[General]
AudioFilename: Hosaka of the Sprite Tribe.mp3
AudioLeadIn: 0
PreviewTime: 31083
Countdown: 1
SampleSet: Normal
StackLeniency: 0.7
Mode: 0
LetterboxInBreaks: 1

[Editor]
Bookmarks: 31115
DistanceSpacing: 0.800000011920929
BeatDivisor: 4
GridSize: 8

[Metadata]
Title:Hosaka of the Sprite Tribe
Artist:Nico Nico Douga
Creator:Pyro Jack
Version:Curry
Source:
Tags:Minami-Ke CDFA Dusty Justin Bieber Teta

[Difficulty]
HPDrainRate:5
CircleSize:5
OverallDifficulty:6
SliderMultiplier:1.8
SliderTickRate:2

[Events]
//Background and Video events
0,0,"n644673596_991431_7.jpg"
Video,0,"Hosaka of the Sprite Tribe.avi"
//Break Periods
//Storyboard Layer 0 (Background)
//Storyboard Layer 1 (Fail)
//Storyboard Layer 2 (Pass)
//Storyboard Layer 3 (Foreground)
//Storyboard Sound Samples
//Background Colour Transformations
3,100,163,162,255

[TimingPoints]
15031,501.882057716437,4,1,0,100,1,0

[HitObjects]
384,96,15031,1,0
312,96,15281,1,0
240,96,15532,1,8
168,96,15783,2,0,B|120:96,2,45,0|0|8
168,168,16285,1,8
168,240,16536,2,0,B|168:296|248:288,1,90,0|8
296,320,17038,5,0
296,248,17289,1,0
368,248,17540,1,8
400,248,17665,1,0
432,248,17791,1,0
432,216,17916,1,0
432,184,18042,2,0,B|432:112|376:104|328:104,1,135,8|0
312,104,18544,1,8
176,80,19046,5,0
160,152,19296,1,0
152,184,19422,1,0
144,216,19547,1,0
128,288,19798,1,0
200,288,20049,2,8,B|272:288,2,45,8|0|8
208,256,20426,1,0
216,224,20551,1,0
256,168,20802,1,8
256,96,21053,5,0
328,96,21304,1,8
378,146,21555,1,0
378,218,21806,1,8
378,253,21931,2,0,B|378:333|298:333|242:333,1,135,0|8
251,331,22433,1,0
214,331,22559,1,0
178,331,22684,1,8
120,240,23061,5,0
120,167,23312,1,0
155,167,23437,1,8
184,104,23688,1,0
219,104,23813,1,8
256,40,24064,1,0
296,104,24315,2,0,B|296:160,2,45,0|8|0
332,104,24692,1,0
367,104,24817,1,8
360,176,25068,5,0
320,240,25319,1,0
283,240,25445,1,8
256,304,25695,1,0
219,304,25821,1,8
168,253,26072,1,0
117,202,26323,2,8,B|77:154|125:106,1,90
138,94,26699,1,0
174,94,26825,1,8
246,94,27076,5,0
312,128,27327,1,0
312,160,27452,1,8
376,192,27703,2,0,B|376:248,1,45,8|8
312,264,28079,1,8
256,312,28330,1,0
232,288,28456,1,8
200,264,28581,2,0,B|144:264,2,45,0|0|8
256,216,29083,5,0
256,144,29334,1,8
224,144,29460,1,0
184,144,29585,1,8
112,144,29836,1,0
72,144,29961,1,0
40,144,30087,2,0,B|16:256|131:281,1,180,8|0
160,288,30714,1,0
192,296,30840,1,8
256,272,31091,5,0
296,272,31216,1,8
336,272,31342,1,0
371,272,31467,1,0
407,272,31593,2,0,B|455:264|431:160,1,90,8|0
412,171,31969,1,8
352,128,32220,1,0
316,128,32345,2,0,B|268:128|220:80,1,90,8|0
209,67,32722,1,0
183,41,32847,1,8
136,104,33098,5,0
128,136,33224,1,0
120,168,33349,1,2
192,184,33600,1,0
184,216,33726,1,0
176,248,33851,1,2
232,296,34102,2,2,B|312:328|352:224,1,135
361,216,34604,1,2
396,153,34855,1,2
368,88,35106,5,0
296,88,35357,1,8
224,88,35608,1,0
152,88,35859,2,0,B|96:88|96:160,1,90,8|8
96,216,36360,1,0
136,216,36486,1,8
168,280,36737,1,0
200,280,36862,1,8
272,280,37113,5,8
336,248,37364,2,0,B|400:216|368:136,1,90,0|8
352,112,37866,1,0
304,64,38117,2,0,B|240:16|155:72,1,135,8|8
151,84,38619,1,8
256,216,39121,5,0
208,272,39372,1,0
256,328,39623,1,8
280,296,39748,1,0
304,272,39874,1,8
352,216,40125,1,8
320,152,40376,1,0
296,128,40501,1,8
256,64,40752,1,0
216,64,40877,1,8
168,120,41128,5,0
168,120,41254,1,0
168,120,41379,1,0
168,120,41505,1,8
216,176,41756,1,0
216,216,41881,1,8
256,272,42132,1,0
328,272,42383,1,0
400,272,42634,2,4,B|440:224|400:184,1,90
352,144,43136,5,0
288,112,43387,1,0
224,80,43638,1,8
152,80,43889,1,0
96,120,44140,1,8
88,192,44391,6,4,B|40:192,6,45
160,192,45394,1,0
192,192,45520,1,4
240,248,45771,1,0
272,248,45896,1,4
336,216,46147,1,2
360,144,46398,2,2,B|408:104|473:168,1,90
328,56,47151,6,8,B|272:40|240:40|184:64,1,135
160,120,47778,1,0
160,152,47904,1,8
104,192,48155,2,8,B|120:264|184:312,1,135
256,144,49158,5,0
200,96,49409,1,0
144,56,49660,2,0,B|56:136|155:166|104:224,1,180,8|8
35,219,50413,1,0
35,291,50664,1,8
184,328,51166,6,8,B|240:344|272:344|328:320,1,135
352,264,51793,1,0
352,232,51919,1,8
408,192,52170,2,8,B|392:120|328:72,1,135
256,192,53174,12,4,54930
