osu file format v14

[General]
AudioFilename: [sm10000002].mp3
AudioLeadIn: 0
PreviewTime: 1480
Countdown: 1
SampleSet: None
StackLeniency: 0.7
Mode: 0
LetterboxInBreaks: 1
WidescreenStoryboard: 0

[Editor]
DistanceSpacing: 0.8
BeatDivisor: 2
GridSize: 16
TimelineZoom: 1

[Metadata]
Title:Gourmet Race
TitleUnicode:Gourmet Race
Artist:Nico Nico Douga
ArtistUnicode:Nico Nico Douga
Creator:AcidSnow1
Version:Normal
Source:
Tags:kirby falcon farukon pan punch nicovideo niconico niconicodouga
BeatmapID:636453
BeatmapSetID:281343

[Difficulty]
HPDrainRate:5
CircleSize:5
OverallDifficulty:5
ApproachRate:6
SliderMultiplier:1.5
SliderTickRate:2

[Events]
//Background and Video events
Video,0,"[sm10000002].avi"
0,0,"sm20000000.jpg",0,0
//Break Periods
2,24131,26732
//Storyboard Layer 0 (Background)
//Storyboard Layer 1 (Fail)
//Storyboard Layer 2 (Pass)
//Storyboard Layer 3 (Foreground)
//Storyboard Sound Samples

[TimingPoints]
1472,320.855614973262,4,1,0,80,1,0

[HitObjects]
256,192,2755,12,0,3397,0:0:0:0:
256,192,4038,5,0,0:0:0:0:
256,192,4680,1,0,0:0:0:0:
384,64,5322,2,0,B|384:288,1,225
320,256,5963,1,0,0:0:0:0:
64,64,6605,6,0,B|448:64|448:352|448:352|384:352,1,600,0|4,0:0|0:0,0:0:0:0:
328,352,8209,1,2,0:0:0:0:
264,352,8530,1,6,0:0:0:0:
256,96,9172,6,0,B|224:128|256:160|288:128|288:96|288:96|320:64,3,150
192,160,10455,2,0,B|192:352|192:352|352:352,1,300
256,160,11418,6,0,B|288:192|320:160|352:192|384:160,2,75
288,96,12060,1,8,0:0:0:0:
320,160,12381,1,8,0:0:0:0:
352,224,12701,1,8,0:0:0:0:
384,96,13022,1,4,0:0:0:0:
416,160,13343,1,4,0:0:0:0:
448,96,13664,1,6,0:0:0:0:
256,192,14306,6,0,B|256:96|256:96|192:192|192:192|224:160,2,225
352,128,15589,2,0,B|320:224|320:224|384:224,2,150
192,192,16873,1,0,0:0:0:0:
224,256,17193,1,0,0:0:0:0:
288,256,17514,1,8,0:0:0:0:
320,192,17835,1,0,0:0:0:0:
288,128,18156,1,4,0:0:0:0:
224,128,18477,1,12,0:0:0:0:
256,64,18798,1,14,0:0:0:0:
256,192,19439,5,0,0:0:0:0:
256,288,20081,1,0,0:0:0:0:
192,96,20723,1,0,0:0:0:0:
320,160,21044,1,0,0:0:0:0:
192,224,21365,1,0,0:0:0:0:
320,288,21685,1,0,0:0:0:0:
256,192,22006,12,4,23931,0:0:0:0:
256,192,27782,6,0,L|288:96,4,75
320,192,28744,1,12,0:0:0:0:
384,192,29065,1,6,0:0:0:0:
448,256,29707,6,0,L|96:256,1,300
96,192,30669,2,0,L|288:192,1,150
320,192,31311,1,0,0:0:0:0:
384,192,31632,1,8,0:0:0:0:
320,192,31953,1,0,0:0:0:0:
256,128,32274,6,0,L|384:128,4,75
144,160,33236,1,8,0:0:0:0:
64,256,33557,2,0,L|352:224,1,225,4|4,0:0|0:0,0:0:0:0:
352,224,34199,1,14,0:0:0:0:
448,144,34840,5,0,0:0:0:0:
384,144,35161,1,0,0:0:0:0:
320,144,35482,1,0,0:0:0:0:
256,144,35803,1,0,0:0:0:0:
192,144,36124,1,0,0:0:0:0:
128,144,36445,1,0,0:0:0:0:
64,144,36766,1,4,0:0:0:0:
64,240,37406,5,0,0:0:0:0:
128,240,37727,1,0,0:0:0:0:
192,240,38048,1,0,0:0:0:0:
256,240,38369,1,0,0:0:0:0:
320,240,38690,1,8,0:0:0:0:
384,240,39011,1,4,0:0:0:0:
448,240,39332,1,6,0:0:0:0:
400,144,39974,5,0,0:0:0:0:
320,144,40295,2,0,L|320:48,2,75
240,144,40937,2,0,L|144:144,2,75
320,144,41578,1,0,0:0:0:0:
304,224,41899,2,0,L|208:224,3,75
256,192,42541,12,0,43183,0:0:0:0:
336,192,43824,5,0,0:0:0:0:
256,192,44145,1,0,0:0:0:0:
176,192,44466,1,0,0:0:0:0:
176,112,44787,1,4,0:0:0:0:
