osu file format v9

[General]
AudioFilename: Shinryaku.mp3
AudioLeadIn: 0
PreviewTime: 30965
Countdown: 0
SampleSet: Normal
StackLeniency: 0.7
Mode: 0
LetterboxInBreaks: 0

[Editor]
Bookmarks: 5890,44056
DistanceSpacing: 1.1
BeatDivisor: 2
GridSize: 8

[Metadata]
Title:Fight Against Squid Girl
Artist:Nico Nico Douga
Creator:Mafiamaster
Version:Geso!
Source:Super Mario RPG
Tags:Shinryaku! Ika Musume Invasion! Squid Girl Fight Against Smithy Gcode2 Louis Cyphre

[Difficulty]
HPDrainRate:2
CircleSize:3
OverallDifficulty:2
ApproachRate:3
SliderMultiplier:0.8
SliderTickRate:0.5

[Events]
//Background and Video events
Video,0,"Shinryaku.flv"
0,0,"BG.jpg"
//Break Periods
//Storyboard Layer 0 (Background)
//Storyboard Layer 1 (Fail)
//Storyboard Layer 2 (Pass)
//Storyboard Layer 3 (Foreground)
//Storyboard Sound Samples
//Background Colour Transformations
3,100,0,0,0

[TimingPoints]
5940,223.880597014925,4,1,1,70,1,0
11935,-100,4,2,1,70,0,0
12943,-100,4,1,1,70,0,0
14622,-100,4,1,1,75,0,0
15069,-100,4,1,1,80,0,0
15629,-100,4,1,1,85,0,0
15965,-100,4,1,1,70,0,0
16631,-100,4,1,0,50,0,0
23459,-100,4,2,0,70,0,0
23683,-100,4,1,0,50,0,0
29952,-100,4,1,0,70,0,0
30903,-100,4,1,1,70,0,0
43950,-100,4,1,0,50,0,0
52346,-100,4,1,1,70,0,0
63200,-100,4,1,0,70,0,0
66674,-100,4,1,0,60,0,0
68465,-100,4,1,0,55,0,0
74118,-100,4,1,0,45,0,0
77226,-100,4,2,0,0,0,0

[HitObjects]
64,112,5939,2,0,B|64:272,3,160,2|0|0|0
168,136,7731,2,0,B|328:136,3,160,2|0|0|0
376,64,9298,1,0
448,112,9522,2,0,B|448:272,3,160,2|0|0|0
320,144,11313,1,2
256,304,11760,1,4
192,144,12208,2,0,B|32:144|144:368|-16:336,1,320,2|0
32,160,13551,6,0,B|-32:96|32:0,2,160,0|0|0
176,272,14895,1,2
320,160,15342,1,2
176,48,15790,1,2
32,160,16238,6,0,B|-46:238|49:286,1,160,0|0
176,160,17134,1,4
176,160,18029,5,0
256,320,18477,1,0
336,160,18925,1,2
336,160,19820,6,0,B|384:240|336:320,1,160
256,160,20716,2,0,B|256:0,1,160,2|0
176,160,21611,2,0,B|128:240|176:320,1,160
336,352,22507,2,0,B|476:274|380:226|284:178|430:105,2,320,2|0|2
256,192,24745,5,0
256,16,25193,1,0
82,106,25641,2,0,B|227:178|131:226|35:274|176:352,2,320
192,240,27880,1,2
352,288,28328,1,0
464,160,28775,1,0
256,192,29223,12,4,31014
256,144,31462,5,0
416,64,31910,1,0
416,240,32357,1,0
256,320,32805,6,2,B|160:384|176:304|240:272,1,160
400,192,33701,2,2,B|496:128|480:208|416:240,1,160
258,238,34596,2,0,B|163:302|179:222|240:192,1,160
416,144,35492,2,0,B|512:80|496:160|432:192,1,160
408,368,36387,2,0,B|280:48,1,320
112,56,37731,2,0,B|200:32|256:144,1,160
96,160,38626,5,0
128,256,39522,1,2
208,320,40417,1,0
304,320,41313,1,2
384,256,42208,1,0
416,160,43104,1,2
80,64,45342,6,0,B|80:240,1,160,4|0
416,320,46686,1,0
80,192,47581,1,0
416,96,48477,1,0
256,48,48925,6,0,B|80:48,1,160,4|0
32,344,50268,1,0
320,248,51163,1,0
432,64,52507,6,0,B|432:224,3,160,4|0|0|0
256,192,54298,1,0
96,240,54745,2,0,B|96:80,2,160
256,336,56089,1,2
464,48,56984,5,0
144,192,57880,1,2
464,320,58775,1,0
144,192,59671,6,0,B|192:288|256:256|256:192|256:128|320:96|368:192,2,320,2|0|0
256,320,61910,1,0
368,192,62357,1,0
256,64,62805,1,0
144,192,63253,6,0,B|144:384,2,160,4|0|0
256,64,64596,1,0
368,192,65044,2,0,B|368:384,2,160
256,336,66387,1,0
144,192,66835,6,0,B|160:120|256:24|352:120|368:192,1,320
256,336,68178,1,0
144,192,68626,2,0,B|159:263|255:359|351:263|367:191,1,320
256,64,69969,1,0
432,32,70417,5,0
256,0,70865,1,2
80,32,71313,2,0,B|-32:32,2,80
80,208,72208,5,0
256,240,72656,1,2
432,208,73104,2,0,B|544:208,2,80
376,40,73999,5,0
256,168,74447,1,2
136,40,74895,2,0,B|24:40,2,80
256,192,75790,12,0,77469
