osu file format v9

[General]
AudioFilename: Shinryaku.mp3
AudioLeadIn: 0
PreviewTime: 30965
Countdown: 0
SampleSet: Normal
StackLeniency: 0.7
Mode: 0
LetterboxInBreaks: 0

[Editor]
Bookmarks: 44056
DistanceSpacing: 0.5
BeatDivisor: 4
GridSize: 8

[Metadata]
Title:Fight Against Squid Girl
Artist:Nico Nico Douga
Creator:Mafiamaster
Version:Dou Degeso!
Source:Super Mario RPG
Tags:Shinryaku! Ika Musume Invasion! Squid Girl Fight Against Smithy Gcode2 Louis Cyphre

[Difficulty]
HPDrainRate:7
CircleSize:4
OverallDifficulty:8
ApproachRate:8
SliderMultiplier:1.4
SliderTickRate:1

[Events]
//Background and Video events
Video,0,"Shinryaku.flv"
0,0,"BG.jpg"
//Break Periods
//Storyboard Layer 0 (Background)
//Storyboard Layer 1 (Fail)
//Storyboard Layer 2 (Pass)
//Storyboard Layer 3 (Foreground)
//Storyboard Sound Samples
//Background Colour Transformations
3,100,0,0,0

[TimingPoints]
5940,223.880597014925,4,1,1,70,1,0
12159,-100,4,2,1,70,0,0
12943,-100,4,1,1,70,0,0
14958,-100,4,1,1,75,0,0
15293,-100,4,1,1,80,0,0
15629,-100,4,1,1,85,0,0
15965,-100,4,1,1,70,0,0
16631,-100,4,1,0,50,0,0
23459,-100,4,2,0,70,0,0
23683,-100,4,1,0,50,0,0
29952,-100,4,1,0,70,0,0
30903,-100,4,1,1,70,0,0
36500,-100,4,1,1,20,0,0
37172,-100,4,1,0,70,0,0
38067,-100,4,1,1,70,0,0
44728,-80,4,1,1,70,0,0
45181,-100,4,1,0,70,0,0
50661,-200,4,1,0,70,0,0
51450,-100,4,1,0,70,0,0
51898,-80,4,1,0,70,0,0
52346,-100,4,1,1,70,0,0
58726,-100,4,2,1,70,0,0
59510,-100,4,1,1,70,0,0
63200,-100,4,1,0,70,0,0
66674,-100,4,1,0,60,0,0
68465,-100,4,1,0,55,0,0
74118,-100,4,1,0,45,0,0

[HitObjects]
168,120,5939,1,8
168,120,6051,1,0
344,120,6275,1,8
344,120,6387,1,0
200,208,6611,1,8
224,232,6723,1,0
256,240,6835,1,8
288,232,6947,1,8
312,208,7059,1,8
256,48,7283,1,8
207,304,7507,6,0,B|208:344|236:364,1,70,8|0
275,364,7731,2,0,B|304:344|304:304,1,70,8|0
256,144,8066,1,8
256,144,8178,1,0
256,312,8402,1,8
176,176,8626,1,8
184,144,8738,1,8
208,120,8850,1,8
240,104,8962,1,0
272,104,9074,1,8
304,120,9186,1,0
328,144,9298,1,8
336,176,9410,1,0
360,200,9522,6,0,B|392:128,1,70,12|0
152,200,9857,2,0,B|120:128,1,70,8|0
256,240,10193,1,8
312,384,10417,1,8
288,360,10529,2,0,B|256:344|256:344|256:344|224:360,2,70,8|8|0
200,384,10865,1,2
56,304,11089,1,0
72,272,11201,1,0
56,240,11313,6,0,B|32:208|24:176,1,70,8|0
184,264,11537,2,8,B|168:232|168:184,1,70,0|8
328,264,11760,2,0,B|344:232|344:184,1,70,0|0
456,240,11984,2,0,B|480:208|488:176,1,70,8|0
400,96,12208,6,0,B|344:32|272:64,1,140,2|0
256,64,12544,1,0
237,62,12656,2,0,B|168:32|112:96,1,140,2|0
104,128,12992,1,0
112,160,13104,5,8
120,192,13216,1,0
400,160,13440,1,8
392,192,13551,1,0
256,288,13775,1,8
408,360,13999,1,8
432,336,14111,1,8
456,312,14223,1,8
432,288,14335,1,0
408,264,14447,1,8
496,120,14671,5,0
512,152,14783,1,8
496,184,14895,1,2
408,40,15119,1,0
384,16,15231,1,2
256,104,15454,1,0
256,136,15566,1,2
112,40,15790,1,0
136,16,15902,1,2
256,136,16126,5,0
256,168,16238,1,0
256,200,16350,1,0
256,232,16462,2,0,B|256:272,2,35
256,267,16686,5,0
128,128,16910,1,0
104,152,17022,1,0
80,176,17134,1,0
80,208,17245,1,0
104,232,17357,1,0
128,256,17469,6,0,B|192:288|192:288|256:256,2,140
152,280,18029,1,0
176,304,18141,1,0
176,336,18253,1,0
152,360,18365,1,0
128,384,18477,6,0,B|64:352|64:352|0:384,1,140
2,347,18813,1,0
26,322,18925,1,0
1,297,19037,1,0
25,272,19148,1,0
0,247,19260,6,0,B|32:183|32:183|0:119,1,140
24,96,19596,2,0,B|78:40,2,70,0|0|0
56,80,19932,1,0
88,72,20044,1,0
120,80,20156,1,0
152,96,20268,5,0
360,288,20492,1,0
184,184,20716,1,0
328,200,20940,1,0
176,280,21163,1,0
336,104,21387,1,0
120,352,21611,1,0
392,32,21835,1,0
496,168,22059,5,0
464,160,22171,1,0
432,168,22283,1,0
424,200,22395,1,0
432,232,22507,2,0,B|448:264|480:296|480:296|448:288|408:304,1,140
392,304,22842,1,0
360,312,22954,2,0,B|296:264|248:216|256:224|256:224|264:216|256:224|208:272|152:312,1,280
40,192,23626,1,4
96,32,23850,5,0
96,32,23962,1,0
256,80,24186,1,0
256,80,24298,1,0
416,32,24522,1,0
472,192,24745,1,0
440,208,24857,1,0
424,240,24969,1,0
440,272,25081,1,0
472,288,25193,2,0,B|512:336|512:336|488:384|424:344,1,140
416,344,25529,1,0
384,344,25641,5,0
384,344,25753,1,0
256,240,25977,1,0
256,240,26089,1,0
128,344,26313,1,0
40,192,26537,1,0
72,176,26648,1,0
88,144,26760,1,0
72,112,26872,1,0
40,96,26984,2,0,B|0:48|0:48|24:0|88:40,2,140
8,112,27544,6,0,B|56:48|152:64,1,140
144,96,27880,2,0,B|192:160|288:144,1,140
296,128,28216,2,0,B|280:56,2,70
328,136,28551,1,0
352,160,28663,1,0
352,192,28775,1,0
328,216,28887,2,0,B|343:284,2,70,0|0|0
296,224,29223,5,0
416,168,29447,1,0
384,256,29671,1,0
328,136,29895,1,0
200,376,30119,6,0,B|200:338|234:318,3,70
279,318,30566,2,0,B|313:338|312:376,3,70
256,368,31014,5,0
256,112,31350,1,8
256,112,31462,2,8,B|256:256,2,140,0|8|8
256,80,32022,1,8
256,48,32134,1,8
192,200,32357,1,8
224,216,32469,1,0
256,232,32581,1,8
288,216,32693,1,0
320,200,32805,1,8
168,288,33029,5,0
160,320,33141,1,8
152,352,33253,1,0
256,232,33477,1,8
344,288,33701,1,8
352,320,33813,1,8
360,352,33925,1,8
224,384,34148,1,8
240,352,34260,1,0
256,320,34372,1,8
272,352,34484,1,0
288,384,34596,6,0,B|432:384,1,140,8|0
464,384,34932,2,0,B|424:368|416:336|416:336|424:304|464:288,1,140,8|0
496,272,35268,1,8
472,248,35380,1,0
496,216,35492,2,0,B|536:200|544:168|544:168|536:136|496:120,1,140,8|0
464,112,35828,2,0,B|520:64,2,70,8|0|8
432,112,36163,1,0
400,120,36275,1,0
376,144,36387,1,8
368,176,36499,1,0
368,208,36611,6,2,B|408:208,9,35
368,240,37283,5,0
360,272,37395,1,0
336,296,37507,1,0
304,304,37619,1,0
272,304,37731,1,0
240,312,37842,1,0
216,336,37954,1,0
208,368,38066,1,0
176,376,38178,6,0,B|32:376,1,140,8|0
11,351,38514,1,8
35,326,38626,2,0,B|175:326,2,140,0|8|8
10,301,39186,1,8
34,276,39298,2,8,B|178:276,1,140
198,251,39634,6,0,B|184:320,2,70,0|10|0
232,256,39969,1,8
256,280,40081,1,0
280,256,40193,1,0
314,251,40305,2,0,B|328:320,2,70,8|0|0
280,232,40641,2,0,B|304:152,2,70,8|0|8
232,232,40977,2,0,B|208:152,2,70,8|2|0
198,251,41313,2,0,B|126:251,2,70,8|0|8
232,256,41648,1,0
256,280,41760,6,0,B|256:128,1,140,8|0
256,104,42096,1,8
256,68,42208,2,0,B|192:40|192:40|128:68,1,140,0|8
296,68,42656,2,8,B|296:140,2,70
128,68,43104,6,0,B|184:16,2,70,8|0|10
103,92,43439,1,0
78,116,43551,1,8
53,140,43663,1,0
77,164,43775,1,0
101,188,43887,1,8
125,212,43999,5,2
100,236,44111,1,0
75,260,44223,1,8
50,284,44335,1,0
74,308,44447,1,8
98,332,44559,1,8
122,356,44671,1,8
146,331,44783,1,0
170,306,44895,6,0,B|264:304,2,87.4999986961484,8|8|4
342,306,45342,5,0
366,281,45454,1,0
390,256,45566,1,0
414,231,45678,2,0,B|486:231,2,70,0|0|0
389,206,46014,1,0
364,181,46126,1,0
339,156,46238,1,0
363,131,46350,1,0
387,106,46462,1,0
411,81,46574,2,0,B|501:81,2,70,0|0|0
435,105,46910,1,0
459,129,47022,1,0
483,153,47134,5,0
458,177,47245,1,0
433,201,47357,1,0
456,224,47469,1,0
480,248,47581,2,0,B|512:280|512:280|464:304|480:360,2,140,0|0|0
455,272,48141,2,0,B|423:295|424:331,1,70,0|0
424,368,48365,2,0,B|424:332|393:308,1,70,0|0
393,273,48589,2,0,B|393:308|362:332,1,70,0|0
328,344,48813,1,0
296,336,48925,6,0,B|224:352,1,70
252,326,49148,2,0,B|180:326,1,70
206,301,49372,2,0,B|136:272,1,70
176,274,49596,2,0,B|122:217,1,70
163,223,49820,6,0,B|139:153,3,70
349,223,50268,2,0,B|373:153,3,70
379,140,50716,5,0
385,123,50828,2,0,B|401:123|417:99|401:75|385:75,1,70
371,62,51163,2,0,B|291:62,1,70
488,104,51611,2,0,B|488:32,2,70
488,136,51947,1,0
488,168,52059,6,0,B|480:176|480:176|472:160|472:160|464:176|464:176|456:160|456:160|448:176|448:176|440:160|440:160|432:176|432:176|424:160|424:160|416:176|416:176|408:160|408:160|400:168,1,174.999997392297
344,264,52507,5,8
344,264,52619,1,0
168,264,52842,1,8
168,264,52954,1,0
312,176,53178,1,8
288,152,53290,1,0
256,144,53402,1,8
224,152,53514,1,8
200,176,53626,1,8
256,336,53850,1,8
304,79,54074,6,0,B|304:40|275:19,1,70,8|0
236,19,54298,2,0,B|208:40|207:79,1,70,8|0
256,240,54634,1,8
256,240,54745,1,0
256,72,54969,1,8
336,208,55193,1,8
328,240,55305,1,8
304,264,55417,1,8
272,280,55529,1,0
240,280,55641,1,8
208,264,55753,1,0
184,240,55865,1,8
176,208,55977,1,0
152,184,56089,6,0,B|120:256,1,70,12|0
360,184,56425,2,0,B|392:256,1,70,8|0
256,144,56760,1,8
200,0,56984,1,8
224,24,57096,2,0,B|256:40|256:40|256:40|288:24,2,70,8|8|0
312,0,57432,1,2
456,80,57656,1,0
440,112,57768,1,0
456,144,57880,6,0,B|480:176|488:208,1,70,8|0
343,187,58104,2,8,B|344:152|328:120,1,70,0|8
184,120,58328,2,0,B|168:152|168:200,1,70,0|0
24,206,58551,2,0,B|32:176|56:144,1,70,8|0
112,288,58775,6,0,B|168:352|240:320,1,140,2|0
256,320,59111,1,0
275,322,59223,2,0,B|344:352|400:288,1,140,2|0
408,256,59559,1,0
400,224,59671,5,8
392,192,59783,1,0
112,224,60007,1,8
120,192,60119,1,0
256,96,60342,1,8
104,24,60566,1,8
80,48,60678,1,8
56,72,60790,1,8
80,96,60902,1,0
104,120,61014,1,8
16,264,61238,5,0
0,232,61350,1,8
16,200,61462,1,2
128,368,61686,1,0
104,344,61798,1,2
256,280,62022,1,0
256,248,62134,1,2
376,368,62357,1,0
400,344,62469,1,2
256,248,62693,5,0
256,216,62805,1,0
256,184,62917,1,0
256,152,63029,2,0,B|256:112,2,35
256,117,63253,5,0
384,256,63477,1,0
408,232,63589,1,0
432,208,63701,1,0
432,176,63813,1,0
408,152,63925,1,0
384,128,64037,6,0,B|320:96|320:96|256:128,2,140
360,104,64596,1,0
336,80,64708,1,0
336,48,64820,1,0
360,24,64932,1,0
384,0,65044,6,0,B|448:32|448:32|512:0,1,140
510,37,65380,1,0
486,62,65492,1,0
511,87,65604,1,0
487,112,65716,1,0
512,137,65828,6,0,B|480:201|480:201|512:265,1,140
488,288,66163,2,0,B|434:344,2,70,0|0|0
456,304,66499,1,0
424,312,66611,1,0
392,304,66723,1,0
360,288,66835,5,0
152,96,67059,1,0
328,200,67283,1,0
184,184,67507,1,0
336,104,67731,1,0
176,280,67954,1,0
392,32,68178,1,0
120,352,68402,1,0
16,216,68626,5,0
48,224,68738,1,0
80,216,68850,1,0
88,184,68962,1,0
80,152,69074,2,0,B|32:128|32:88|32:88|64:96|104:80,1,140
120,80,69410,1,0
152,72,69522,2,0,B|216:120|264:168|256:160|256:160|248:168|256:160|304:112|360:72,1,280
472,192,70193,1,4
416,352,70417,5,0
416,352,70529,1,0
256,304,70753,1,0
256,304,70865,1,0
96,352,71089,1,0
40,192,71313,1,0
72,176,71425,1,0
88,144,71537,1,0
72,112,71648,1,0
40,96,71760,2,0,B|0:48|0:48|24:0|88:40,1,140
96,40,72096,1,0
128,40,72208,5,0
128,40,72320,1,0
256,144,72544,1,0
256,144,72656,1,0
384,40,72880,1,0
472,192,73104,1,0
440,208,73216,1,0
424,240,73328,1,0
440,272,73439,1,0
472,288,73551,2,0,B|512:336|512:336|488:384|424:344,2,140
440,304,74111,6,0,B|392:240|296:256,1,140
328,288,74447,2,0,B|280:224|184:240,1,140
216,272,74783,2,0,B|232:344,2,70
184,264,75119,1,0
160,240,75231,1,0
160,208,75342,1,0
184,184,75454,2,0,B|169:116,2,70,0|0|0
216,176,75790,5,0
296,208,76014,1,0
136,200,76238,1,0
376,184,76462,1,0
440,24,76686,6,0,B|440:62|474:82,3,70
504,96,77134,2,0,B|432:120,3,70
