osu file format v9

[General]
AudioFilename: Fight Against Dangerous Hirasawa Yui & Susumu.mp3
AudioLeadIn: 2000
PreviewTime: 23993
Countdown: 0
SampleSet: Normal
StackLeniency: 0.6
Mode: 0
LetterboxInBreaks: 0

[Editor]
DistanceSpacing: 0.8
BeatDivisor: 4
GridSize: 4

[Metadata]
Title:Fight Against Dangerous Hirasawa Yui & Susumu
Artist:Nico Nico Douga
Creator:TheNutritiousGuy
Version:Kyshiro-tan
Source:Super Mario RPG
Tags:k-on!! super mario smrpg the seven stars fight against dangerous and armed monster kyshiro _gezo_

[Difficulty]
HPDrainRate:7
CircleSize:4
OverallDifficulty:7
ApproachRate:8
SliderMultiplier:1.9
SliderTickRate:2

[Events]
//Background and Video events
0,0,"hirasawa7.jpg"
Video,0,"English Sub Fight Against Dangerous Hirasawa Yui & Susumu.avi"
//Break Periods
//Storyboard Layer 0 (Background)
//Storyboard Layer 1 (Fail)
//Storyboard Layer 2 (Pass)
//Storyboard Layer 3 (Foreground)
//Storyboard Sound Samples
//Background Colour Transformations
3,100,163,162,255

[TimingPoints]
126,425.985090521832,4,1,0,40,1,0
9923,-100,4,2,0,70,0,0
10243,-100,4,1,0,70,0,0
17591,-100,4,2,0,70,0,0
34204,-100,4,2,0,50,0,0
34630,-100,4,2,0,70,0,0
41020,-100,4,1,0,70,0,0
45280,-100,4,2,0,70,0,0
46984,-100,4,1,0,70,0,0
47729,-100,4,2,0,70,0,0
49540,-100,4,1,0,70,0,0
54652,-100,4,1,0,70,0,0

[Colours]
Combo1 : 192,192,192
Combo2 : 255,0,0
Combo3 : 128,64,0
Combo4 : 0,128,255

[HitObjects]
224,136,126,2,0,B|288:80|352:136,2,142.5,10|2|2
352,248,977,2,0,B|288:303|220:248,2,142.5,10|2|2
416,128,1829,2,0,B|472:192|416:256,2,142.5,10|2|10
300,192,2681,2,2,B|280:184|280:184|264:200|264:200|248:184|248:184|232:200|232:200|216:184|216:184|200:200|200:200|184:184|184:184|168:200|168:200|152:184|152:184|136:200|136:200|120:184|120:184|104:200|104:200|88:184|88:184|72:200|72:200|56:184|56:184|40:200|40:200|20:192,1,380
120,96,3746,6,0,B|96:84|76:96,2,47.5,0|8|0
232,96,4172,1,8
340,60,4385,2,0,B|372:176|256:212,2,190,0|8|0
252,140,5450,2,0,B|196:152|192:212,2,95,8|0|8
130,163,6089,2,0,B|92:244|172:308|231:262,2,190,0|8|0
208,56,7154,5,8
280,144,7367,1,0
352,232,7580,1,8
424,320,7793,2,0,B|496:240|428:148,1,190,0|8
208,96,8645,5,0
171,108,8752,1,8
144,135,8858,1,2
136,172,8965,1,8
143,209,9071,1,0
208,170,9284,1,8
268,128,9497,2,0,B|308:184|269:266|181:247,1,190,0|8
208,170,10136,5,4
176,100,10349,2,0,B|126:125|132:183,2,95
289,108,10988,1,0
320,137,11095,1,8
360,136,11201,1,0
432,176,11414,1,0
448,216,11521,1,8
432,256,11627,1,0
360,216,11840,1,8
232,256,12053,5,0
194,247,12160,1,8
165,222,12266,1,0
152,185,12373,1,0
151,147,12479,2,0,B|167:91|222:84,1,95,0|8
281,178,12905,5,0
305,206,13012,1,0
342,210,13118,1,8
378,201,13225,1,0
401,171,13331,1,0
409,134,13438,1,0
389,101,13544,1,8
358,78,13651,1,0
319,77,13757,1,0
168,77,13970,1,8
235,34,14183,2,0,B|259:76|233:126,1,95,10|2
152,264,14609,5,0
104,120,14822,1,8
56,264,15035,1,2
176,176,15248,1,2
32,176,15461,2,2,B|-12:136|52:104|52:104|-12:72|32:32,1,190,2|0
100,160,16100,6,0,B|120:216|60:244,1,95,8|0
200,164,16526,2,0,B|180:108|240:80,1,95,8|0
268,77,16845,1,0
304,88,16952,1,8
328,116,17058,1,8
332,153,17165,1,0
32,352,17591,5,8
480,32,18017,1,2
256,192,18443,1,8
156,308,18656,1,8
264,304,18869,6,0,B|304:280|312:224,1,95,0|8
367,176,19295,2,8,B|340:137|284:133,1,95,0|8
176,192,19721,1,0
120,304,19934,1,8
64,192,20147,1,4
472,40,20573,5,0
392,136,20786,1,8
360,160,20892,1,8
320,168,20999,2,2,B|264:168|232:136,1,95,2|8
160,24,21425,5,8
126,42,21531,1,2
106,74,21638,1,2
114,111,21744,1,2
144,133,21851,1,8
171,159,21957,1,2
173,197,22064,1,2
148,225,22170,1,2
115,245,22277,1,12
256,192,22383,12,4,23981
216,152,24194,5,8
256,168,24300,1,8
296,152,24407,1,0
256,264,24620,2,0,B|256:360,2,95,8|0|8
216,152,25259,2,0,B|260:111|216:71,2,95,0|8|8
192,184,25791,5,0
216,216,25898,1,8
256,224,26004,1,8
296,216,26111,1,0
320,184,26217,1,8
296,152,26324,1,8
256,140,26430,1,0
216,152,26537,2,2,B|160:176|88:112|120:32,1,190,4|10
56,176,27389,6,0,B|112:184|120:240,1,95,0|8
120,312,27815,2,0,B|176:304|192:250,1,95,0|8
200,184,28241,2,0,B|256:192|264:248,1,95,0|8
264,320,28667,2,0,B|320:312|336:258,1,95,8|8
352,128,29092,5,0
464,208,29305,1,8
432,336,29518,1,0
272,336,29731,1,8
240,208,29944,1,0
128,128,30157,1,8
16,208,30370,1,8
48,336,30583,1,8
192,336,30796,6,0,B|192:272|256:272,1,95,0|8
277,286,31116,1,8
309,294,31222,2,2,B|364:294|364:230,1,95
320,96,31648,5,0
256,208,31861,1,8
192,96,32074,1,2
48,352,32500,6,0,B|48:304|96:272,1,95,0|8
127,255,32820,1,8
164,246,32926,1,2
195,225,33033,1,8
222,198,33139,1,8
244,168,33246,1,0
272,144,33352,2,2,B|307:84|402:94|431:154,1,190,2|10
256,280,34204,6,0,B|192:360,1,95,0|8
200,232,34630,2,0,B|264:152,1,95,0|8
320,48,35056,1,0
363,142,35269,1,8
407,236,35482,1,0
450,330,35695,1,8
344,336,35908,6,2,B|300:304|256:336,1,95
276,244,36334,1,0
300,220,36441,1,8
320,244,36547,1,8
344,140,36760,2,2,B|300:172|256:140,1,95,2|10
204,284,37186,2,2,B|235:240|204:196,1,95,2|10
56,240,37612,6,0,B|112:256|192:224|248:240,1,190,2|0
464,64,38464,2,0,B|408:48|328:80|272:64,1,190,2|0
222,186,39316,6,0,B|192:96,1,95,2|0
289,165,39742,2,0,B|320:256,1,95,2|0
256,96,40168,1,2
256,316,40594,1,0
84,292,41020,5,2
88,260,41127,1,0
116,244,41233,1,0
144,236,41340,1,0
170,216,41446,1,8
256,112,41659,1,8
342,216,41872,5,2
368,236,41979,1,0
396,244,42085,1,0
424,260,42192,1,0
428,292,42298,1,8
256,316,42511,1,8
256,184,42724,5,2
255,150,42831,1,0
266,119,42937,1,0
291,97,43043,1,0
323,93,43150,1,2
356,96,43256,1,0
381,118,43363,1,0
392,149,43469,1,0
392,188,43576,6,2,B|428:296|328:376|220:304,1,285,0|0
212,236,44428,1,4
212,176,44641,6,8,B|256:144|300:176,1,95,8|2
212,236,45067,2,2,B|168:268|124:236,3,95
132,104,45919,5,8
140,140,46025,1,0
172,164,46132,1,0
256,88,46345,1,8
256,260,46558,1,2
332,164,46771,1,8
364,188,46877,1,0
372,224,46984,1,4
88,264,47836,6,0,B|136:184,1,95,0|8
248,104,48262,2,2,B|200:184,1,95
216,280,48688,2,0,B|264:200,1,95,0|8
376,120,49114,2,2,B|328:200,1,95
456,216,49540,6,2,B|424:304|424:304|328:304,1,190
336,168,50179,1,8
208,120,50392,2,0,B|240:32|240:32|336:32,1,190,2|2
64,128,51244,6,0,B|96:216,1,95,0|2
128,296,51563,2,0,B|184:160,1,142.5,0|2
300,201,52096,6,0,B|268:113,1,95,0|2
236,33,52415,2,0,B|180:169,1,142.5,0|2
301,201,52948,6,0,B|333:113,1,95,0|2
365,33,53267,2,0,B|421:169,1,142.5,0|2
316,252,53800,2,2,B|335:291|335:291|316:291|316:291|316:331|316:331|296:311|296:311|256:351|256:351|216:311|216:311|196:331|196:331|196:291|196:291|176:291|176:291|196:252,1,380,2|4
