osu file format v9

[General]
AudioFilename: Fight Against Dangerous Hirasawa Yui & Susumu.mp3
AudioLeadIn: 2000
PreviewTime: 23993
Countdown: 0
SampleSet: Normal
StackLeniency: 0.6
Mode: 1
LetterboxInBreaks: 0

[Editor]
DistanceSpacing: 0
BeatDivisor: 4
GridSize: 8

[Metadata]
Title:Fight Against Dangerous Hirasawa Yui & Susumu
Artist:Nico Nico Douga
Creator:TheNutritiousGuy
Version:Gettaiko-tan
Source:Super Mario RPG
Tags:k-on!! super mario smrpg the seven stars fight against dangerous and armed monster kyshiro _gezo_

[Difficulty]
HPDrainRate:6
CircleSize:5
OverallDifficulty:5
ApproachRate:5
SliderMultiplier:1.4
SliderTickRate:1

[Events]
//Background and Video events
0,0,"taiko.jpg"
//Break Periods
//Storyboard Layer 0 (Background)
//Storyboard Layer 1 (Fail)
//Storyboard Layer 2 (Pass)
//Storyboard Layer 3 (Foreground)
//Storyboard Sound Samples
//Background Colour Transformations
3,100,163,162,255

[TimingPoints]
126,425.985090521832,4,1,0,80,1,0
23981,-100,4,1,0,80,0,1
30796,-100,4,1,0,80,0,0
51244,-100,4,1,0,80,0,1
54652,-100,4,1,0,80,0,0

[HitObjects]
256,192,126,1,0
256,192,232,1,0
256,192,445,5,8
256,192,551,5,0
256,192,764,5,8
256,192,977,1,8
256,192,1084,5,0
256,192,1297,5,8
256,192,1403,5,0
256,192,1616,5,8
256,192,1829,1,8
256,192,1936,1,8
256,192,2149,1,8
256,192,2255,5,0
256,192,2468,5,8
256,192,2681,1,8
256,192,2788,1,8
256,192,2894,1,8
256,192,3001,1,8
256,192,3107,1,8
256,192,3214,1,8
256,192,3320,1,8
256,192,3533,1,8
256,192,3640,5,0
256,192,3853,1,0
256,192,3959,1,0
256,192,4172,1,0
256,192,4385,1,0
256,192,4492,1,0
256,192,4598,5,8
256,192,4705,1,8
256,192,4811,5,0
256,192,5024,1,0
256,192,5237,5,8
256,192,5450,1,8
256,192,5557,1,8
256,192,5663,5,0
256,192,5876,1,0
256,192,6089,5,8
256,192,6302,1,8
256,192,6409,1,8
256,192,6515,5,0
256,192,6728,5,8
256,192,6941,5,0
256,192,7154,5,8
256,192,7261,5,0
256,192,7474,1,0
256,192,7580,1,0
256,192,7793,1,0
256,192,7900,1,0
256,192,8006,5,8
256,192,8113,5,0
256,192,8219,5,8
256,192,8432,1,8
256,192,8645,5,0
256,192,8965,5,8
256,192,9071,5,0
256,192,9391,1,0
256,192,9497,5,8
256,192,9710,1,8
256,192,9817,1,8
256,192,9923,5,0
256,192,10136,5,12
256,192,10349,1,8
256,192,10562,1,8
256,192,10669,1,8
256,192,10775,5,0
256,192,10988,1,0
256,192,11095,1,0
256,192,11201,1,0
256,192,11414,5,8
256,192,11521,1,8
256,192,11627,5,0
256,192,11840,5,8
256,192,12053,5,0
256,192,12266,1,0
256,192,12373,1,0
256,192,12479,5,8
256,192,12692,1,8
256,192,12905,5,0
256,192,13118,5,8
256,192,13331,5,0
256,192,13757,5,8
256,192,13970,1,8
256,192,14077,1,8
256,192,14183,5,0
256,192,14396,5,8
256,192,14609,5,0
256,192,14715,1,0
256,192,14822,5,8
256,192,14928,1,8
256,192,15035,5,0
256,192,15248,1,0
256,192,15461,1,0
256,192,15674,5,8
256,192,15887,5,0
256,192,16100,5,8
256,192,16206,1,8
256,192,16313,5,0
256,192,16526,5,8
256,192,16739,5,0
256,192,16845,1,0
256,192,16952,1,0
256,192,17165,1,4
256,192,17591,5,12
256,192,18017,5,4
256,192,18336,1,0
256,192,18443,5,8
256,192,18656,1,8
256,192,18869,5,0
256,192,18975,1,0
256,192,19188,5,8
256,192,19295,5,0
256,192,19508,1,0
256,192,19721,1,0
256,192,19827,1,0
256,192,19934,5,8
256,192,20040,1,8
256,192,20147,5,0
256,192,20360,5,8
256,192,20573,5,0
256,192,20786,5,8
256,192,20892,1,8
256,192,20999,5,0
256,192,21212,5,8
256,192,21425,5,0
256,192,21531,1,0
256,192,21638,5,8
256,192,21744,1,8
256,192,21851,5,0
256,192,21957,1,0
256,192,22064,5,8
256,192,22170,1,8
256,192,22277,5,0
256,192,22490,5,8
256,192,22703,5,0
256,192,22916,5,8
256,192,23129,5,0
256,192,23342,5,8
256,192,23448,1,8
256,192,23555,5,0
256,192,23768,5,8
256,192,23981,5,0
256,192,24194,5,8
256,192,24300,1,8
256,192,24407,5,0
256,192,24620,5,8
256,192,24833,5,0
256,192,25046,5,8
256,192,25259,5,0
256,192,25472,1,0
256,192,25685,1,0
256,192,25898,1,0
256,192,26004,1,0
256,192,26111,5,8
256,192,26217,1,8
256,192,26324,5,0
256,192,26430,1,0
256,192,26537,5,8
256,192,26750,1,8
256,192,26963,5,0
256,192,27389,1,0
256,192,27708,1,0
256,192,27815,5,8
256,192,28028,1,8
256,192,28241,5,0
256,192,28454,5,8
256,192,28560,1,8
256,192,28667,5,0
256,192,28879,5,8
256,192,29092,5,0
256,192,29412,1,0
256,192,29518,5,8
256,192,29731,1,8
256,192,29944,5,0
256,192,30157,5,8
256,192,30370,5,0
256,192,30583,5,8
256,192,30690,1,8
256,192,30796,5,0
256,192,31009,5,8
256,192,31116,1,0
256,192,31222,5,0
256,192,31435,5,8
256,192,31648,5,0
256,192,32074,5,8
256,192,32500,5,0
256,192,32713,5,8
256,192,32820,1,8
256,192,32926,1,8
256,192,33033,1,8
256,192,33139,1,8
256,192,33246,1,8
256,192,33352,1,8
256,192,33565,5,0
256,192,33778,5,8
256,192,33991,1,8
256,192,34098,1,8
256,192,34204,5,0
256,192,34417,1,0
256,192,34524,1,0
256,192,34630,1,0
256,192,34843,1,0
256,192,35056,1,0
256,192,35269,5,8
256,192,35482,5,0
256,192,35695,5,8
256,192,35802,1,8
256,192,35908,5,0
256,192,36121,5,8
256,192,36334,5,0
256,192,36441,1,0
256,192,36547,1,0
256,192,36760,1,0
256,192,36973,5,8
256,192,37186,5,0
256,192,37293,1,0
256,192,37399,1,0
256,192,37612,1,0
256,192,37825,5,8
256,192,37932,1,8
256,192,38038,5,0
256,192,38251,1,0
256,192,38358,5,8
256,192,38464,5,0
256,192,38677,1,0
256,192,38784,1,0
256,192,38890,5,8
256,192,39103,1,8
256,192,39210,5,0
256,192,39316,5,8
256,192,39529,1,8
256,192,39636,5,0
256,192,39742,5,8
256,192,39955,1,8
256,192,40062,5,0
256,192,40275,1,0
256,192,40381,5,8
256,192,40594,5,0
256,192,41020,1,4
256,192,41446,5,12
256,192,41872,5,4
256,192,42298,5,12
256,192,42724,5,4
256,192,43150,5,12
256,192,43576,2,12,B|104:192,1,140
112,192,44428,5,0
112,192,44641,1,0
112,192,44747,5,8
112,192,44960,1,8
112,192,45067,5,0
112,192,45280,1,0
112,192,45493,1,0
112,192,45599,1,0
112,192,45706,1,0
112,192,45919,5,8
112,192,46132,5,0
112,192,46238,1,0
112,192,46345,5,8
112,192,46451,1,8
112,192,46558,5,0
112,192,46771,1,0
112,192,46984,1,0
112,192,47197,5,8
112,192,47410,5,0
112,192,47836,1,0
112,192,47942,1,0
112,192,48049,5,8
112,192,48155,5,0
112,192,48368,1,0
112,192,48475,5,8
112,192,48688,5,0
112,192,48794,5,8
112,192,48901,1,8
112,192,49007,5,0
112,192,49220,5,8
112,192,49327,1,8
112,192,49540,5,0
112,192,49753,1,0
112,192,49859,1,0
112,192,49966,1,0
112,192,50179,1,0
112,192,50285,5,8
112,192,50392,5,0
112,192,50605,1,0
112,192,50818,1,0
112,192,51244,1,0
112,192,51350,1,0
112,192,51563,5,8
112,192,51670,5,0
112,192,51883,5,8
112,192,52096,5,0
112,192,52202,5,8
112,192,52415,1,8
112,192,52522,5,0
112,192,52735,1,0
112,192,52948,1,0
112,192,53054,5,8
112,192,53267,1,8
112,192,53374,5,0
112,192,53480,1,0
112,192,53587,5,8
112,192,53800,1,8
112,192,53906,1,8
112,192,54013,1,8
112,192,54119,1,8
112,192,54226,1,8
112,192,54332,1,8
112,192,54439,1,8
112,192,54545,1,8
112,192,54652,5,0
