osu file format v9

[General]
AudioFilename: Fight Against Dangerous Hirasawa Yui & Susumu.mp3
AudioLeadIn: 2000
PreviewTime: 23993
Countdown: 0
SampleSet: Normal
StackLeniency: 0.6
Mode: 0
LetterboxInBreaks: 0

[Editor]
DistanceSpacing: 0.8
BeatDivisor: 4
GridSize: 8

[Metadata]
Title:Fight Against Dangerous Hirasawa Yui & Susumu
Artist:Nico Nico Douga
Creator:TheNutritiousGuy
Version:Clap-tan
Source:Super Mario RPG
Tags:k-on!! super mario smrpg the seven stars fight against dangerous and armed monster kyshiro _gezo_

[Difficulty]
HPDrainRate:4
CircleSize:3
OverallDifficulty:3
ApproachRate:4
SliderMultiplier:1.2
SliderTickRate:2

[Events]
//Background and Video events
0,0,"hirasawa7.jpg"
Video,0,"English Sub Fight Against Dangerous Hirasawa Yui & Susumu.avi"
//Break Periods
//Storyboard Layer 0 (Background)
//Storyboard Layer 1 (Fail)
//Storyboard Layer 2 (Pass)
//Storyboard Layer 3 (Foreground)
//Storyboard Sound Samples
//Background Colour Transformations
3,100,163,162,255

[TimingPoints]
126,425.985090521832,4,1,0,70,1,0
6302,-100,4,2,0,70,0,0
6728,-100,4,1,0,70,0,0
14822,-100,4,2,0,70,0,0
15248,-100,4,1,0,70,0,0
17165,-100,4,2,0,70,0,0
19508,-100,4,1,0,70,0,0
19934,-100,4,2,0,70,0,0
23129,-100,4,1,0,70,0,0
23342,-100,4,2,0,70,0,0
23768,-100,4,1,0,70,0,0
27389,-100,4,2,0,70,0,0
30157,-100,4,1,0,70,0,0
30583,-100,4,2,0,70,0,0
34204,-100,4,2,0,50,0,0
41020,-100,4,1,0,70,0,0
44428,-100,4,1,0,70,0,0
45280,-100,4,2,0,70,0,0
50392,-100,4,1,0,50,0,0

[Colours]
Combo1 : 192,192,192
Combo2 : 255,0,0
Combo3 : 128,64,0
Combo4 : 0,128,255

[HitObjects]
304,112,3533,1,0
208,112,3959,1,0
256,192,4385,1,0
208,272,4811,1,8
304,272,5237,5,0
400,272,5663,2,0,B|432:272|464:256|472:224|472:192,1,120,0|4
432,104,6515,1,8
344,56,6941,5,0
248,56,7367,1,0
152,56,7793,2,0,B|168:112|104:144|128:192,1,120,0|8
152,264,8645,6,0,B|151:327|228:344,1,120,4|6
296,272,9497,2,0,B|297:209|220:192,1,120,4|2
128,184,10349,6,2,B|8:184,1,120
8,280,11201,1,8
104,288,11627,1,8
200,280,12053,1,0
200,184,12479,1,0
296,184,12905,1,12
104,184,13757,6,0,B|104:136|104:136|104:112|120:96|176:80,1,120
248,88,14609,1,8
344,88,15035,1,8
440,88,15461,2,0,B|456:112|456:112|440:144|440:144|456:176|456:176|440:216,1,120,0|4
448,288,16313,1,0
448,288,16739,1,4
352,288,17165,5,0
256,288,17591,1,8
256,192,18017,1,0
256,96,18443,2,8,B|192:96,1,60
192,240,19295,5,0
256,312,19721,1,4
352,328,20147,1,4
448,328,20573,6,0,B|448:200,2,120,0|8|0
352,328,21851,1,8
256,328,22277,2,0,B|192:304|176:232|264:232|248:144|176:136,1,240,0|4
264,80,23555,1,4
352,40,23981,6,2,B|453:40|512:96|510:209,1,240
512,280,25259,1,8
416,280,25685,2,2,B|408:336|336:408|264:340|256:272,1,240,0|6
256,88,27389,6,0,B|208:88|208:144|136:144|136:88|80:88,2,180
352,88,29092,1,8
352,184,29518,1,8
256,184,29944,1,12
256,280,30370,1,2
256,376,30796,5,0
176,328,31222,1,10
256,280,31648,1,0
336,328,32074,1,10
256,280,32500,2,0,B|256:208,4,60,0|10|0|10|4
96,168,34204,6,0,B|80:216|88:248|128:280,1,120,0|4
216,280,35056,1,0
312,280,35482,1,8
312,184,35908,6,0,B|344:128|304:72,1,120,0|2
208,72,36760,2,0,B|168:128|200:192,1,120,8|2
264,256,37612,5,0
352,304,38038,2,0,B|413:347|490:304|490:216|396:182,1,240,2|8
320,216,39316,1,0
280,128,39742,2,0,B|218:85|141:128|141:215|240:248,1,240,2|10
264,328,41020,6,0,B|280:344|280:344|296:328|296:328|312:344|312:344|328:328|328:328|344:344|344:344|360:328|360:328|376:344|376:344|392:328|392:328|408:344|408:344|424:328|424:328|440:344,3,240,4|6|4|6
304,200,44428,5,0
208,200,44854,1,8
112,200,45280,1,0
104,296,45706,2,0,B|118:317|139:324|161:317|175:296|189:274|211:267|232:274|247:296|261:317|283:324|304:317|318:296,1,240,8|8
384,368,46984,2,0,B|424:352|440:312|440:312|496:312,1,120,4|0
480,216,47836,6,0,B|440:216|440:216|424:176|384:160,1,120,0|8
352,248,48688,2,0,B|304:248|272:216|272:168,1,120,0|8
248,80,49540,2,0,B|228:63|164:63|133:87,1,120,0|8
72,160,50392,2,2,B|91:176|155:176|187:152,1,120,2|6
256,192,51244,12,4,54652
