osu file format v9

[General]
AudioFilename: electionangel.mp3
AudioLeadIn: 0
PreviewTime: 12235
Countdown: 0
SampleSet: Normal
StackLeniency: 0.7
Mode: 0
LetterboxInBreaks: 1

[Editor]
Bookmarks: 6985,41669,55414
DistanceSpacing: 0.6
BeatDivisor: 4
GridSize: 8

[Metadata]
Title:Election Angel, Uh!
Artist:Nico Nico Douga
Creator:Cirno
Version:Gachimuchi
Source:
Tags:Electronic Angel Aniki Gachimuchi Vocaloid MAD Weiren Nijihara Peperon Hatsune Miku

[Difficulty]
HPDrainRate:4
CircleSize:4
OverallDifficulty:2
ApproachRate:4
SliderMultiplier:2
SliderTickRate:1

[Events]
//Background and Video events
0,0,"electionbkg2.jpg"
Video,0,"electionangel_vid.flv"
//Break Periods
//Storyboard Layer 0 (Background)
//Storyboard Layer 1 (Fail)
//Storyboard Layer 2 (Pass)
//Storyboard Layer 3 (Foreground)
//Storyboard Sound Samples
//Background Colour Transformations
3,100,163,162,255

[TimingPoints]
537,428.571428571429,4,1,1,85,1,0
27312,-100,4,1,1,67,0,0
40866,-100,4,1,1,69,0,0
40973,-100,4,1,1,73,0,0
41080,-100,4,1,1,79,0,0
41187,-100,4,1,1,86,0,0
41294,-100,4,1,1,94,0,0
41401,-100,4,1,1,98,0,0
41509,-100,4,1,1,100,0,0
41679,-100,4,1,1,100,0,1
41884,-100,4,1,1,84,0,1
55394,-100,4,1,1,84,0,0

[Colours]
Combo1 : 196,163,74
Combo2 : 122,122,122
Combo3 : 150,102,86
Combo4 : 219,219,219

[HitObjects]
256,192,6965,1,8
256,72,7394,2,0,L|256:160|120:192,1,200
256,312,8251,2,0,L|256:224|392:192,1,200
256,72,9108,5,0
376,64,9537,1,0
456,144,9965,1,0
336,152,10394,1,0
336,272,10822,6,0,B|288:296|224:264,2,100,0|0|8
336,208,11465,1,0
336,152,11679,2,0,B|248:120|128:160,1,200,8|0
104,312,12537,5,8
408,312,12965,1,8
256,48,13394,1,8
312,152,13822,5,0
256,128,14037,1,0
200,152,14251,2,0,B|232:248|200:368,1,200,4|0
144,352,14894,1,0
88,352,15108,2,0,B|60:250|104:144,1,200,8|0
40,152,15751,6,0,B|52:89|115:101,1,100,0|8
232,72,16179,2,0,B|212:121|155:130,3,100
168,248,17251,6,0,B|272:240|360:336,1,200
354,173,18108,1,8
354,173,18322,2,0,B|338:117|386:69,3,100
480,144,19394,5,0
480,200,19608,1,0
456,256,19822,1,8
408,288,20036,1,0
347,288,20251,1,4
224,272,20679,6,0,B|263:177|400:176,1,200,8|0
272,136,21536,2,0,B|232:232|96:232,1,200,8|0
112,112,22394,5,8
152,72,22608,2,0,B|256:72,1,100
376,160,23036,2,0,B|256:160,1,100
152,248,23465,2,0,B|264:248,1,100
360,304,24108,5,0
320,264,24322,1,0
360,224,24536,1,8
320,184,24751,1,0
360,144,24965,1,8
320,104,25179,1,0
360,64,25394,1,8
240,40,25822,6,0,B|80:192,1,200,0|8
352,328,26679,1,8
448,40,27108,1,8
192,192,27536,6,0,B|160:144|200:88,2,100
312,192,28394,1,8
360,160,28608,1,0
360,216,28822,1,0
416,104,29251,6,0,B|312:88|224:160,1,200
192,104,29894,1,0
168,160,30108,1,8
200,208,30322,1,0
256,208,30536,1,0
384,208,30965,5,8
408,264,31179,1,0
384,320,31394,1,0
264,320,31822,5,8
240,264,32036,1,0
256,208,32251,1,0
320,104,32679,1,8
320,224,33108,6,0,B|320:336,4,100,0|0|8|0|8
192,224,34394,6,0,B|184:336|48:336,1,200,8|0
88,224,35251,2,0,B|96:112|232:112,1,200,0|8
328,48,36108,5,0
368,88,36322,1,0
328,128,36537,1,8
368,168,36751,1,0
328,208,36965,1,8
368,248,37179,1,0
328,288,37394,1,8
256,192,37822,12,8,39108
256,192,40822,6,0,B|256:128,8,50,0|0|0|0|0|0|0|0|8
376,192,42108,1,0
312,296,42537,1,0
192,296,42965,1,0
136,192,43394,5,0
88,80,43822,1,0
144,80,44037,1,0
144,80,44251,2,0,B|264:80,4,100,8|0|0|0|0
200,184,45537,5,8
232,232,45751,1,0
264,184,45965,1,0
384,184,46394,1,0
384,64,46822,6,0,B|272:64,1,100
224,64,47251,1,8
168,64,47465,1,0
112,80,47679,1,0
48,176,48108,1,8
40,232,48322,1,0
95,255,48537,1,0
200,312,48965,6,0,B|416:312,1,200,8|0
296,256,49822,2,0,B|80:256,1,200,8|0
200,200,50679,5,8
248,160,50894,1,0
296,200,51108,1,0
408,192,51537,1,0
456,232,51751,1,8
504,192,51965,1,0
424,96,52394,6,0,B|384:56|336:96,1,100,8|0
280,72,52822,2,0,B|224:82|230:144,1,100
272,192,53251,2,0,B|224:248|144:248|96:192,1,200,8|0
256,192,53787,12,0,55394
