osu file format v9

[General]
AudioFilename: sdfadsf.mp3
AudioLeadIn: 2250
PreviewTime: 47074
Countdown: 0
SampleSet: Normal
StackLeniency: 0.3
Mode: 0
LetterboxInBreaks: 1

[Editor]
DistanceSpacing: 0.8
BeatDivisor: 4
GridSize: 8

[Metadata]
Title:Dr. KBC
Artist:Nico Nico Douga
Creator:fanzhen0019
Version:Normal
Source:
Tags:OzzyOzrock Ozzy Angry German Kid Super Smash Bros. Melee Dr Mario SSBM

[Difficulty]
HPDrainRate:3
CircleSize:3
OverallDifficulty:3
ApproachRate:4
SliderMultiplier:1.2
SliderTickRate:2

[Events]
//Background and Video events
Video,0,"videoo.avi"
0,0,"BG.jpg"
//Break Periods
//Storyboard Layer 0 (Background)
//Storyboard Layer 1 (Fail)
//Storyboard Layer 2 (Pass)
//Storyboard Layer 3 (Foreground)
//Storyboard Sound Samples
//Background Colour Transformations
3,100,163,162,255

[TimingPoints]
131,365.853658536585,4,1,0,60,1,0
29384,372.670807453416,4,2,0,50,1,0
29384,-133.333333333333,4,2,0,50,0,0
32365,-133.333333333333,4,2,0,50,0,0
41290,365.853658536585,4,1,0,60,1,0
64613,-100,4,2,0,60,0,0
70558,-100,4,1,0,60,0,0
76026,-100,4,1,0,30,0,0

[Colours]
Combo1 : 255,140,140
Combo2 : 153,253,153
Combo3 : 157,206,255

[HitObjects]
147,160,131,2,0,B|174:95|174:95|233:125|233:125|256:88|256:88|278:125|278:125|337:95|337:95|364:160,1,360,0|8
408,240,1594,2,0,B|266:272|266:272|256:305|256:305|245:272|245:272|104:240,1,360,0|8
48,160,3057,6,0,B|72:96|48:40|48:40|104:48|168:24,1,240
256,104,4155,1,8
348,25,4521,2,0,B|408:48|464:40|464:40|440:96|464:160,1,240
392,240,5618,1,8
416,336,5984,6,0,B|392:360|392:360|304:360,1,120,0|8
208,360,6716,2,0,B|121:360|121:360|97:336,1,120,0|8
152,256,7448,2,0,B|128:232|128:232|32:232,2,120
257,258,8545,1,2
256,160,8911,6,0,B|208:128|208:128|208:64,1,120,0|8
304,65,9643,2,0,B|304:128|304:128|256:160,1,120,0|8
176,216,10374,5,8
208,304,10740,1,8
304,304,11106,1,8
336,216,11472,1,8
424,256,11838,6,0,B|432:160|432:160|400:96|328:104|328:104|296:136,1,240
256,192,12935,1,8
196,116,13301,2,0,B|184:104|184:104|112:96|80:160|80:160|88:256,1,240
280,280,14765,6,0,B|400:280,1,120,0|10
336,208,15496,2,0,B|336:80,1,120,0|8
264,152,16228,6,0,B|144:152,1,120,0|2
208,224,16960,2,2,B|208:352,1,120
136,280,17691,6,0,B|80:240|120:152|120:152|352:152,1,360,0|8
440,152,19155,2,0,B|496:192|456:280|456:280|224:280,1,360,0|8
288,200,20618,6,0,B|344:200|352:176|352:176|368:120,2,120,0|8|0
256,112,21716,1,8
224,200,22082,2,0,B|168:199|160:175|160:175|147:129,2,120,0|8|8
448,184,23545,6,0,B|400:272|336:272|336:272|336:160,1,240,0|8
256,128,24643,1,2
176,180,25009,2,0,B|176:272|176:272|112:272|64:184,1,240,0|10
304,160,26472,5,0
304,64,26838,1,8
208,64,27204,1,0
208,160,27570,1,8
256,248,27935,2,0,B|256:376,2,120,0|2|2
375,234,29384,6,0,B|366:294|366:294|341:328|256:280|256:280|170:328|145:294|145:294|136:234,1,359.999989271164
184,184,31247,1,8
256,192,31620,1,0
328,184,31992,1,8
403,180,32365,6,0,B|377:119|334:180|299:102|299:102|256:85|213:102|213:102|179:180|136:119|110:180,1,359.999989271164
56,224,34228,1,8
16,160,34601,1,0
64,104,34974,1,8
130,81,35346,6,0,B|197:103|226:103|192:56|192:56|320:56|320:56|285:103|314:103|381:81,1,359.999989271164
424,144,37210,1,8
440,216,37582,1,0
400,280,37955,1,8
323,290,38328,6,0,B|286:290|286:290|336:236|310:174|256:154|201:174|174:236|224:290|224:290|187:290,1,359.999989271164
152,88,41290,6,0,B|96:136|112:200|160:240|160:240|224:240,1,240,8|8
280,168,42387,1,2
280,168,42753,2,0,B|336:216|320:280|272:320|272:320|208:320,1,240,8|8
112,320,43850,1,2
144,232,44216,6,0,B|192:120,1,120,0|8
224,216,44948,2,0,B|208:336,1,120,0|8
303,334,45680,2,0,B|288:216,1,120,0|8
320,121,46411,2,0,B|368:232,1,120,8|8
400,320,47143,6,0,B|464:320,4,60,0|0|8|0|0
304,320,48241,1,8
256,232,48607,6,0,B|184:232,4,60,0|0|8|0|0
352,232,49704,1,8
400,144,50070,6,0,B|464:144,4,60,0|0|8|0|0
304,144,51168,1,8
236,76,51533,6,0,B|154:96|154:96|126:191|154:287|154:287|236:307,1,360
288,224,52997,6,0,B|376:224|376:224|424:192|416:112|408:104|408:104|376:104,1,240,0|2
296,104,54094,1,2
200,104,54460,6,0,B|112:104|112:104|64:136|72:216|80:224|80:224|112:224,1,240,0|2
195,224,55558,1,2
256,296,55924,6,0,B|256:368,4,60,0|0|2|0|0
317,224,57021,1,2
256,192,57387,12,4,58850
176,88,60314,6,0,B|240:88,1,60
336,288,61777,6,0,B|264:288,1,60
256,192,63241,12,0,64704
256,40,65436,5,2
195,222,66168,1,0
352,112,66899,1,2
159,112,67631,1,0
317,221,68363,1,2
256,40,69094,1,4
444,171,70558,6,0,B|423:275|423:275|329:349|276:275|276:275|256:192|256:192|235:275|235:275|182:349|88:275|88:275|67:171,1,720,4|0
160,208,73119,1,2
160,208,73485,6,0,B|176:56|256:56|336:56|352:216,1,360
256,200,74948,2,0,B|256:328,2,120
256,104,76046,1,6
