osu file format v9

[General]
AudioFilename: sdfadsf.mp3
AudioLeadIn: 2250
PreviewTime: 47074
Countdown: 0
SampleSet: Normal
StackLeniency: 0.3
Mode: 0
LetterboxInBreaks: 1

[Editor]
DistanceSpacing: 1
BeatDivisor: 4
GridSize: 8

[Metadata]
Title:Dr. KBC
Artist:Nico Nico Douga
Creator:fanzhen0019
Version:Hyper
Source:
Tags:OzzyOzrock Ozzy Angry German Kid Super Smash Bros. Melee Dr Mario SSBM

[Difficulty]
HPDrainRate:5
CircleSize:4
OverallDifficulty:5
ApproachRate:7
SliderMultiplier:1.6
SliderTickRate:1

[Events]
//Background and Video events
Video,0,"videoo.avi"
0,0,"BG.jpg"
//Break Periods
//Storyboard Layer 0 (Background)
//Storyboard Layer 1 (Fail)
//Storyboard Layer 2 (Pass)
//Storyboard Layer 3 (Foreground)
//Storyboard Sound Samples
//Background Colour Transformations
3,100,163,162,255

[TimingPoints]
131,365.853658536585,4,1,0,60,1,0
16594,-100,4,1,0,50,0,0
16777,-100,4,1,0,40,0,0
17326,-100,4,1,0,30,0,0
17509,-100,4,1,0,50,0,0
17691,-100,4,1,0,60,0,0
29384,372.670807453416,4,2,0,50,1,0
29384,-133.333333333333,4,2,0,50,0,0
32365,-133.333333333333,4,2,0,50,0,0
39818,-200,4,2,0,50,0,0
41290,365.853658536585,4,1,0,60,1,0
63149,-100,4,1,0,5,0,0
64521,-100,4,2,0,40,0,0
70192,-100,4,1,0,60,0,0
75954,-100,4,1,0,30,0,0

[Colours]
Combo1 : 255,140,140
Combo2 : 153,253,153
Combo3 : 157,206,255

[HitObjects]
408,216,131,6,0,B|424:120,1,80
328,168,496,2,0,B|312:264,1,80,8|0
384,312,862,1,0
296,352,1045,1,0
224,288,1228,1,8
128,312,1411,1,0
104,216,1594,6,0,B|88:120,1,80
184,168,1960,2,0,B|200:264,1,80,8|0
128,312,2326,1,0
216,352,2509,1,0
288,288,2691,1,8
384,312,2874,1,0
448,240,3057,6,0,B|480:208|480:208|488:144,1,80
392,160,3423,2,8,B|416:112|416:80,1,80
328,40,3789,5,0
304,136,3972,1,0
208,136,4155,1,8
184,40,4338,1,0
96,84,4521,6,8,B|96:112|120:160,1,80,0|0
27,173,4887,2,0,B|32:208|32:208|64:240,1,80,8|8
128,312,5252,1,0
200,248,5435,1,0
312,248,5618,1,8
384,312,5801,1,0
432,232,5984,6,0,B|480:144,1,80,4|0
392,72,6350,2,0,B|392:160,1,80,8|0
312,104,6716,1,0
256,184,6899,2,0,B|256:224,2,40,0|0|8
200,104,7265,1,0
120,72,7448,6,0,B|120:152,1,80,0|0
41,161,7813,2,0,B|80:232,1,80,8|0
128,312,8179,1,0
384,312,8545,5,2
144,232,8911,6,0,B|184:248|184:248|224:240,1,80
368,232,9277,2,0,B|328:248|328:248|288:240,1,80,8|0
256,152,9643,1,0
256,56,9826,2,0,B|256:8,2,40,0|0|8
256,152,10191,1,0
160,136,10374,6,0,B|152:88|184:64,1,80,4|0
328,64,10740,2,0,B|359:87|351:135,1,80
208,224,11106,2,0,B|152:240,2,40,4|0|2
304,224,11472,2,0,B|360:240,2,40,0|0|2
248,304,11838,6,0,B|184:328|184:328|80:328,1,160,4|8
24,256,12387,1,0
88,184,12570,1,0
24,112,12752,1,0
88,40,12935,2,0,B|184:40,1,80,8|0
248,112,13301,6,0,B|152:112,1,80
248,40,13667,2,0,B|416:40,1,160,8|0
472,112,14216,5,2
472,112,14399,1,2
360,272,14765,6,0,B|376:320|416:336,1,80
456,248,15131,2,0,B|424:176|336:176,1,120,2|0
328,144,15496,2,0,B|280:144|280:144|232:160,1,80
192,240,15862,2,0,B|240:240|240:240|288:224,1,80
208,88,16228,1,0
112,24,16411,5,2
0,64,16594,1,2
96,112,16777,1,2
24,160,16960,1,2
80,208,17143,1,0
48,248,17326,6,0,B|80:272|56:320,1,80,8|0
152,328,17691,6,0,B|224:288,1,80,0|8
280,208,18057,2,0,B|320:240,1,40,0|8
392,184,18332,2,0,B|360:160,1,40,0|8
416,80,18606,1,8
472,160,18789,1,8
432,344,19155,6,0,B|352:296|352:296|256:320,1,160,0|8
192,320,19704,1,8
112,272,19887,2,0,B|48:344,2,80,0|8|8
168,88,20618,6,0,B|144:48,2,40
248,144,20984,2,8,B|288:152|328:144,1,80
424,120,21350,6,0,B|448:184|432:264,1,120
424,288,21716,2,0,B|328:288,1,80,8|8
248,304,22082,1,0
64,256,22448,1,8
104,72,22813,1,8
288,112,23179,2,0,B|376:136,1,80
456,176,23545,6,0,B|464:224|448:272,1,80
376,312,23911,2,0,B|352:272|352:224,2,80,8|8|0
256,160,24643,1,2
56,176,25009,6,0,B|48:224|64:272,1,80,0|2
136,312,25374,2,0,B|160:272|160:224,2,80,0|2|2
256,160,26106,2,0,B|256:288,1,120
288,312,26472,6,0,B|296:264|336:248,1,80
344,152,26838,2,0,B|352:104|312:56,1,80
185,75,27204,2,0,B|160:104|168:152,1,80
179,249,27570,2,0,B|216:264|224:312,1,80
256,224,27935,6,0,B|256:64,2,160,0|2|2
480,56,29384,6,0,B|352:56,1,119.999996423721,2|8
312,112,29943,1,0
312,112,30129,2,0,B|440:112,1,119.999996423721,2|8
480,168,30688,1,0
480,168,30874,6,0,B|456:184|456:184|408:184,1,59.9999982118607,0|2
312,224,31247,2,0,B|336:240|336:240|384:240,1,59.9999982118607,8|0
480,280,31620,2,2,B|456:296|456:296|408:296,1,59.9999982118607
312,336,31992,2,0,B|336:352|336:352|384:352,1,59.9999982118607,8|0
232,336,32365,6,0,B|104:336,1,119.999996423721,2|8
64,280,32924,1,0
64,280,33110,2,0,B|192:280,1,119.999996423721,2|8
232,224,33669,1,0
232,224,33856,6,0,B|208:208|208:208|160:208,1,59.9999982118607,0|2
64,168,34228,2,0,B|88:152|88:152|136:152,1,59.9999982118607,8|0
232,112,34601,2,2,B|208:96|208:96|160:96,1,59.9999982118607,2|0
64,56,34974,2,0,B|88:40|88:40|136:40,1,59.9999982118607,8|0
280,40,35346,6,0,B|320:88|320:88|376:88,1,119.999996423721,2|8
448,88,35905,1,0
448,88,36092,2,0,B|448:152,1,59.9999982118607,2|0
376,208,36464,2,0,B|376:144,1,59.9999982118607,8|0
448,208,36837,1,0
448,280,37023,6,0,B|408:352,1,59.9999982118607,2|8
336,336,37396,2,0,B|376:264,1,59.9999982118607,0|2
280,288,37769,2,0,B|240:360,1,59.9999982118607,2|8
176,344,38141,1,0
104,352,38328,6,0,B|104:216,1,119.999996423721,2|8
48,184,38887,1,0
48,184,39073,2,0,B|104:160|104:160|160:184,1,119.999996423721,0|8
176,88,39818,2,0,B|104:56|104:56|24:88,1,160
368,192,41290,6,0,B|336:224|336:280,1,80,8|0
392,344,41655,2,0,B|424:312|424:256,2,80
256,208,42387,5,2
208,128,42570,1,2
144,192,42753,6,0,B|176:224|176:280,1,80,8|0
120,344,43119,2,0,B|88:312|88:256,2,80
256,208,43850,5,2
304,128,44033,1,2
376,192,44216,6,0,B|410:216|424:264,1,80
328,280,44582,2,0,B|344:320|336:376,1,80,8|0
174,358,44948,2,0,B|168:320|184:280,1,80
90,256,45314,2,0,B|101:216|136:192,1,80,8|0
72,120,45680,6,0,B|88:64|184:112|208:48,1,160,0|8
256,136,46229,1,0
305,52,46411,2,0,B|328:112|424:64|440:120,1,160,0|8
344,288,47143,5,0
256,256,47326,1,0
168,288,47509,1,8
256,336,47692,1,0
256,336,47875,6,0,B|256:160,1,160,2|2
416,64,48607,5,0
448,152,48790,2,0,B|496:168,2,40,0|0|8
368,200,49155,1,0
336,112,49338,2,0,B|168:56,1,160,2|2
96,224,50070,5,0
64,312,50253,2,0,B|16:328,2,40,0|0|8
144,360,50619,1,0
176,272,50802,2,0,B|344:216,1,160,2|2
464,32,51533,5,0
432,104,51716,1,0
368,152,51899,1,0
296,184,52082,1,0
216,184,52265,1,0
144,152,52448,1,0
80,104,52631,1,0
48,32,52814,1,0
128,40,52997,6,0,B|176:56|208:104,1,80,0|2
256,136,53363,2,0,B|256:32,1,80,0|2
336,32,53729,2,0,B|392:96|384:184,1,160,2|2
384,344,54460,6,0,B|336:328|304:280,1,80,0|2
256,248,54826,2,0,B|256:352,1,80,0|2
176,352,55192,2,0,B|120:288|128:200,1,160,2|2
160,128,55741,1,2
224,80,55924,6,0,B|208:40,2,40,0|0|2
272,144,56290,2,0,B|304:160|368:152,1,80,0|2
424,128,56655,2,0,B|456:184|440:272,1,120,2|2
416,272,57021,2,0,B|328:280,1,80,0|2
256,192,57387,12,4,58850
72,128,60314,6,0,B|72:216,1,80
440,128,61777,6,0,B|440:216,1,80
256,192,63241,12,4,64704
168,288,65436,5,2
270,62,66168,1,0
320,305,66899,1,2
137,137,67631,1,0
383,166,68363,1,2
256,192,69094,5,4
256,192,69186,12,0,70192
432,152,70558,6,0,B|480:240,1,80,4|0
392,312,70924,2,0,B|392:224,1,80,8|0
312,280,71290,1,0
256,208,71472,2,0,B|256:168,2,40,0|0|8
200,280,71838,1,0
120,312,72021,6,0,B|120:232,1,80,0|0
41,222,72387,2,0,B|80:152,1,80,8|0
128,72,72753,1,0
384,72,73119,5,2
144,152,73485,6,0,B|184:136|184:136|224:144,1,80
368,152,73850,2,0,B|328:136|328:136|288:144,1,80,8|0
256,232,74216,1,0
256,328,74399,2,0,B|256:376,2,40,0|0|8
256,232,74765,1,0
160,248,74948,6,0,B|152:296|184:320,1,80,4|0
328,320,75314,2,0,B|359:296|351:248,1,80
208,160,75680,2,0,B|152:144,2,40,0|0|2
304,160,76046,2,0,B|360:144,2,40,0|0|2
