osu file format v9

[General]
AudioFilename: sdfadsf.mp3
AudioLeadIn: 2250
PreviewTime: 47074
Countdown: 0
SampleSet: Normal
StackLeniency: 0.3
Mode: 0
LetterboxInBreaks: 1

[Editor]
DistanceSpacing: 0.8
BeatDivisor: 4
GridSize: 8

[Metadata]
Title:Dr. KBC
Artist:Nico Nico Douga
Creator:fanzhen0019
Version:Crash
Source:
Tags:OzzyOzrock Ozzy Angry German Kid Super Smash Bros. Melee Dr Mario SSBM

[Difficulty]
HPDrainRate:7
CircleSize:4
OverallDifficulty:7
ApproachRate:8
SliderMultiplier:2
SliderTickRate:2

[Events]
//Background and Video events
Video,54,"videoo.avi"
0,0,"BG.jpg"
//Break Periods
//Storyboard Layer 0 (Background)
//Storyboard Layer 1 (Fail)
//Storyboard Layer 2 (Pass)
//Storyboard Layer 3 (Foreground)
Animation,Foreground,Centre,"a-.png",320,240,3,122,LoopForever S,0,57377,57469,1,1.33792 F,0,57377,57743,1 S,0,57469,57560,1.33792,1 F,0,57743,63231,1 M,0,58840,,194,387 F,0,63231,64694,1,0
//Storyboard Sound Samples
//Background Colour Transformations
3,100,163,162,255

[TimingPoints]
131,365.853658536585,4,1,0,60,1,0
16411,-100,4,1,0,50,0,0
16594,-100,4,1,0,40,0,0
16777,-100,4,1,0,30,0,0
16960,-100,4,1,0,20,0,0
17143,-100,4,1,0,30,0,0
17326,-100,4,1,0,40,0,0
17509,-100,4,1,0,50,0,0
17691,-100,4,1,0,60,0,0
23271,-100,4,1,0,10,0,0
23454,-100,4,1,0,60,0,0
26289,-100,4,1,0,10,0,0
26381,-100,4,1,0,60,0,0
29384,372.670807453416,4,2,0,50,1,0
29384,-133.333333333333,4,2,0,50,0,0
32365,-133.333333333333,4,2,0,50,0,0
39818,-200,4,2,0,50,0,0
41290,365.853658536585,4,1,0,60,1,0
42387,-100,4,1,0,60,0,0
58850,-50,4,1,0,60,0,0
59216,-66.6666666666667,4,1,0,60,0,0
60314,-50,4,1,0,60,0,0
60680,-66.6666666666667,4,1,0,60,0,0
61777,-50,4,1,0,60,0,0
62143,-66.6666666666667,4,1,0,60,0,0
63058,-100,4,1,0,60,0,0
63149,-100,4,1,0,40,0,0
64613,-100,4,2,0,40,0,0
70558,-100,4,1,0,60,0,0
74948,-100,4,1,0,50,0,0
76229,-100,4,1,0,30,0,0

[Colours]
Combo1 : 255,140,140
Combo2 : 153,253,153
Combo3 : 157,206,255

[HitObjects]
296,112,131,6,0,B|288:216,1,100
344,360,496,2,0,B|352:256,1,100,8|0
408,96,862,2,0,B|464:128|464:200|392:224,1,150
351,260,1228,2,0,B|248:272,1,100,8|0
216,112,1594,6,0,B|224:216,1,100
168,360,1960,2,0,B|160:256,1,100,8|0
104,96,2326,2,0,B|48:128|48:200|80:208,1,100
100,233,2600,1,0
161,260,2691,2,0,B|264:272,1,100,8|0
448,88,3057,6,0,B|288:112,1,150
264,96,3423,2,0,B|256:160|288:216,1,100,8|0
416,296,3789,6,0,B|424:232|392:176,1,100,0|0
240,272,4155,2,0,B|304:280|360:248,1,100,8|0
216,344,4521,6,0,B|104:328,1,100
32,336,4795,1,0
32,336,4887,2,0,B|24:272|56:216,1,100,8|0
184,136,5252,6,0,B|192:200|160:256,1,100,0|0
8,160,5618,2,0,B|72:152|128:184,1,100,8|0
256,232,5984,6,0,B|304:248|368:248,1,100,4|0
512,160,6350,2,0,B|456:112|400:168|400:168,1,100,8|0
392,208,6624,1,0
392,208,6716,2,0,B|384:312,1,100
256,232,7082,2,0,B|264:128,1,100,8|0
128,80,7448,6,0,B|120:184,2,100,0|0|8
256,32,7996,1,0
376,160,8179,2,0,B|264:200|192:120,1,200,0|2
104,184,8911,6,0,B|108:240|160:259,1,100
280,240,9277,2,0,B|261:189|205:185,1,100,8|0
248,320,9643,2,0,B|299:342|344:304,1,100,0|0
400,272,9917,1,0
400,272,10009,2,0,B|451:252|455:196,1,100,8|0
432,72,10374,6,0,B|364:156,1,100
296,192,10740,2,0,B|358:114,1,100,8|0
368,16,11106,1,0
344,48,11198,1,0
320,80,11289,1,2
216,128,11472,1,0
240,96,11563,1,0
264,64,11655,1,2
128,64,11838,6,0,B|72:112|72:216,1,150
72,240,12204,2,0,B|168:264,1,100,8|0
240,232,12570,1,0
288,368,12752,1,0
376,256,12935,1,8
300,290,13118,1,0
301,290,13301,6,0,B|360:344|440:336,1,150
472,320,13667,2,0,B|480:208,2,100,8|0|0
408,144,14216,5,2
408,144,14399,1,2
280,48,14765,6,0,B|176:88,1,100
8,144,15131,2,0,B|80:192|168:152,1,150,10|0
184,144,15496,2,0,B|112:232,1,100
200,240,15862,2,0,B|184:344,1,100,8|0
344,324,16228,1,0
448,336,16411,5,2
272,248,16594,1,2
432,224,16777,1,2
328,144,16960,1,2
416,104,17143,1,2
376,32,17326,6,0,B|336:56|280:48,1,100,8|0
96,112,17691,6,0,B|148:132|208:112,1,100,0|8
328,144,18057,2,0,B|264:128,1,50
88,192,18332,1,0
88,192,18423,6,0,B|104:248|72:304,2,100,8|0|8
224,96,18972,1,0
256,72,19063,1,0
296,72,19155,6,0,B|208:128|156:232,1,200,0|8
352,296,19704,2,0,B|336:240|276:220,1,100,8|8
264,312,20070,1,8
384,184,20252,1,8
104,248,20618,5,0
168,336,20801,1,0
168,336,20893,1,0
168,336,20984,2,8,B|264:312,1,100
384,184,21350,2,8,B|288:208,1,100
288,208,21624,1,0
288,208,21716,1,8
160,184,21899,1,8
108,88,22082,5,0
360,44,22448,1,8
404,296,22813,1,8
168,336,23179,6,0,B|152:232,1,100
64,184,23545,1,0
48,272,23728,1,0
256,232,23911,1,8
216,160,24094,1,0
120,39,24277,2,0,B|152:239,1,200,0|2
479,327,25009,5,0
424,272,25191,1,0
355,233,25374,1,8
356,154,25557,1,0
335,78,25740,1,0
512,152,26106,2,0,B|476:187|461:154|422:194,1,100
352,312,26472,6,0,B|301:327|253:311,1,100
120,160,26838,2,0,B|170:144|218:160,1,100,8|0
384,240,27204,6,0,B|328:232|288:184,1,100
200,72,27570,2,0,B|256:88|280:136,1,100,8|8
288,160,27844,1,0
296,192,27935,6,0,B|336:304|232:368,2,200,0|2|2
144,152,28850,5,0
152,192,28941,1,0
192,208,29033,1,0
440,224,29384,6,0,B|480:248|504:304,1,74.9999977648259,0|2
344,336,29756,2,0,B|328:288|372:240,2,74.9999977648259,8|2|0
416,304,30315,1,2
332,208,30502,1,8
416,136,30688,1,2
392,48,30874,6,0,B|360:64|360:64|344:112,1,74.9999977648259,0|2
120,104,31247,2,0,B|152:120|152:120|168:168,1,74.9999977648259,8|0
392,200,31620,6,0,B|360:216|360:216|344:264,1,74.9999977648259,2|2
120,240,31992,2,0,B|152:256|152:256|168:304,1,74.9999977648259,8|0
240,328,32365,5,0
240,328,32551,1,2
320,312,32738,2,0,B|332:360|284:392,2,74.9999977648259,8|2|0
256,240,33297,1,2
280,160,33483,1,8
256,80,33669,1,2
392,48,33856,6,0,B|360:64|360:64|344:112,1,74.9999977648259,0|2
120,104,34228,2,0,B|152:120|152:120|168:168,1,74.9999977648259,8|0
392,200,34601,6,0,B|360:216|360:216|344:264,1,74.9999977648259,2|0
120,240,34974,2,0,B|152:256|152:256|168:304,1,74.9999977648259,8|0
64,304,35346,5,0
64,304,35533,1,2
80,160,35719,1,8
208,240,35905,1,2
120,240,36092,2,0,B|144:184|176:168,1,74.9999977648259,0|2
280,88,36464,2,0,B|269:148|229:172,1,74.9999977648259,8|2
392,48,36837,6,0,B|360:64|360:64|344:112,1,74.9999977648259,0|2
120,104,37210,2,0,B|152:120|152:120|168:168,1,74.9999977648259,8|0
392,200,37582,6,0,B|360:216|360:216|344:264,1,74.9999977648259,2|2
120,240,37955,2,0,B|152:256|152:256|168:304,1,74.9999977648259,8|0
96,344,38328,5,0
184,376,38514,1,2
240,288,38700,1,8
320,328,38887,1,2
360,256,39073,2,0,B|400:272|400:332,2,74.9999977648259,0|2|8
272,208,39632,1,2
256,128,39818,6,0,B|316:117|346:175,1,100,2|8
288,288,40377,2,0,B|228:299|198:241,1,100,2|2
272,208,40936,1,8
27,156,41290,5,8
103,176,41472,1,0
160,120,41655,1,0
140,43,41838,1,8
64,24,42021,1,0
256,147,42387,2,2,B|160:120,1,100
27,228,42753,5,8
103,208,42936,1,0
160,264,43119,1,0
140,341,43302,1,8
64,360,43485,1,0
256,236,43850,2,2,B|160:264,1,100
248,312,44216,6,0,B|408:336,1,150,2|0
440,336,44582,2,0,B|456:280|432:232,1,100,10|0
488,96,44948,2,0,B|424:88|376:128,1,100,2|0
352,160,45222,1,0
352,160,45314,2,0,B|336:216|360:264,1,100,10|0
488,96,45680,6,0,B|416:16|288:32,1,200,2|10
224,56,46229,1,0
40,256,46411,6,0,B|80:216|152:232,1,100,2|8
160,248,46686,1,0
176,280,46777,2,0,B|176:160,1,100,2|0
172,16,47143,5,0
168,96,47326,1,0
240,128,47509,1,8
224,208,47692,1,0
280,264,47875,2,0,B|336:352|448:360,1,200,2|2
496,100,48607,6,0,B|392:148,1,100,8|8
384,144,48881,1,0
368,160,48972,1,8
352,160,49064,1,0
336,168,49155,1,0
320,184,49247,1,0
304,192,49338,1,10
200,224,49521,1,10
200,224,49613,1,10
200,224,49704,1,10
104,320,49887,1,2
228,364,50070,6,8,B|284:360,1,50
264,324,50253,2,0,B|316:296,1,50,8|2
284,268,50436,2,0,B|344:224,1,50,8|2
292,208,50619,2,0,B|328:164,1,50
288,160,50802,2,0,B|288:88,1,50,0|8
352,32,51076,2,0,B|328:104,1,50,0|8
440,0,51350,2,8,B|432:88,1,50
432,84,51533,6,0,B|424:184,1,100
348,180,51899,2,0,B|304:208|288:272,1,100
256,276,52174,1,0
220,259,52265,2,0,B|208:208|164:180,1,100
86,183,52631,2,0,B|80:84,1,100
152,8,52997,6,2,B|160:136,1,100
200,216,53363,1,0
264,112,53546,1,2
308,220,53729,2,0,B|368:288|484:360,1,200,2|2
408,56,54460,6,2,B|352:32|304:48,1,100
280,72,54735,1,2
264,112,54826,2,0,B|232:168,1,50,0|2
309,219,55100,2,0,B|320:280,1,50,0|2
192,264,55375,1,2
192,264,55466,1,2
192,264,55558,2,2,B|148:356,1,100
376,256,55924,6,0,B|328:220,3,50,2|2|0|2
320,188,56290,2,0,B|260:180,3,50,0|2|2|2
256,160,56655,1,0
232,144,56747,1,2
224,120,56838,1,2
208,104,56930,1,0
184,88,57021,2,0,B|144:48,2,50,2|0|2
32,72,57387,6,0,B|72:112|64:184,1,100
56,192,57661,1,0
72,208,57753,2,0,B|128:200|160:248,1,100
224,288,58119,2,0,B|192:334|135:326,1,100
208,112,58485,2,0,B|230:209,1,100
160,296,58850,6,0,B|436:268,1,200,0|2
488,184,59216,2,8,B|408:240,1,74.9999977648259
424,96,59491,2,8,B|380:164,1,74.9999977648259
328,56,59765,1,8
224,88,59948,1,8
240,128,60040,1,8
256,168,60131,1,8
88,224,60314,6,0,B|328:304,1,200,0|2
424,96,60680,2,8,B|376:176,1,74.9999977648259
308,108,60954,2,8,B|296:200,1,74.9999977648259
192,156,61229,1,8
128,224,61411,1,8
144,256,61503,1,8
160,288,61594,1,8
460,328,61777,6,0,B|368:264|264:296,1,200,0|2
380,136,62143,2,8,B|412:216,1,74.9999977648259
280,108,62418,2,8,B|292:192,1,74.9999977648259
176,104,62692,1,8
80,128,62875,1,8
80,160,62966,1,8
80,192,63058,1,8
256,192,63241,12,0,64704
257,39,65436,5,2
137,316,66168,1,0
417,141,66899,1,2
94,135,67631,1,0
369,321,68363,1,2
257,39,69094,1,4
256,192,69186,12,0,70192
256,232,70558,6,0,B|208:248|144:248,1,100,4|0
0,160,70924,2,0,B|56:112|112:168|112:168,1,100,8|0
112,176,71198,1,0
120,208,71290,2,0,B|128:312,1,100
256,232,71655,2,0,B|248:128,1,100,8|0
384,80,72021,6,0,B|392:184,2,100,0|0|8
256,32,72570,1,0
136,160,72753,2,0,B|248:200|320:120,1,200,0|2
408,184,73485,6,0,B|404:240|352:259,1,100
232,240,73850,2,0,B|251:189|307:185,1,100,8|0
264,320,74216,2,0,B|212:342|171:307,1,100,0|0
152,272,74491,1,0
112,272,74582,2,0,B|61:252|57:196,1,100,8|0
80,72,74948,6,0,B|148:156,1,100
216,192,75314,2,0,B|153:114,1,100,8|0
144,16,75680,1,0
168,48,75771,1,0
192,80,75863,1,2
296,128,76046,1,0
272,96,76137,1,0
248,64,76229,1,2
