osu file format v8

[General]
AudioFilename: Nico Nico Douga - Crans .mp3
AudioLeadIn: 1996
PreviewTime: 92101
Countdown: 1
SampleSet: Normal
StackLeniency: 0.2
Mode: 0
LetterboxInBreaks: 1

[Editor]
DistanceSpacing: 1.20000004768372
BeatDivisor: 4
GridSize: 16

[Metadata]
Title:Crans
Artist:Nico Nico Douga
Creator:xBubu
Version:HyBer
Source:
Tags:eveless h-boy agk kbc evans

[Difficulty]
HPDrainRate:5
CircleSize:4
OverallDifficulty:7
ApproachRate:8
SliderMultiplier:1.8
SliderTickRate:2

[Events]
//Background and Video events
0,0,"boooooooy.jpg"
Video,0,"Whazzzzzzup.flv"
//Break Periods
2,4166,5811
//Storyboard Layer 0 (Background)
//Storyboard Layer 1 (Fail)
//Storyboard Layer 2 (Pass)
//Storyboard Layer 3 (Foreground)
Sprite,Foreground,Centre,"lol.png",320,240 F,0,91534,91858,0,1 F,0,91858,92182,1,0 M,0,92182,,320,240 F,0,92182,92507,0,1 F,0,92507,92831,1,0 F,0,92831,93155,0,1 F,0,93155,93480,1,0 F,0,93480,93804,0,1 F,0,93804,94128,1,0
//Storyboard Sound Samples
//Background Colour Transformations
3,100,163,162,255

[TimingPoints]
1372,324.324324324324,4,1,0,59,1,0
22371,-100,4,1,0,0,0,0
23831,-100,4,2,0,72,0,0
24317,-100,4,2,0,0,0,0
24480,-100,4,2,0,64,0,0
35020,-100,4,1,0,59,0,0
87236,-100,4,1,0,0,0,0
87399,-100,4,1,0,40,0,0
87723,-100,4,1,0,59,0,0
90317,-100,4,2,0,59,0,0
90804,-100,4,1,0,59,0,0
91209,-200,4,2,0,50,0,0
91290,-100,4,1,0,0,0,0
92182,-100,4,1,0,75,0,1
92507,-50,4,1,0,75,0,1
101263,-100,4,1,0,75,0,1
102804,-100,4,2,0,50,0,0
103777,-100,4,2,0,39,0,0
103858,-200,4,2,0,39,0,0
104993,-200,4,2,0,0,0,0
105115,-100,4,1,2,0,0,0

[Colours]
Combo1 : 128,255,255
Combo2 : 193,193,255

[HitObjects]
256,192,1372,1,0
256,192,2831,1,0
480,48,3317,1,0
336,160,3642,1,0
192,48,3966,1,0
32,352,6561,5,0
176,256,6885,1,0
480,32,8020,1,0
272,192,8507,1,0
416,80,8831,1,0
496,240,9155,1,0
208,80,9804,5,0
464,336,10453,1,0
464,336,10615,1,0
240,192,11101,1,0
112,192,11344,1,0
64,64,11588,1,0
336,48,12074,5,0
256,80,12236,2,0,B|208:32|208:32,2,45
176,112,12561,2,0,B|96:208|96:208,1,90
80,256,12885,2,0,B|208:256|208:256,1,90
224,320,13209,2,0,B|304:224|304:224,1,90
368,256,13534,2,0,B|496:256|496:256,1,90
416,176,13858,6,0,B|288:176|288:176,1,90
304,96,14182,2,0,B|336:48|336:48,2,45
224,48,14507,2,0,B|128:112|128:112,1,90
64,96,14831,2,0,B|64:224|64:224,1,90
64,272,15155,2,0,B|176:336|176:336,1,90
240,320,15480,1,0
240,320,15642,2,0,B|272:208|272:208,1,90
352,240,15966,5,0
400,176,16128,2,0,B|464:176|464:176,2,45
352,96,16453,2,0,B|400:16|400:16,2,90
256,96,16939,2,0,B|144:96|144:96,2,90
96,192,17588,5,0
144,272,17750,1,0
240,272,17912,1,0
288,192,18074,1,0
384,192,18236,2,0,B|480:192|480:192,2,90
336,112,18723,1,0
272,48,18885,2,0,B|160:48|160:48|144:48,2,90
192,80,19371,6,0,B|144:192|144:192,1,90
240,192,19696,2,0,B|288:224|288:224,2,45
176,240,20020,2,0,B|80:240|80:240,2,90
208,320,20507,1,0
304,320,20669,2,0,B|400:320|400:320,2,90
336,240,21155,5,0
384,160,21317,1,0
352,80,21480,1,0
448,80,21642,2,0,B|496:96|496:96,2,45
496,160,21966,2,0,B|512:208|512:208,2,45
256,192,22453,12,0,24399
480,240,24723,6,0,B|416:176|384:160|384:160,1,90
384,160,24966,2,0,B|416:80|448:64|448:64,1,90
428,81,25209,1,0
336,64,25371,1,0
336,64,25453,1,0
240,80,25615,2,0,B|192:48|192:48,3,45
208,144,26020,2,0,B|160:192|96:176|96:176,1,90
127,178,26263,1,0
96,256,26426,2,0,B|80:304|80:304,2,45
160,320,26750,6,0,B|224:368|272:352|272:352,1,90
241,354,26993,1,0
320,320,27155,2,0,B|352:272|352:272,1,45
368,256,27317,2,0,B|384:208|384:208,2,45
400,288,27561,2,0,B|448:208|544:224|544:224,1,135
496,128,27966,1,0
496,128,28047,1,0
432,80,28209,2,0,B|384:128|384:128,2,45
384,64,28453,2,0,B|384:16|384:16,2,45
304,32,28777,5,0
304,32,28858,1,0
208,48,29020,1,0
208,48,29101,1,0
128,80,29263,1,0
128,80,29344,1,0
64,144,29507,2,0,B|16:112|16:112,4,45
48,192,29912,2,0,B|112:240|160:240|160:240,1,90
127,233,30155,1,0
160,320,30317,5,0
160,320,30399,1,0
256,304,30561,1,0
256,304,30642,1,0
352,288,30804,2,0,B|400:240|400:240,1,45
400,160,31047,2,0,B|336:160|320:96|320:96,1,90
256,80,31371,5,0
256,80,31453,1,0
160,80,31615,2,0,B|112:112|112:112,1,45
64,176,31858,1,0
64,176,31939,1,0
128,240,32101,2,0,B|192:256|192:256,1,45
256,288,32344,2,0,B|288:240|352:240|352:240,2,90
256,288,32750,5,0
320,352,32912,1,0
320,352,32993,1,0
400,304,33155,1,0
400,304,33236,1,0
400,208,33399,2,0,B|464:160|464:160,1,45
432,144,33561,2,0,B|480:112|480:112,1,45
384,96,33804,6,0,B|352:32|288:32|288:32,1,90
272,32,34047,2,0,B|256:96|192:96|192:96,1,90
176,96,34290,2,0,B|112:32|48:64|48:64,1,135
48,160,34696,1,0
48,160,34777,1,0
48,160,34858,1,0
48,160,34939,1,0
48,160,35020,1,0
48,160,35101,6,0,B|80:256|80:256,1,90
160,288,35426,2,0,B|160:176|160:176,1,90
224,128,35750,1,0
384,192,36074,1,0
480,192,36236,6,0,B|480:288|480:288,1,90
384,288,36561,1,0
208,288,36885,1,0
208,192,37047,2,0,B|144:112|144:112,1,90
144,32,37371,2,0,B|32:32|32:32,1,90
48,128,37696,5,0
112,304,38020,1,0
288,352,38344,1,0
224,176,38669,1,0
384,80,38993,6,0,B|288:80|288:80,1,90
208,80,39317,1,0
208,80,39399,1,0
112,80,39561,1,0
112,80,39642,2,0,B|160:176|160:176,1,90
152,160,39885,1,0
152,160,39966,1,0
152,249,40128,1,0
224,304,40290,6,0,B|352:304|352:304,1,90
352,304,40534,1,0
384,304,40615,1,0
480,304,40777,2,0,B|432:400|432:384|432:384,1,90
480,304,41101,1,0
480,272,41182,1,0
480,240,41263,1,0
480,144,41426,2,0,B|384:144|384:144,1,90
368,64,41750,5,0
272,64,41912,1,0
272,160,42074,1,0
176,160,42236,1,0
112,96,42399,6,0,B|48:112|48:112,2,45
69,175,42723,1,0
69,264,42885,1,0
158,264,43047,2,0,B|30:264|30:264,1,90
157,264,43371,1,0
247,264,43534,1,0
304,336,43696,2,0,B|416:336|416:336,1,90
416,80,44020,1,0
416,176,44182,6,0,B|464:224|464:224,4,45
352,240,44669,2,0,B|368:288|368:288,2,45
256,240,44993,2,0,B|240:304|240:304,2,45
176,208,45317,1,0
176,208,45399,1,0
176,208,45480,5,0
64,64,45804,1,0
240,64,46128,1,0
240,64,46453,1,0
240,64,46615,2,0,B|320:64|320:64|336:128|336:128|400:128|400:128|432:224|432:224|432:224|432:224,1,270
304,320,47426,5,0
128,320,47750,1,0
128,320,47912,2,0,B|208:320|208:320|224:256|224:256|288:256|288:256|320:160|320:160|320:160|320:160,1,270
480,192,48723,5,0
304,192,49047,1,0
304,192,49209,2,0,B|224:192|224:192|208:128|208:128|144:128|144:128|112:32|112:32|112:32|112:32,1,270
304,80,50020,5,0
304,256,50344,1,0
304,256,50507,2,0,B|224:256|224:256|208:320|208:320|144:320|144:320|112:416|112:416|112:416|112:416,1,270
124,378,51155,1,0
96,208,51480,5,0
96,112,51642,1,0
176,64,51804,1,0
272,80,51966,1,0
368,80,52128,1,0
464,80,52290,1,0
464,80,52453,2,0,B|464:160|464:160|416:176|416:176|416:256|416:256,1,180
416,320,52939,5,0
320,320,53101,1,0
256,256,53263,1,0
160,256,53426,1,0
96,320,53588,1,0
32,256,53750,1,0
32,160,53912,2,0,B|112:160|112:160|128:112|128:112|208:112|208:112,1,180
256,160,54399,5,0
304,160,54480,1,0
352,160,54561,2,0,B|368:32|240:16|240:16,1,180
176,32,55047,1,0
176,32,55209,2,0,B|32:32|64:160|64:160,1,180
64,224,55696,1,0
160,224,55858,6,0,B|272:224|272:224,1,90
192,304,56182,2,0,B|304:304|304:304,1,90
368,304,56507,2,0,B|496:304|496:304,1,90
416,224,56831,2,0,B|544:224|544:224,1,90
496,128,57155,6,0,B|448:128|448:128,1,45
451,128,57317,2,0,B|365:128|365:128,1,45
406,128,57480,2,0,B|349:128|349:128,1,45
361,128,57642,2,0,B|285:128|285:128,1,45
316,128,57804,2,0,B|253:128|253:128,1,45
271,128,57966,2,0,B|207:128|207:128,1,45
226,128,58128,2,0,B|162:128|162:128,1,45
181,128,58290,2,0,B|133:128|133:128,1,45
136,128,58453,1,0
80,208,58615,5,0
80,304,58777,1,0
160,336,58939,1,0
240,304,59101,1,0
240,208,59263,1,0
160,160,59426,1,0
80,208,59588,1,0
80,304,59750,1,0
256,192,59831,12,0,60723
368,32,61047,6,0,B|432:48|448:128|448:128,1,90
384,160,61371,2,0,B|384:224|464:256|464:256,2,90
288,160,61858,1,0
256,160,61939,1,0
224,160,62020,1,0
208,256,62182,1,0
176,256,62263,1,0
144,256,62344,1,0
48,256,62507,6,0,B|48:160|48:160,1,90
128,128,62831,2,0,B|128:0|128:0,1,90
217,38,63155,1,0
238,38,63236,1,0
259,38,63317,1,0
349,38,63480,2,0,B|397:54|397:134|397:134,2,90
304,112,63966,5,0
240,176,64128,1,0
224,192,64209,1,0
208,208,64290,1,0
304,208,64453,1,0
304,224,64534,1,0
304,240,64615,1,0
208,256,64777,2,0,B|208:336|272:352|272:352,1,90
336,320,65101,6,0,B|400:336|400:400|400:400,1,90
464,320,65426,2,0,B|400:304|400:240|400:240,1,90
432,176,65750,1,0
400,160,65831,1,0
368,144,65912,1,0
288,112,66074,2,0,B|224:128|208:176|208:176,2,90
368,80,66561,2,0,B|432:64|448:16|448:16,2,90
288,48,67047,1,0
288,48,67209,1,0
192,48,67371,1,0
192,48,67453,1,0
192,48,67534,1,0
128,112,67696,6,0,B|48:128|32:192|32:192,1,90
128,208,68020,2,0,B|128:272|80:304|80:304,1,90
160,336,68344,1,0
176,320,68426,1,0
192,304,68507,1,0
256,240,68669,2,0,B|320:224|336:304|336:304,1,90
416,288,68993,1,0
448,208,69155,1,0
416,128,69317,1,0
352,64,69480,6,0,B|304:32|256:48|256:48,2,90
256,48,69966,2,0,B|208:112|144:112|144:112,1,90
112,144,70290,1,0
112,144,70371,1,0
112,144,70453,1,0
192,192,70615,2,0,B|304:224|272:352|272:352,1,180
368,304,71101,5,0
368,208,71263,1,0
448,256,71426,1,0
448,160,71588,1,0
448,64,71750,6,0,B|320:64|320:64,1,90
272,64,72074,1,0
256,64,72155,1,0
240,64,72236,1,0
224,64,72317,1,0
208,64,72399,1,0
128,80,72561,1,0
80,144,72723,5,0
80,144,72804,1,0
80,144,72885,1,0
80,144,72966,1,0
80,144,73047,1,0
80,144,73128,1,0
80,144,73209,1,0
80,240,73371,1,0
128,320,73534,1,0
160,320,73615,1,0
192,320,73696,1,0
288,320,73858,6,0,B|352:336|368:400|368:400,1,90
432,320,74182,1,0
448,288,74263,1,0
464,256,74344,1,0
368,240,74507,1,0
352,208,74588,1,0
336,176,74669,1,0
416,128,74831,2,0,B|448:80|448:16|448:16,1,90
352,48,75155,1,0
256,48,75317,6,0,B|192:80|192:128|192:128,2,90
192,112,75804,2,0,B|256:112|272:160|272:160,1,90
272,240,76128,1,0
288,240,76209,1,0
304,240,76290,1,0
400,240,76453,2,0,B|400:192|448:160|448:160,2,90
352,176,76939,5,0
256,176,77101,2,0,B|192:192|176:256|176:256,1,90
96,224,77426,1,0
96,224,77588,2,0,B|128:272|96:336|96:336,1,90
105,310,77831,1,0
105,310,77912,1,0
208,320,78074,6,0,B|256:272|256:224|256:224,1,90
352,240,78399,2,0,B|336:176|368:144|368:144,1,90
384,48,78723,2,0,B|448:32|496:64|496:64,1,90
480,144,79047,2,0,B|512:192|464:256|464:256,1,90
416,304,79371,5,0
320,304,79534,1,0
240,240,79696,1,0
240,240,79777,1,0
240,240,79858,1,0
176,160,80020,1,0
80,160,80182,1,0
176,160,80344,1,0
272,160,80507,1,0
224,80,80669,6,0,B|96:80,1,90
80,160,80993,2,0,B|32:256|96:368,1,180
176,336,81480,1,0
272,336,81642,1,0
368,336,81804,1,0
272,160,82128,1,0
480,48,83101,6,0,B|384:0|272:64|272:64,1,180
128,112,83750,1,0
128,112,84074,2,0,B|176:176|160:288|160:288,1,180
336,352,84723,1,0
336,352,85047,6,0,B|400:272|368:160|368:160,2,180
160,224,86020,1,0
160,224,86344,2,0,B|80:240|80:320|80:320,2,135
272,224,86993,2,0,B|256:288|304:352|384:336|384:336,1,180
384,240,87480,2,0,B|448:240|448:304|448:304,1,90
272,256,87966,5,0
272,256,88290,2,0,B|144:192|192:96|192:96,1,180
352,160,88939,2,0,B|480:96|432:0|432:0,1,180
416,192,89588,2,0,B|304:128|208:256|64:144|64:144,1,360
128,80,90399,2,0,B|80:64|80:-16|80:-16,1,90
176,16,90723,2,0,B|224:64|192:112,1,90
48,192,91209,6,0,B|336:192|336:192,1,270
464,32,92507,6,0,B|288:32|288:32|272:-32|272:-32,1,180
192,80,92831,1,0
96,32,92993,1,0
64,128,93155,2,0,B|-16:352|-16:352,1,180
112,320,93480,2,0,B|336:320|336:320,2,180
160,224,93966,1,0
208,128,94128,5,0
272,32,94290,1,0
320,128,94453,2,0,B|352:240|352:240|384:304|384:304,2,180
432,128,94939,1,0
320,128,95101,2,0,B|208:128|208:128|112:112|112:112,2,180
400,208,95588,1,0
304,240,95750,2,0,B|256:336|256:336,2,90
192,256,96074,6,0,B|192:64|192:64,1,180
192,64,96317,1,0
192,48,96399,1,0
192,32,96480,1,0
192,16,96561,2,0,B|400:16|400:16,1,180
432,112,96885,1,0
432,224,97047,1,0
336,160,97209,1,0
432,224,97371,2,0,B|480:320|480:320,2,90
320,224,97696,6,0,B|224:272|128:272|128:272,1,180
64,192,98020,1,0
112,96,98182,2,0,B|80:0|80:0,2,90
224,96,98507,2,0,B|272:0|272:0,2,90
336,96,98831,1,0
336,96,98993,2,0,B|448:144|512:208|512:208,2,180
336,208,99480,5,0
416,288,99642,1,0
336,352,99804,2,0,B|240:352|240:352,2,90
336,240,100128,2,0,B|336:144|336:144,2,90
224,240,100453,1,0
224,240,100534,1,0
224,240,100615,1,0
112,240,100777,1,0
112,240,100858,1,0
112,240,100939,1,0
48,144,101101,1,0
96,48,101263,6,0,B|176:48|176:48,1,45
141,48,101426,2,0,B|221:48|221:48,1,45,0|0
186,48,101588,2,0,B|266:48|266:48,1,45,0|0
231,48,101750,2,0,B|327:48|327:48,1,90,0|0
416,96,102074,2,0,B|416:176|416:176,1,45,0|0
416,141,102236,2,0,B|416:221|416:221,1,45,0|0
416,186,102399,2,0,B|416:282|416:282,1,90,0|0
208,320,102885,6,0,B|96:320|96:320,1,90,4|0
176,224,103209,2,0,B|256:208|272:144|272:144,1,90
336,112,103534,1,0
208,48,103939,2,0,B|48:32|0:192|32:240|32:256|32:256,1,315
256,192,105155,12,0,107507
