osu file format v7

[General]
AudioFilename: Buri Hamachi.mp3
AudioLeadIn: 1500
PreviewTime: 680
Countdown: 0
SampleSet: Soft
StackLeniency: 0.7
Mode: 0
LetterboxInBreaks: 1

[Editor]
Bookmarks: 22537
DistanceSpacing: 1
BeatDivisor: 4
GridSize: 8

[Metadata]
Title:Buri Hamachi
Artist:Nico Nico Douga
Creator:saymun
Version:Patchy
Source:Ar Tonelico III
Tags:Kagamine Rin Patchouli Knowledge Touhou Saki Kazuki Yanagawa Yellowtail

[Difficulty]
HPDrainRate:7
CircleSize:4
OverallDifficulty:7
SliderMultiplier:1.6
SliderTickRate:1

[Events]
//Background and Video events
0,0,"bg.jpg"
Video,500,"vid.flv"
//Break Periods
//Storyboard Layer 0 (Background)
//Storyboard Layer 1 (Fail)
//Storyboard Layer 2 (Pass)
//Storyboard Layer 3 (Foreground)
//Storyboard Sound Samples
//Background Colour Transformations
3,100,0,0,0

[TimingPoints]
676,428.571428571429,4,2,0,100,1,0
2283,-100,4,1,0,60,0,0
2497,-100,4,2,0,80,0,0
5283,-100,4,2,0,100,0,0
5497,-100,4,2,0,80,0,0
8711,-100,4,2,0,100,0,0
8926,-100,4,2,0,80,0,0
12140,-100,4,2,0,100,0,0
12354,-100,4,2,0,80,0,0
15568,-100,4,2,0,100,0,0
15783,-100,4,2,0,80,0,0
22854,-100,4,1,0,60,0,0
23068,-100,4,2,0,80,0,0
25854,-100,4,2,0,100,0,0
26068,-100,4,2,0,100,0,0
29283,-100,4,2,0,100,0,0
29497,-100,4,2,0,80,0,0
32711,-100,4,2,0,100,0,0
32926,-100,4,2,0,80,0,0
36140,-100,4,2,0,100,0,0
36354,-100,4,2,0,80,0,0

[Colours]
Combo1 : 253,250,145
Combo2 : 229,131,204
Combo3 : 38,73,193
Combo4 : 218,55,37

[HitObjects]
256,192,675,12,4,1533
320,120,2390,5,0
256,72,2604,2,0,B|256:8,2,40,0|0|2
192,120,3033,1,0
216,200,3247,1,0
296,200,3461,1,0
296,200,3568,1,0
296,200,3676,1,2
256,272,3890,2,0,B|256:368,1,80
336,352,4318,2,0,B|400:352,2,40,0|0|2
336,272,4747,2,0,B|384:248|440:288,1,80
104,192,5390,5,4
408,88,5818,5,0
336,120,6033,2,0,B|336:184,2,40,0|0|2
264,88,6461,1,0
264,88,6675,1,0
192,56,6890,2,0,B|192:-8,2,40,0|0|2
120,88,7318,1,0
120,88,7533,1,0
80,160,7747,1,0
72,200,7854,1,0
80,240,7961,1,2
152,280,8175,2,0,B|176:240|144:168,1,80
440,56,8818,5,4
256,320,9247,5,0
336,344,9461,2,0,B|336:280,2,40,0|0|2
416,320,9890,1,0
416,320,10104,1,0
440,240,10318,1,0
440,240,10425,1,0
440,240,10533,1,2
416,160,10747,1,0
416,160,10961,1,0
344,200,11175,2,0,B|280:200,2,40,0|0|2
344,120,11604,2,0,B|360:72|424:64,1,80
80,56,12247,5,4
256,328,12675,5,0
328,304,12890,2,0,B|344:344,2,40,0|0|2
400,272,13318,1,0
336,192,13533,5,0
256,192,13747,1,0
256,192,13854,1,0
256,192,13961,1,2
176,192,14175,1,0
112,112,14390,5,0
184,80,14604,2,0,B|168:40,2,40,0|0|2
256,56,15033,1,0
256,56,15247,1,0
96,336,15675,5,4
416,336,16104,5,0
416,336,16211,1,2
432,256,16425,1,2
432,256,16533,1,0
456,176,16747,2,0,B|456:112,2,40,2|0|2
256,192,17283,5,0
56,208,17604,5,2
72,128,17818,1,0
72,128,17925,1,0
72,128,18033,1,2
88,48,18247,2,0,B|136:24|192:56,1,80,0|2
248,64,18676,1,2
288,72,18783,1,0
328,64,18890,1,0
40,344,19533,6,0,B|128:304|216:352,1,160,0|2
256,296,20176,1,0
256,296,20283,1,0
256,296,20390,1,0
328,336,20604,2,0,B|384:312|432:352,2,80,0|2|0
256,192,21247,12,4,22104
56,192,22961,5,0
120,144,23176,1,0
120,144,23283,1,0
120,144,23390,1,2
184,192,23604,2,0,B|232:208|280:184,1,80
224,120,24033,2,0,B|224:64,2,40,0|0|2
304,96,24461,1,0
384,120,24676,1,0
464,96,24890,1,0
464,96,24997,1,0
464,96,25104,1,2
464,176,25318,2,0,B|456:232|392:240,1,80
104,320,25961,5,4
256,40,26390,5,0
184,72,26604,1,0
184,72,26711,1,0
184,72,26818,1,2
112,104,27033,2,0,B|96:160|128:216,1,80
184,224,27461,1,0
184,224,27568,1,0
184,224,27676,1,2
256,192,27890,2,0,B|296:168|352:200,1,80
408,224,28318,1,0
408,224,28426,1,0
408,224,28533,1,2
336,264,28747,2,0,B|296:288|240:256,1,80,0|0
40,32,29390,5,4
360,72,29818,5,0
416,128,30033,2,0,B|472:128,2,40,0|0|2
360,184,30461,1,0
256,312,30676,5,0
256,232,30890,1,0
256,192,30997,1,0
256,152,31104,1,2
256,72,31318,1,0
152,200,31533,5,0
96,256,31747,2,0,B|40:256,2,40,0|0|2
152,312,32176,1,0
152,312,32390,1,0
448,192,32818,5,4
256,24,33247,5,0
208,176,33461,2,0,B|192:224,2,40,0|0|2
336,80,33890,1,0
336,80,34104,1,0
176,80,34318,2,0,B|120:80,2,40,0|0|2
304,176,34747,2,0,B|352:200|360:256,1,80
256,360,35176,1,0
256,360,35283,1,0
256,360,35390,1,2
156,234,35604,2,0,B|160:200|208:176,1,80
464,56,36247,5,4
144,56,36676,5,0
120,88,36783,2,0,B|96:136|128:176,1,80,2|2
144,200,37104,2,0,B|168:248|136:288,1,80,0|2
120,312,37426,1,0
88,336,37533,1,2
256,192,37854,5,0
424,336,38176,5,2
424,256,38390,1,0
416,216,38497,1,0
392,184,38604,1,2
360,160,38711,1,0
320,152,38818,1,0
256,192,39033,1,2
184,224,39247,1,2
144,232,39354,1,0
104,224,39461,1,0
232,136,40104,6,2,B|208:112|160:120|144:160|160:232|200:232|224:272|256:288|256:288|304:256|336:208|360:168|352:136|304:112|288:112|272:152,1,480
256,192,41818,12,4,43104
