osu file format v12

[General]
AudioFilename: Billy Chrome.mp3
AudioLeadIn: 1500
PreviewTime: 24060
Countdown: 0
SampleSet: Normal
StackLeniency: 0.4
Mode: 0
LetterboxInBreaks: 1
WidescreenStoryboard: 0

[Editor]
DistanceSpacing: 1
BeatDivisor: 4
GridSize: 8

[Metadata]
Title:Billy Chrome (Gaygle Chrome)
TitleUnicode:Billy Chrome (Gaygle Chrome)
Artist:Nico Nico Douga
ArtistUnicode:Nico Nico Douga
Creator:K i A i
Version:Hard
Source:
Tags:Tell Your World Hatsune Miku Google kz livetune
BeatmapID:283596
BeatmapSetID:108463

[Difficulty]
HPDrainRate:4
CircleSize:4
OverallDifficulty:5
ApproachRate:7
SliderMultiplier:1.6
SliderTickRate:2

[Events]
//Background and Video events
Video,0,"smile (7).avi"
0,0,"bgk.png",0,0
//Break Periods
2,50760,52960
//Storyboard Layer 0 (Background)
//Storyboard Layer 1 (Fail)
//Storyboard Layer 2 (Pass)
//Storyboard Layer 3 (Foreground)
//Storyboard Sound Samples
Sample,29860,0,"drum-hitwhistle.wav",100
Sample,29860,0,"drum-hitclap.wav",100
//Background Colour Transformations
3,100,60,198,217

[TimingPoints]
1060,400,4,2,2,50,1,0
7460,-100,4,2,2,75,0,0
8035,-100,4,2,2,40,0,0
8335,-100,4,2,2,30,0,0
8635,-100,4,2,2,20,0,0
8935,-100,4,2,2,10,0,0
9060,-100,4,2,2,5,0,0
10660,-133.333333333333,4,3,1,75,0,0
11860,-133.333333333333,4,2,1,75,0,0
12060,-133.333333333333,4,3,1,75,0,0
14660,-133.333333333333,4,3,2,75,0,0
14860,-133.333333333333,4,3,1,75,0,0
15460,-133.333333333333,4,1,1,75,0,0
15660,-133.333333333333,4,3,1,75,0,0
19060,-133.333333333333,4,1,1,75,0,0
19260,-133.333333333333,4,3,1,75,0,0
23060,-133.333333333333,4,3,3,75,0,0
23460,-133.333333333333,4,1,2,100,0,0
24660,-100,4,1,2,75,0,0
25060,-100,4,3,1,100,0,1
26660,-100,4,1,1,100,0,1
26860,-100,4,3,1,100,0,1
27060,-100,4,3,2,100,0,1
27260,-100,4,3,1,100,0,1
27960,-100,4,3,1,50,0,1
28260,-100,4,3,1,100,0,1
29460,-100,4,3,2,100,0,1
29660,-100,4,3,1,100,0,1
30260,-100,4,3,2,100,0,1
30460,-100,4,3,1,100,0,1
32260,-100,4,1,1,100,0,1
32460,-100,4,3,1,100,0,1
32660,-100,4,3,2,100,0,1
32860,-100,4,3,1,100,0,1
34360,-100,4,3,1,50,0,1
34660,-100,4,3,1,100,0,1
37460,-100,4,3,2,100,0,1
37860,-100,4,3,3,100,0,1
37885,-100,4,3,1,100,0,0
37910,-100,4,3,1,100,0,1
41035,-100,4,3,1,100,0,0
41060,-100,4,3,1,100,0,1
44235,-100,4,3,1,100,0,0
44260,-100,4,3,1,100,0,1
50560,-100,4,3,1,100,0,0
50660,-100,4,3,1,50,0,0
56260,-100,4,2,2,5,0,0

[Colours]
Combo1 : 47,189,225
Combo2 : 255,255,255
Combo3 : 150,243,254
Combo4 : 17,80,157
Combo5 : 164,31,214

[HitObjects]
464,192,1060,6,0,B|376:184|408:256|312:240,1,160,6|0,0:0|0:0,0:0:0:0:
256,192,1660,2,0,L|96:208,1,160,2|0,0:0|0:0,0:0:0:0:
16,216,2260,1,2,0:0:0:0:
16,216,2860,2,0,P|8:256|16:296,1,80,2|0,0:0|0:0,0:0:0:0:
88,336,3260,2,0,P|96:296|88:256,1,80,0|8,0:0|0:0,0:0:0:0:
208,368,3860,1,0,0:0:0:0:
208,368,4260,6,0,L|368:360,1,160,2|0,0:0|0:0,0:0:0:0:
392,280,4860,1,2,0:0:0:0:
392,280,5060,2,0,L|232:288,1,160,0|2,0:0|0:0,0:0:0:0:
128,168,5860,1,0,0:0:0:0:
128,168,6060,2,0,P|56:176|0:112,1,160,2|0,0:0|0:0,0:0:0:0:
32,40,6660,2,0,P|104:32|160:96,1,160,8|0,0:0|0:0,0:0:0:0:
256,216,7460,5,6,0:3:0:0:
256,216,8035,2,0,L|256:96,3,120,4|4|4|4,0:3|0:3|0:3|0:3,0:0:0:0:
256,192,9060,12,14,10660,0:1:0:0:
256,192,11060,5,10,0:0:0:0:
256,192,11460,2,0,L|256:376,1,180.000006866455,6|0,0:0|0:0,0:0:0:0:
176,352,12260,2,0,P|120:376|56:376,1,120.000004577637,10|10,0:0|0:0,0:0:0:0:
0,232,13060,2,0,P|56:208|120:208,2,120.000004577637,6|2|10,0:0|0:0|0:0,0:0:0:0:
152,280,14260,6,0,P|256:332|360:280,2,240.000009155274,10|2|10,0:0|0:0|0:0,0:0:0:0:
256,160,16260,2,0,L|256:32,1,120.000004577637,6|2,0:0|0:0,0:0:0:0:
176,176,17060,5,10,0:0:0:0:
336,176,17460,1,10,0:0:0:0:
200,256,17860,2,0,P|256:276|312:256,1,120.000004577637,6|2,0:0|0:0,0:0:0:0:
360,104,18660,2,0,P|256:52|152:104,1,240.000009155274,10|6,0:0|0:0,0:0:0:0:
112,256,19860,6,0,L|64:304,2,60.0000022888184,2|0|10,0:0|0:0|0:0,0:0:0:0:
256,320,20660,2,0,L|256:384,2,60.0000022888184,10|0|6,0:0|0:0|0:0,0:0:0:0:
400,256,21460,2,0,L|448:304,2,60.0000022888184,2|0|10,0:0|0:0|0:0,0:0:0:0:
400,104,22260,5,10,0:0:0:0:
256,40,22660,1,6,0:0:0:0:
112,104,23060,1,2,0:0:0:0:
256,192,23460,5,10,0:0:0:0:
256,192,24660,5,4,0:0:0:0:
256,192,25060,6,0,L|256:352,3,160,14|6|10|6,0:1|0:0|0:0|0:0,0:0:0:0:
176,336,26460,2,0,P|256:352|336:336,2,160
176,256,27460,1,10,0:0:0:0:
24,296,27860,2,0,L|16:256,3,40,4|4|4|4,0:0|0:0|0:0|0:0,0:0:0:0:
8,216,28260,6,0,P|8:136|40:64,1,160,10|6,0:1|0:0,0:0:0:0:
184,136,29060,1,10,0:0:0:0:
184,136,29260,2,0,P|256:168|328:136,1,160
472,64,30060,2,0,P|504:136|504:216,1,160,0|0,0:1|0:0,0:0:0:0:
456,280,30660,2,0,L|376:272,3,80,10|0|6|0,0:0|0:0|0:0|0:0,0:0:0:0:
296,264,31460,6,0,P|220:272|184:344,1,160,6|6,0:1|0:0,0:0:0:0:
264,344,32060,2,0,L|104:344,2,160
344,344,33060,2,0,P|360:304|360:264,2,80,10|0|6,0:0|0:0|0:0,0:0:0:0:
488,272,33860,1,10,0:0:0:0:
504,192,34060,1,0,0:0:0:0:
448,136,34260,2,0,L|456:96,3,40,4|4|4|4,0:0|0:0|0:0|0:0,0:0:0:0:
464,56,34660,6,0,P|384:64|320:16,1,160,10|6,0:1|0:0,0:0:0:0:
256,64,35260,1,0,0:0:0:0:
189,19,35460,2,0,P|128:64|48:56,1,160,10|6,0:0|0:0,0:0:0:0:
0,216,36260,5,10,0:0:0:0:
104,336,36660,1,10,0:0:0:0:
256,384,37060,1,10,0:0:0:0:
408,336,37460,1,4,0:1:0:0:
512,216,37860,1,14,0:1:0:0:
256,192,37910,12,14,41060,0:1:0:0:
256,192,41110,12,14,44260,0:1:0:0:
256,192,44660,5,6,0:0:0:0:
184,336,45060,1,10,0:0:0:0:
184,336,45260,1,8,0:0:0:0:
184,336,45460,2,0,P|256:368|328:336,2,160,6|10|6,0:0|0:0|0:0,0:0:0:0:
176,176,46660,1,10,0:0:0:0:
256,192,46860,1,8,0:0:0:0:
336,176,47060,1,6,0:0:0:0:
216,72,47460,6,0,B|152:64|128:120|64:112,2,160,10|6|10,0:0|0:0|0:0,0:0:0:0:
296,72,48460,1,8,0:0:0:0:
296,72,48660,2,0,B|360:64|384:120|448:112,2,160,6|10|6,0:0|0:0|0:0,0:0:0:0:
256,224,49860,1,10,0:0:0:0:
256,224,50060,1,8,0:0:0:0:
256,224,50260,2,0,L|256:352,1,120,6|0,0:0|0:0,0:0:0:0:
256,192,53860,5,8,0:0:0:0:
256,192,56260,12,0,58460,0:0:0:0:
