osu file format v12

[General]
AudioFilename: Billy Chrome.mp3
AudioLeadIn: 1500
PreviewTime: 24060
Countdown: 0
SampleSet: Normal
StackLeniency: 0.4
Mode: 0
LetterboxInBreaks: 1
WidescreenStoryboard: 0

[Editor]
DistanceSpacing: 1
BeatDivisor: 4
GridSize: 8

[Metadata]
Title:Billy Chrome (Gaygle Chrome)
TitleUnicode:Billy Chrome (Gaygle Chrome)
Artist:Nico Nico Douga
ArtistUnicode:Nico Nico Douga
Creator:K i A i
Version:Chrome
Source:
Tags:Tell Your World Hatsune Miku Google kz livetune
BeatmapID:283595
BeatmapSetID:108463

[Difficulty]
HPDrainRate:5
CircleSize:4
OverallDifficulty:6
ApproachRate:9
SliderMultiplier:1.9
SliderTickRate:2

[Events]
//Background and Video events
Video,0,"smile (7).avi"
0,0,"bgk.png",0,0
//Break Periods
2,50760,53260
//Storyboard Layer 0 (Background)
//Storyboard Layer 1 (Fail)
//Storyboard Layer 2 (Pass)
//Storyboard Layer 3 (Foreground)
//Storyboard Sound Samples
//Background Colour Transformations
3,100,60,198,217

[TimingPoints]
1060,400,4,2,2,50,1,0
7460,-100,4,2,2,75,0,0
8035,-100,4,2,2,40,0,0
8335,-100,4,2,2,30,0,0
8635,-100,4,2,2,20,0,0
8935,-100,4,2,2,10,0,0
9060,-100,4,2,2,5,0,0
10660,-133.333333333333,4,3,1,75,0,0
11860,-133.333333333333,4,2,1,75,0,0
12060,-133.333333333333,4,3,1,75,0,0
15460,-133.333333333333,4,1,1,75,0,0
15660,-133.333333333333,4,3,1,75,0,0
18260,-133.333333333333,4,2,1,75,0,0
18460,-133.333333333333,4,3,1,75,0,0
23060,-133.333333333333,4,3,3,75,0,0
23460,-133.333333333333,4,1,2,100,0,0
24660,-100,4,1,2,75,0,0
25060,-100,4,3,1,100,0,1
26660,-100,4,1,1,100,0,1
26860,-100,4,3,1,100,0,1
27960,-100,4,3,1,50,0,1
28260,-100,4,3,1,100,0,1
29860,-100,4,1,1,100,0,1
30060,-100,4,3,1,100,0,1
32260,-100,4,1,1,100,0,1
32460,-100,4,3,1,100,0,1
32660,-100,4,3,2,100,0,1
32860,-100,4,3,1,100,0,1
34360,-100,4,3,1,50,0,1
34660,-100,4,3,1,100,0,1
37860,-100,4,3,3,100,0,1
37885,-100,4,3,1,100,0,0
37910,-100,4,3,1,100,0,1
41035,-100,4,3,1,100,0,0
41060,-100,4,3,1,100,0,1
44235,-100,4,3,1,100,0,0
44260,-100,4,3,1,100,0,1
50560,-100,4,3,1,100,0,0
50660,-100,4,3,1,50,0,0
56260,-100,4,2,2,5,0,0

[Colours]
Combo1 : 47,189,225
Combo2 : 255,255,255
Combo3 : 150,243,254
Combo4 : 17,80,157
Combo5 : 164,31,214

[HitObjects]
88,328,660,2,2,L|232:312,1,142.5,0|0,0:0|0:0,0:0:0:0:
256,328,1060,5,6,0:0:0:0:
176,192,1260,1,0,0:0:0:0:
64,304,1460,2,0,P|80:256|80:208,1,95,0|2,0:0|0:0,0:0:0:0:
16,56,1860,2,0,P|0:104|0:152,1,95
80,211,2260,1,2,0:0:0:0:
112,120,2460,1,0,0:0:0:0:
112,120,2860,5,2,0:0:0:0:
208,128,3060,1,0,0:0:0:0:
304,136,3260,1,0,0:0:0:0:
400,144,3460,2,0,L|408:240,1,95,8|0,0:0|0:0,0:0:0:0:
504,160,3860,2,0,L|496:64,1,95
504,296,4260,6,0,P|416:280|360:352,1,190,2|0,0:0|0:0,0:0:0:0:
452,384,4860,1,2,0:0:0:0:
328,336,5060,1,0,0:0:0:0:
328,336,5160,1,0,0:0:0:0:
328,336,5260,2,0,L|232:360,1,95,0|2,0:0|0:0,0:0:0:0:
80,288,5660,1,0,0:0:0:0:
80,288,5760,2,0,L|240:248,1,142.5,0|2,0:0|0:0,0:0:0:0:
272,176,6260,2,0,L|256:272,1,95
384,240,6660,2,0,L|400:144,2,95,8|0|0,0:0|0:0|0:0,0:0:0:0:
256,24,7460,5,6,0:3:0:0:
144,280,8035,1,4,0:3:0:0:
256,368,8335,1,4,0:3:0:0:
368,280,8635,1,4,0:3:0:0:
256,192,8935,1,4,0:3:0:0:
256,192,9060,12,0,10260,0:0:0:0:
256,192,10660,5,14,0:1:0:0:
168,336,11060,1,10,0:0:0:0:
168,336,11260,1,0,0:0:0:0:
168,336,11460,2,0,P|128:240|24:240,1,213.750008153916,6|0,0:0|0:0,0:0:0:0:
72,328,12260,5,10,0:0:0:0:
256,384,12660,1,10,0:0:0:0:
256,384,12860,1,0,0:0:0:0:
256,384,13060,2,0,L|400:376,1,142.500005435944,6|2,0:0|0:0,0:0:0:0:
488,344,13660,1,0,0:0:0:0:
416,280,13860,5,10,0:0:0:0:
256,16,14260,1,10,0:0:0:0:
256,16,14460,1,0,0:0:0:0:
256,16,14660,2,0,L|248:160,1,142.500005435944,6|2,0:0|0:0,0:0:0:0:
144,176,15260,2,0,L|152:32,1,142.500005435944
48,48,15860,2,0,L|40:192,2,142.500005435944,10|6|2,0:0|0:0|0:0,0:0:0:0:
104,264,17060,5,10,0:0:0:0:
48,344,17260,1,0,0:0:0:0:
144,352,17460,2,0,B|192:344|192:344|240:352|240:352|288:344,1,142.500005435944,10|6,0:0|0:0,0:0:0:0:
384,384,18060,2,0,P|360:320|360:240,1,142.500005435944
472,128,18660,2,0,P|496:192|496:272,1,142.500005435944,10|10,0:0|0:0,0:0:0:0:
480,364,19260,1,0,0:0:0:0:
384,384,19460,1,6,0:0:0:0:
256,240,19860,5,2,0:0:0:0:
256,240,20060,1,0,0:0:0:0:
256,240,20260,2,0,L|112:256,1,142.500005435944,10|10,0:0|0:0,0:0:0:0:
32,208,20860,1,0,0:0:0:0:
32,208,21060,2,0,P|16:136|16:64,1,142.500005435944,6|2,0:0|0:0,0:0:0:0:
96,8,21660,5,0,0:0:0:0:
96,8,21860,1,10,0:0:0:0:
416,8,22260,1,10,0:0:0:0:
176,100,22660,1,6,0:0:0:0:
336,96,23060,1,10,0:0:0:0:
256,192,23460,5,10,0:0:0:0:
256,192,24660,6,0,L|256:288,1,95,4|0,0:0|0:0,0:0:0:0:
336,344,25060,6,0,P|256:388|176:344,1,190,14|6,0:1|0:0,0:0:0:0:
80,368,25660,1,0,0:0:0:0:
40,280,25860,1,10,0:0:0:0:
40,280,25960,1,0,0:0:0:0:
40,280,26060,2,0,P|48:232|40:184,1,95,0|6,0:0|0:0,0:0:0:0:
64,32,26460,6,0,P|104:120|192:136,1,190,0|0,0:0|0:0,0:0:0:0:
280,160,27060,2,0,P|280:112|256:72,1,95,6|0,0:0|0:0,0:0:0:0:
352,232,27460,2,0,P|376:192|376:144,1,95,10|0,0:0|0:0,0:0:0:0:
504,308,27860,1,4,0:0:0:0:
456,296,27960,1,4,0:0:0:0:
408,304,28060,1,4,0:0:0:0:
376,336,28160,1,4,0:0:0:0:
360,384,28260,6,0,L|216:368,1,142.5,10|0,0:1|0:0,0:0:0:0:
184,384,28660,1,6,0:0:0:0:
224,280,28860,1,0,0:0:0:0:
112,312,29060,2,0,L|8:324,1,95,10|0,0:0|0:0,0:0:0:0:
48,216,29460,5,6,0:0:0:0:
48,216,29660,2,0,B|120:208|120:208|164:216|164:216|236:208,1,190
312,152,30260,1,6,0:0:0:0:
408,176,30460,1,0,0:0:0:0:
504,200,30660,1,10,0:0:0:0:
504,200,30760,1,0,0:0:0:0:
504,200,30860,2,0,B|512:152|512:152|504:104,1,95,0|6,0:0|0:0,0:0:0:0:
311,58,31260,2,0,B|304:104|304:104|312:152,1,95,0|6,0:0|0:1,0:3:0:0:
432,232,31660,5,0,0:0:0:0:
352,352,31860,1,6,0:0:0:0:
216,304,32060,2,0,L|24:336,2,190
256,216,33060,5,10,0:0:0:0:
208,56,33260,1,0,0:0:0:0:
208,56,33360,1,0,0:0:0:0:
208,56,33460,2,0,L|200:152,1,95,6|0,0:0|0:0,0:0:0:0:
0,248,33860,2,0,L|8:152,1,95,10|0,0:0|0:0,0:0:0:0:
72,312,34260,1,4,0:0:0:0:
112,288,34360,1,4,0:0:0:0:
160,288,34460,1,4,0:0:0:0:
200,312,34560,1,4,0:0:0:0:
216,360,34660,6,0,L|360:352,1,142.5,10|0,0:1|0:0,0:0:0:0:
384,328,35060,1,6,0:0:0:0:
480,384,35260,1,0,0:0:0:0:
480,384,35460,2,0,P|488:288|480:192,1,190,10|6,0:0|0:0,0:0:0:0:
400,80,36060,5,0,0:0:0:0:
400,80,36260,2,0,L|304:96,1,95,10|8,0:0|0:0,0:0:0:0:
112,48,36660,2,0,L|208:32,1,95,10|8,0:0|0:0,0:0:0:0:
480,194,37060,5,4,0:0:0:0:
452,172,37160,1,4,0:0:0:0:
416,168,37260,1,2,0:2:0:0:
380,184,37360,1,2,0:2:0:0:
356,212,37460,1,8,0:2:0:0:
352,248,37560,1,8,0:2:0:0:
368,284,37660,1,4,0:2:0:0:
400,304,37760,1,4,0:2:0:0:
436,308,37860,1,14,0:1:0:0:
256,192,37910,12,14,41060,0:1:0:0:
256,192,41110,12,14,44260,0:1:0:0:
64,72,44660,1,6,0:0:0:0:
8,160,44860,1,0,0:0:0:0:
8,160,44960,1,0,0:0:0:0:
8,160,45060,2,0,L|24:256,1,95,10|8,0:0|0:0,0:0:0:0:
144,336,45460,2,0,L|120:192,1,142.5,6|0,0:0|0:0,0:0:0:0:
144,168,45860,5,10,0:0:0:0:
176,56,46060,1,0,0:0:0:0:
256,136,46260,2,0,L|352:128,1,95,6|0,0:0|0:0,0:0:0:0:
512,304,46660,5,10,0:0:0:0:
480,192,46860,1,8,0:0:0:0:
400,272,47060,2,0,L|304:264,1,95,6|0,0:0|0:0,0:0:0:0:
208,320,47460,6,0,P|112:320|56:248,1,190,10|6,0:0|0:0,0:0:0:0:
128,184,48060,1,0,0:0:0:0:
128,184,48160,1,0,0:0:0:0:
128,184,48260,2,0,B|136:136|136:136|128:88,1,95,10|8,0:0|0:0,0:0:0:0:
16,40,48660,2,0,B|8:88|8:88|16:136,1,95,6|0,0:0|0:0,0:0:0:0:
200,8,49060,5,2,0:2:0:0:
216,56,49160,1,2,0:2:0:0:
256,80,49260,1,8,0:2:0:0:
304,80,49360,1,8,0:2:0:0:
344,56,49460,1,4,0:0:0:0:
368,16,49560,1,2,0:2:0:0:
400,48,49660,1,8,0:2:0:0:
448,64,49760,1,4,0:2:0:0:
496,48,49860,5,8,0:2:0:0:
492,80,49960,1,8,0:2:0:0:
488,112,50060,1,8,0:2:0:0:
484,144,50160,1,8,0:2:0:0:
480,176,50260,1,4,0:0:0:0:
476,208,50360,1,2,0:2:0:0:
472,240,50460,1,8,0:2:0:0:
468,272,50560,1,4,0:2:0:0:
256,192,53860,5,8,0:0:0:0:
256,192,56260,12,0,58460,0:0:0:0:
