osu file format v10

[General]
AudioFilename: Battle Against a Dangerous Yoshika.mp3
AudioLeadIn: 0
PreviewTime: 42273
Countdown: 0
SampleSet: Soft
StackLeniency: 0.7
Mode: 0
LetterboxInBreaks: 0

[Editor]
Bookmarks: 35458,55904,62719,69534
DistanceSpacing: 0.7
BeatDivisor: 4
GridSize: 4

[Metadata]
Title:Battle Against a Dangerous Yoshika
TitleUnicode:Battle Against a Dangerous Yoshika
Artist:Nico Nico Douga
ArtistUnicode:Nico Nico Douga
Creator:Mafiamaster
Version:MafiaMiX
Source:Super Mario RPG
Tags:Strike Witches Andrea osuplayer111 Darksonic yyy yeahyeahyeahhh
BeatmapID:162662
BeatmapSetID:53363

[Difficulty]
HPDrainRate:7
CircleSize:4
OverallDifficulty:8
ApproachRate:9
SliderMultiplier:2.4
SliderTickRate:1

[Events]
//Background and Video events
Video,0,"Battle Against a Dangerous Mafia.avi"
0,0,"Yoshika.png"
//Break Periods
//Storyboard Layer 0 (Background)
//Storyboard Layer 1 (Fail)
//Storyboard Layer 2 (Pass)
//Storyboard Layer 3 (Foreground)
//Storyboard Sound Samples
//Background Colour Transformations
3,100,163,162,255

[TimingPoints]
18428,425.985090521832,4,2,1,80,1,0
85307,-100,4,2,1,70,0,0
85733,-100,4,2,1,60,0,0

[HitObjects]
24,320,18428,2,0,B|112:360|112:280|200:320,1,180,8|8,0:0|0:0,0:0:0
256,364,18853,2,0,B|204:312|256:260,1,120,8|8,0:0|0:0,0:0:0
488,64,19279,2,0,B|400:24|400:104|312:64,1,180,8|8,0:0|0:0,0:0:0
256,20,19705,2,0,B|308:72|256:124,1,120,8|8,0:0|0:0,0:0:0
56,276,20131,6,0,B|-4:192|56:108,1,180,8|8,0:0|0:0,0:0:0
120,244,20557,2,0,B|68:192|120:140,2,120,8|8|8,0:0|0:0|0:0,0:0:0
424,252,21303,5,8,0:0:0
460,228,21409,1,8,0:0:0
484,192,21516,1,8,0:0:0
460,156,21622,1,8,0:0:0
424,132,21729,1,8,0:0:0
388,40,21942,6,0,B|328:28,2,60,0|0|8,0:0|0:0|0:0,0:0:0
348,64,22261,2,0,B|292:80|292:80|284:112|304:138,1,120,8|8,0:0|0:0,0:0:0
208,138,22687,2,0,B|228:112|220:80|220:80|164:64,1,120,8|0,0:0|0:0,0:0:0
120,56,23007,1,8,0:0:0
80,72,23113,2,0,B|28:124|80:176,1,120,8|8,0:0|0:0,0:0:0
172,280,23539,5,8,0:0:0
256,304,23752,1,0,0:0:0
256,260,23859,1,8,0:0:0
256,216,23965,1,8,0:0:0
340,280,24178,1,8,0:0:0
172,116,24391,2,0,B|256:176|340:116,1,180,8|8,0:0|0:0,0:0:0
312,48,24817,2,0,B|256:12|200:48,1,120,8|8,0:0|0:0,0:0:0
72,212,25243,6,0,B|24:176,2,60,8|0|0,0:0|0:0|0:0,0:0:0
60,172,25563,1,8,0:0:0
48,132,25669,2,0,B|104:116|104:116|112:84|92:58,1,120,8|8,0:0|0:0,0:0:0
200,40,26095,2,0,B|256:4|312:40,1,120,8|0,0:0|0:0,0:0:0
348,64,26415,1,8,0:0:0
388,80,26521,2,0,B|444:116|500:80,1,120,8|8,0:0|0:0,0:0:0
388,80,26947,6,0,B|352:136|388:192,1,120,8|0,0:0|0:0,0:0:0
408,232,27267,1,8,0:0:0
436,264,27373,2,0,B|380:228|324:264,1,120,8|8,0:0|0:0,0:0:0
160,220,27799,5,8,0:0:0
160,220,28225,1,8,0:0:0
176,260,28332,2,0,B|132:300,2,60,0|8|0,0:0|0:0|0:0,0:0:0
176,124,28758,6,0,B|132:84,2,60,0|0|8,0:0|0:0|0:0,0:0:0
136,108,29077,2,0,B|80:96|80:96|44:116|32:168,1,120,8|8,0:0|0:0,0:0:0
40,241,29503,2,0,B|44:268|80:288|80:288|136:276,1,120,8|0,0:0|0:0,0:0:0
176,260,29823,1,8,0:0:0
160,220,29929,5,8,0:0:0
352,220,30142,1,8,0:0:0
256,364,30355,2,0,B|256:336|240:324|240:324|272:324|272:324|256:312|256:284,1,120,8|0,0:0|0:0,0:0:0
256,244,30675,1,8,0:0:0
256,200,30781,2,8,B|256:184|272:160|272:160|240:160|240:160|256:136|256:120,1,120,8|8,0:0|0:0,0:0:0
256,32,31207,1,8,0:0:0
84,120,31420,5,0,0:0:0
84,164,31527,2,0,B|56:180|28:164,2,60,8|8|0,0:0|0:0|0:0,0:0:0
128,156,31846,2,0,B|92:212|128:268,1,120,8|8,0:0|0:0,0:0:0
160,300,32166,6,0,B|128:352,2,60,0|0|8,0:0|0:0|0:0,0:0:0
200,284,32485,2,0,B|256:248|312:284,1,120,8|8,0:0|0:0,0:0:0
392,316,32911,1,8,0:0:0
476,276,33124,1,0,0:0:0
436,260,33230,1,8,0:0:0
396,244,33337,1,8,0:0:0
480,204,33550,1,8,0:0:0
388,60,33763,6,0,B|380:96|340:112|340:112|312:100|294:108,1,120,8|0,0:0|0:0,0:0:0
256,124,34082,1,8,0:0:0
217,108,34189,2,0,B|200:100|172:112|172:112|132:96|124:60,1,120,8|8,0:0|0:0,0:0:0
60,152,34615,5,8,0:0:0
88,172,34721,1,8,0:0:0
104,204,34828,1,8,0:0:0
88,236,34934,1,8,0:0:0
60,256,35041,1,8,0:0:0
32,276,35147,1,8,0:0:0
16,308,35254,1,8,0:0:0
32,340,35360,1,8,0:0:0
60,364,35467,5,12,0:0:0
276,364,35786,1,8,0:0:0
236,364,35893,1,8,0:0:0
148,364,36106,1,8,0:0:0
60,364,36319,1,8,0:0:0
256,232,36532,6,0,B|256:304,2,60,0|8|8,0:0|0:0|0:0,0:0:0
256,148,36958,1,8,0:0:0
256,64,37171,1,8,0:0:0
236,364,37490,1,8,0:0:0
276,364,37597,1,8,0:0:0
364,364,37810,1,8,0:0:0
452,364,38023,5,8,0:0:0
480,340,38129,1,8,0:0:0
496,308,38236,1,8,0:0:0
480,276,38342,1,8,0:0:0
452,256,38449,1,8,0:0:0
424,236,38555,1,8,0:0:0
408,204,38662,1,8,0:0:0
424,172,38768,1,8,0:0:0
452,152,38875,6,0,B|368:212|284:152,1,180,12|8,0:0|0:0,0:0:0
420,88,39301,2,0,B|368:140|316:88,1,120,8|8,0:0|0:0,0:0:0
256,224,39727,1,8,0:0:0
256,308,39940,1,0,0:0:0
256,344,40046,1,8,0:0:0
256,380,40153,1,8,0:0:0
256,224,40366,1,8,0:0:0
60,152,40579,2,0,B|144:212|228:152,1,180,8|8,0:0|0:0,0:0:0
92,88,41005,2,0,B|144:140|196:88,1,120,8|8,0:0|0:0,0:0:0
84,312,41431,6,0,B|112:328|140:312,1,60,8|8,0:0|0:0,0:0:0
176,288,41644,1,8,0:0:0
196,252,41750,1,8,0:0:0
228,228,41857,2,0,B|256:212|284:228,1,60,8|8,0:0|0:0,0:0:0
320,252,42070,1,8,0:0:0
340,288,42176,1,8,0:0:0
372,312,42283,5,8,0:0:0
492,216,42496,1,0,0:0:0
468,184,42602,1,8,0:0:0
432,164,42709,1,8,0:0:0
404,240,42922,1,8,0:0:0
460,84,43135,2,0,B|420:68|388:100|388:100|388:68|388:68|356:100|316:84,2,180,8|8|8,0:0|0:0|0:0,0:0:0
288,152,43987,6,0,B|296:192|336:224,2,80,8|8|8,0:0|0:0|0:0,0:0:0
216,128,44413,2,0,B|176:160|176:208,2,80,8|8|8,0:0|0:0|0:0,0:0:0
256,64,44839,1,8,0:0:0
216,48,44945,1,8,0:0:0
184,24,45052,1,8,0:0:0
152,48,45158,1,8,0:0:0
112,64,45265,1,8,0:0:0
328,24,45478,1,8,0:0:0
40,104,45691,5,8,0:0:0
408,256,46010,1,8,0:0:0
416,296,46117,1,8,0:0:0
256,192,46330,1,8,0:0:0
472,104,46543,5,8,0:0:0
104,256,46862,1,8,0:0:0
96,296,46969,1,8,0:0:0
256,192,47181,1,8,0:0:0
40,104,47394,5,8,0:0:0
72,184,47607,1,0,0:0:0
112,192,47714,1,8,0:0:0
152,184,47820,1,8,0:0:0
176,152,47927,1,0,0:0:0
184,112,48033,1,8,0:0:0
440,200,48246,1,8,0:0:0
400,192,48353,1,8,0:0:0
360,200,48459,1,8,0:0:0
336,232,48566,1,8,0:0:0
328,272,48672,1,8,0:0:0
472,104,48885,1,8,0:0:0
256,64,49098,5,8,0:0:0
20,168,49311,1,0,0:0:0
44,200,49418,1,8,0:0:0
80,220,49524,1,8,0:0:0
108,144,49737,1,8,0:0:0
52,300,49950,2,0,B|92:316|124:284|124:284|124:316|124:316|156:284|196:300,2,180,8|8|8,0:0|0:0|0:0,0:0:0
224,232,50802,6,0,B|216:192|176:160,2,80,8|8|8,0:0|0:0|0:0,0:0:0
296,256,51228,2,0,B|336:224|336:176,2,80,8|8|8,0:0|0:0|0:0,0:0:0
256,320,51654,1,8,0:0:0
296,336,51761,1,8,0:0:0
328,360,51867,1,8,0:0:0
360,336,51974,1,8,0:0:0
400,320,52080,1,8,0:0:0
184,360,52293,1,8,0:0:0
472,280,52506,5,8,0:0:0
104,128,52826,1,8,0:0:0
96,88,52932,1,8,0:0:0
256,192,53145,1,8,0:0:0
40,280,53358,5,8,0:0:0
408,128,53678,1,8,0:0:0
416,88,53784,1,8,0:0:0
256,192,53997,1,8,0:0:0
472,280,54210,5,8,0:0:0
440,200,54423,1,0,0:0:0
400,192,54530,1,8,0:0:0
360,200,54636,1,8,0:0:0
336,232,54743,1,0,0:0:0
328,272,54849,1,8,0:0:0
72,184,55062,1,8,0:0:0
112,192,55169,1,8,0:0:0
152,184,55275,1,8,0:0:0
176,152,55382,1,8,0:0:0
184,112,55488,1,8,0:0:0
40,280,55701,1,8,0:0:0
172,340,55914,6,0,B|256:400|340:340,1,180,8|8,0:0|0:0,0:0:0
204,276,56340,2,0,B|256:328|308:276,1,120,8|8,0:0|0:0,0:0:0
340,44,56766,2,0,B|256:-16|172:44,1,180,8|8,0:0|0:0,0:0:0
308,108,57192,2,0,B|256:56|204:108,1,120,8|8,0:0|0:0,0:0:0
256,192,57618,5,8,0:0:0
448,292,57831,1,0,0:0:0
484,272,57938,1,8,0:0:0
508,240,58044,1,8,0:0:0
484,208,58151,1,0,0:0:0
448,188,58257,2,8,B|420:188|408:172|408:172|408:204|408:204|396:188|368:188,2,120,8|8|0,0:0|0:0|0:0,0:0:0
484,176,58790,1,8,0:0:0
508,144,58896,1,8,0:0:0
484,112,59003,1,0,0:0:0
448,92,59109,1,8,0:0:0
256,192,59322,12,12,62304,0:0:0
256,96,62517,5,8,0:0:0
196,152,62730,1,8,0:0:0
160,176,62836,1,0,0:0:0
160,216,62943,1,0,0:0:0
160,256,63049,1,8,0:0:0
124,276,63156,1,8,0:0:0
256,336,63369,1,8,0:0:0
388,276,63582,1,8,0:0:0
352,256,63688,1,0,0:0:0
352,216,63795,1,0,0:0:0
352,176,63901,1,8,0:0:0
316,156,64008,1,8,0:0:0
256,216,64221,1,8,0:0:0
256,96,64434,5,8,0:0:0
388,56,64647,1,0,0:0:0
420,80,64753,1,8,0:0:0
444,112,64860,2,0,B|420:140|393:142,1,60,8|0,0:0|0:0,0:0:0
452,152,65073,2,0,B|440:180|413:196,1,60,8|0,0:0|0:0,0:0:0
456,192,65286,1,8,0:0:0
452,232,65392,1,0,0:0:0
444,272,65499,1,0,0:0:0
420,304,65605,1,8,0:0:0
388,328,65712,1,12,0:0:0
256,336,65925,5,8,0:0:0
124,328,66138,5,8,0:0:0
84,336,66244,1,0,0:0:0
44,328,66351,1,0,0:0:0
24,292,66457,2,0,B|8:264|24:236,1,60,8|8,0:0|0:0,0:0:0
48,200,66670,1,0,0:0:0
88,192,66777,1,8,0:0:0
128,200,66883,1,0,0:0:0
160,224,66990,5,8,0:0:0
200,232,67096,1,0,0:0:0
240,224,67203,1,0,0:0:0
260,188,67309,2,0,B|276:160|260:132,1,60,8|8,0:0|0:0,0:0:0
236,96,67522,1,0,0:0:0
196,88,67629,1,8,0:0:0
156,96,67735,1,0,0:0:0
136,132,67842,6,0,B|84:184|136:236,1,120,8|0,0:0|0:0,0:0:0
164,268,68161,1,8,0:0:0
204,280,68268,2,0,B|248:300|256:332,2,60,8|0|8,0:0|0:0|0:0,0:0:0
244,268,68587,1,0,0:0:0
268,236,68694,1,8,0:0:0
400,272,68907,1,8,0:0:0
440,280,69013,1,8,0:0:0
480,272,69120,1,12,0:0:0
488,136,69333,5,0,0:0:0
512,100,69439,1,0,0:0:0
488,64,69546,2,0,B|400:24|400:104|312:64,1,180,8|8,0:0|0:0,0:0:0
256,20,69972,2,0,B|308:72|256:124,1,120,8|8,0:0|0:0,0:0:0
24,320,70398,2,0,B|112:360|112:280|200:320,1,180,8|8,0:0|0:0,0:0:0
256,364,70824,2,0,B|204:312|256:260,1,120,8|8,0:0|0:0,0:0:0
456,108,71250,6,0,B|516:192|456:276,1,180,8|8,0:0|0:0,0:0:0
392,140,71676,2,0,B|444:192|392:244,2,120,8|8|8,0:0|0:0|0:0,0:0:0
88,132,72421,5,8,0:0:0
52,156,72528,1,8,0:0:0
28,192,72634,1,8,0:0:0
52,228,72741,1,8,0:0:0
88,252,72847,1,8,0:0:0
124,344,73060,6,0,B|184:356,2,60,0|0|8,0:0|0:0|0:0,0:0:0
164,320,73380,2,0,B|220:304|220:304|228:272|208:246,1,120,8|8,0:0|0:0,0:0:0
304,246,73806,2,0,B|284:272|292:304|292:304|348:320,1,120,8|0,0:0|0:0,0:0:0
392,328,74125,1,8,0:0:0
432,312,74232,2,0,B|484:260|432:208,1,120,8|8,0:0|0:0,0:0:0
340,104,74658,5,8,0:0:0
256,80,74871,1,0,0:0:0
256,124,74977,1,8,0:0:0
256,168,75084,1,8,0:0:0
172,104,75297,1,8,0:0:0
340,268,75510,2,0,B|256:208|172:268,1,180,8|8,0:0|0:0,0:0:0
200,336,75935,2,0,B|256:372|312:336,1,120,8|8,0:0|0:0,0:0:0
440,172,76361,6,0,B|488:208,2,60,8|0|0,0:0|0:0|0:0,0:0:0
452,212,76681,1,8,0:0:0
464,252,76787,2,0,B|408:268|408:268|400:300|420:326,1,120,8|8,0:0|0:0,0:0:0
312,344,77213,2,0,B|256:380|200:344,1,120,8|0,0:0|0:0,0:0:0
164,320,77533,1,8,0:0:0
124,304,77639,2,0,B|68:268|12:304,1,120,8|8,0:0|0:0,0:0:0
124,304,78065,6,0,B|160:248|124:192,1,120,8|0,0:0|0:0,0:0:0
104,152,78385,1,8,0:0:0
76,120,78491,2,0,B|132:156|188:120,1,120,8|8,0:0|0:0,0:0:0
352,164,78917,5,8,0:0:0
352,164,79343,1,8,0:0:0
336,124,79450,2,0,B|380:84,2,60,0|8|0,0:0|0:0|0:0,0:0:0
336,260,79876,6,0,B|380:300,2,60,0|0|8,0:0|0:0|0:0,0:0:0
376,276,80195,2,0,B|432:288|432:288|468:268|480:216,1,120,8|8,0:0|0:0,0:0:0
472,143,80621,2,0,B|468:116|432:96|432:96|376:108,1,120,8|0,0:0|0:0,0:0:0
336,124,80941,1,8,0:0:0
352,164,81047,5,8,0:0:0
160,164,81260,1,8,0:0:0
256,20,81473,2,0,B|256:48|272:60|272:60|240:60|240:60|256:72|256:100,1,120,8|0,0:0|0:0,0:0:0
256,140,81793,1,8,0:0:0
256,184,81899,2,8,B|256:200|240:224|240:224|272:224|272:224|256:248|256:264,1,120,8|8,0:0|0:0,0:0:0
256,352,82325,1,8,0:0:0
428,264,82538,5,0,0:0:0
428,220,82645,2,0,B|456:204|484:220,2,60,8|8|0,0:0|0:0|0:0,0:0:0
384,228,82964,2,0,B|420:172|384:116,1,120,8|8,0:0|0:0,0:0:0
352,84,83284,6,0,B|384:32,2,60,0|0|8,0:0|0:0|0:0,0:0:0
312,100,83603,2,0,B|256:136|200:100,1,120,8|8,0:0|0:0,0:0:0
120,68,84029,1,8,0:0:0
36,108,84242,1,0,0:0:0
76,124,84349,1,8,0:0:0
116,140,84455,1,8,0:0:0
32,180,84668,1,8,0:0:0
124,324,84881,6,0,B|136:288|168:272|168:272|218:276,1,120,8|0,0:0|0:0,0:0:0
256,260,85201,1,8,0:0:0
294,276,85307,2,0,B|344:272|344:272|376:288|388:324,1,120,8|8,0:0|0:0,0:0:0
480,180,85733,1,8,0:0:0
