osu file format v6

[General]
AudioFilename: BARUSA of MIKOSU.mp3
AudioLeadIn: 0
PreviewTime: 31420
Countdown: 0
SampleSet: Normal
StackLeniency: 0.2
Mode: 0
LetterboxInBreaks: 1

[Editor]
Bookmarks: 10115,20781,31448,42114,52781,63448,74114,84781,95448,106114,116781,127448,138114,148781,159448,170114,180781
DistanceSpacing: 1.39999997615814
BeatDivisor: 6
GridSize: 8

[Metadata]
Title:BARUSA of MIKOSU
Artist:Nico Nico Douga
Creator:EPIC FAIL - LOL
Version:HARDER THAN BEING SICK
Source:Lucky Star
Tags:barusa of mikosu nico douga lucky star hiiragi tsukasa mad night of nights beatmario

[Difficulty]
HPDrainRate:0
CircleSize:4
OverallDifficulty:5
SliderMultiplier:1.2
SliderTickRate:2

[Events]
//Background and Video events
0,0,"BARUSA of MIKOSU.png"
Video,-18,"BARUSA of MIKOSU.avi"
//Break Periods
2,43664,51476
//Storyboard Layer 0 (Background)
//Storyboard Layer 1 (Fail)
//Storyboard Layer 2 (Pass)
//Storyboard Layer 3 (Foreground)
//Storyboard Sound Samples
//Background Colour Transformations
3,100,80,200,255

[TimingPoints]
312.727272727273,363.636363636364,4,1,0,50,1,0

[Colours]
Combo1 : 255,255,0
Combo2 : 0,255,0
Combo3 : 0,0,255
Combo4 : 255,0,0

[HitObjects]
80,32,9949,1,0
72,288,11464,1,0
448,304,12433,1,0
456,224,12797,1,0
448,40,14130,1,0
64,32,15161,1,0
56,80,15464,1,0
48,256,16494,1,0
48,312,16797,1,0
384,328,17827,1,0
488,336,18070,1,0
448,176,18736,1,0
272,160,19464,1,0
264,192,19767,1,0
408,208,20070,1,0
264,80,20433,1,0
128,112,20797,1,0
144,264,21100,1,0
376,296,21464,1,0
376,104,21827,1,0
248,112,22130,1,0
240,216,22494,1,0
240,216,22797,1,0
240,216,23100,1,0
240,216,23464,1,0
240,216,23706,1,0
240,216,23888,1,0
240,216,24009,1,0
240,216,24191,1,0
240,216,24373,1,0
240,216,24555,1,0
240,216,24736,1,0
240,216,24918,1,0
240,216,25282,1,0
240,216,25646,1,0
240,216,25827,1,0
240,216,26070,1,0
240,216,26191,1,0
240,216,26373,1,0
288,192,26615,1,0
288,144,26918,1,0
168,96,27221,1,0
168,184,27464,1,0
240,216,27767,1,0
320,112,28130,1,0
168,96,28494,1,0
240,216,28858,1,0
320,112,29221,1,0
136,192,29524,1,0
128,144,29827,1,0
288,224,30130,1,0
128,144,30494,1,0
280,88,30858,1,0
280,88,31100,1,0
280,88,31221,1,0
280,88,31403,1,0
280,88,31646,1,0
280,88,31827,1,0
280,88,32009,1,0
280,88,32191,1,0
280,88,32373,1,0
280,88,32494,1,0
280,88,32676,1,0
280,88,32858,1,0
280,88,33040,1,0
280,88,33221,1,0
280,88,33403,1,0
280,88,33585,1,0
280,88,33767,1,0
280,88,33949,1,0
280,88,34191,1,0
280,88,34312,1,0
280,88,34555,1,0
280,88,34676,1,0
280,88,34858,1,0
280,88,35040,1,0
280,88,35221,1,0
280,88,35403,1,0
280,88,35585,1,0
280,88,35767,1,0
280,88,36009,1,0
280,88,36191,1,0
280,88,36373,1,0
280,88,36615,1,0
280,88,36797,1,0
280,88,36979,1,0
280,88,37221,1,0
280,88,37403,1,0
280,88,37646,1,0
280,88,37888,1,0
280,88,38070,1,0
280,88,38312,1,0
280,88,38555,1,0
280,88,38736,1,0
280,88,38979,1,0
280,88,39161,1,0
280,88,39403,1,0
280,88,39585,1,0
280,88,39827,1,0
280,88,40009,1,0
280,88,40252,1,0
280,88,40433,1,0
280,88,40676,1,0
280,88,40858,1,0
280,88,41100,1,0
280,88,41282,1,0
64,240,41767,1,0
64,240,42009,1,0
64,240,42070,1,0
64,240,42858,1,0
64,240,43161,1,0
64,240,43464,1,0
256,208,44191,12,0,52676
248,176,52676,5,0
248,176,53100,5,0
248,176,53464,1,0
248,176,53827,1,0
248,176,54191,1,0
248,176,54494,1,0
248,176,54858,1,0
248,176,55161,1,0
248,176,55524,1,0
248,176,55888,1,0
248,176,56191,1,0
352,232,56433,1,0
224,288,56676,1,0
128,160,56918,1,0
216,24,57100,1,0
224,88,57282,1,0
176,168,57464,1,0
160,24,57706,1,0
312,256,57949,1,0
216,240,58191,1,0
320,160,58494,1,0
240,264,58615,1,0
328,128,58858,1,0
256,224,59040,1,0
224,136,59221,1,0
224,136,59403,1,0
240,264,59524,1,0
200,168,59706,1,0
304,272,59949,1,0
240,264,60130,1,0
312,184,60312,1,0
208,264,60433,1,0
344,96,60615,1,0
200,168,60797,1,0
72,192,60858,1,0
272,144,60979,1,0
72,192,61040,1,0
256,200,61161,1,0
208,216,61646,1,0
208,216,61888,1,0
184,280,62070,1,0
72,184,62918,1,0
72,184,63464,1,0
72,184,63767,1,0
104,160,64130,1,0
208,160,64433,1,0
264,152,64797,1,0
296,160,65161,1,0
336,216,65464,1,0
232,240,65888,5,0
272,304,66191,1,0
152,192,66494,1,0
336,216,66858,1,0
80,224,67221,1,0
216,88,67585,1,0
120,256,68070,5,0
176,168,68433,1,0
360,272,68797,1,0
104,216,69161,1,0
184,120,69524,1,0
376,168,69827,1,0
136,224,70312,5,0
328,160,70736,1,0
208,96,71040,1,0
136,224,71403,1,0
304,256,71767,1,0
168,240,72130,1,0
160,144,72858,1,0
360,128,73161,1,0
120,120,73524,1,0
312,104,73827,1,0
216,160,74373,5,0
352,184,74615,1,0
144,48,75040,1,0
336,136,75282,1,0
192,192,76130,1,0
120,224,76555,1,0
224,216,76918,1,0
256,200,77282,5,0
256,200,77706,5,0
248,144,77949,5,0
216,144,78312,5,0
216,144,78615,5,0
168,208,78918,5,0
224,240,79221,5,0
352,240,79585,5,0
344,160,79888,5,0
264,24,80191,5,0
216,56,80555,5,0
48,200,80918,5,0
232,288,81282,5,0
288,88,81585,5,0
248,120,81888,5,0
360,232,82252,5,0
400,224,82615,5,0
328,184,82979,5,0
248,216,83343,5,0
272,304,83706,5,0
352,208,84070,5,0
208,168,84433,5,0
192,240,84797,5,0
192,240,85100,5,0
192,240,85403,5,0
192,240,85767,5,0
192,240,86070,5,0
192,240,86373,5,0
192,240,86736,5,0
192,240,87040,5,0
192,240,87282,5,0
192,240,87585,5,0
192,240,88070,5,0
192,240,88191,1,0
192,240,88494,5,0
192,240,88797,5,0
192,240,89100,5,0
192,240,89403,5,0
192,240,89706,5,0
192,240,90009,5,0
192,240,90312,5,0
192,240,90615,5,0
192,240,91040,5,0
192,240,91403,1,0
192,240,91827,5,0
192,240,92130,5,0
192,240,92494,5,0
192,240,92615,1,0
192,240,92676,1,0
192,240,92797,1,0
192,240,92918,1,0
192,240,92979,1,0
192,240,93100,1,0
192,240,93343,5,0
192,240,93403,1,0
192,240,93585,1,0
192,240,93767,1,0
192,240,94009,5,0
192,240,94191,1,0
192,240,94433,5,0
192,240,94615,5,0
192,240,94858,5,0
192,240,95040,5,0
192,240,95221,1,0
200,112,95646,5,0
432,224,96009,5,0
352,208,96312,5,0
192,176,96676,5,0
192,176,97040,5,0
216,224,97403,5,0
352,208,97767,5,0
208,88,98130,5,0
224,152,98433,5,0
136,160,98797,5,0
192,56,99646,1,0
192,56,99888,5,0
224,120,100191,5,0
280,168,100494,5,0
256,128,100797,5,0
184,288,101343,5,0
296,256,101706,5,0
256,248,101949,5,0
328,232,102191,1,0
320,160,102373,1,0
272,192,102555,1,0
272,192,102676,1,0
256,152,103040,1,0
192,144,103221,1,0
192,144,103343,1,0
160,120,103524,1,0
128,112,103706,1,0
128,112,103888,1,0
184,176,104252,1,0
144,200,104433,1,0
184,176,104615,1,0
208,232,104797,1,0
232,152,105040,1,0
328,144,105282,1,0
360,152,105524,1,0
384,240,105827,1,0
248,208,106130,1,0
264,144,106494,1,0
432,208,106858,1,0
296,264,107161,1,0
192,152,107464,1,0
240,96,107706,1,0
368,128,108009,1,0
344,248,108252,1,0
296,232,108433,1,0
296,232,108615,1,0
296,232,108797,1,0
288,200,108979,1,0
288,200,109161,1,0
288,200,109343,1,0
288,200,109524,1,0
288,200,109949,1,0
288,200,110191,1,0
288,200,110373,1,0
288,200,110555,1,0
288,168,110736,1,0
232,160,110979,1,0
232,160,111161,1,0
232,160,111343,1,0
200,192,111585,1,0
200,192,111767,1,0
200,192,111949,1,0
200,224,112130,1,0
200,224,112373,1,0
216,256,112555,1,0
216,256,112736,1,0
216,256,112979,1,0
264,272,113161,1,0
264,272,113343,1,0
304,264,113767,1,0
304,264,113949,1,0
304,264,114494,1,0
328,192,114918,1,0
328,192,115100,1,0
304,160,115282,1,0
272,152,115524,1,0
232,152,115827,1,0
184,176,116130,1,0
176,216,116373,1,0
112,208,116736,1,0
240,200,116979,1,0
184,176,117282,1,0
240,200,117524,1,0
312,192,117706,1,0
240,200,117949,1,0
376,152,118130,1,0
272,112,118373,1,0
344,144,118736,1,0
200,168,119040,1,0
344,144,119221,1,0
272,144,119767,1,0
272,112,119949,1,0
272,144,120130,1,0
280,288,120312,1,0
280,288,120676,1,0
280,208,120858,1,0
272,144,121161,1,0
240,104,121343,1,0
288,72,121585,1,0
240,104,121767,1,0
176,200,121949,1,0
136,152,122130,1,0
128,192,122252,1,0
152,304,122433,1,0
152,304,122615,1,0
288,72,122858,2,0,B|272:200|272:216,3,200
216,192,125100,1,0
216,192,125282,1,0
64,168,125403,1,0
296,144,125646,1,0
216,192,126009,1,0
216,192,126130,1,0
48,208,126494,1,0
48,208,126979,1,0
128,168,127524,2,0,B|168:176,38,40
64,152,132918,1,0
64,152,134130,1,0
64,152,135403,1,0
64,152,136070,1,0
64,152,136736,1,0
64,152,137100,1,0
64,152,137464,1,0
64,152,137767,1,0
64,152,138130,1,0
64,152,138252,1,0
64,152,138736,1,0
64,152,139040,1,0
64,152,139221,1,0
64,152,139343,1,0
64,152,139706,1,0
144,208,139888,1,0
144,208,140070,1,0
200,232,140191,1,0
320,208,140555,1,0
336,176,140676,1,0
344,128,140858,1,0
232,72,141161,1,0
176,112,141343,1,0
176,112,141524,1,0
272,136,141888,1,0
296,80,142009,1,0
272,136,142191,1,0
224,160,142555,1,0
296,80,142736,1,0
224,160,143161,1,0
272,136,143343,1,0
240,240,143524,1,0
168,256,143706,1,0
240,240,143888,1,0
240,240,144070,1,0
208,272,144252,1,0
240,240,144615,1,0
432,256,144797,1,0
288,216,144979,1,0
280,152,145403,1,0
184,216,145585,1,0
240,112,145949,1,0
240,112,146736,1,0
200,184,147040,1,0
256,192,147282,1,0
208,240,147403,1,0
256,192,147646,1,0
256,192,147827,1,0
344,160,148191,1,0
320,104,148494,1,0
456,128,148858,1,0
464,208,149161,1,0
240,216,149585,1,0
496,216,149888,1,0
240,216,150009,1,0
416,192,150252,1,0
240,216,150312,1,0
240,216,150555,1,0
112,136,150615,1,0
240,216,150858,1,0
168,144,150918,1,0
224,216,150979,1,0
240,216,151040,1,0
232,176,151100,1,0
240,216,151221,1,0
240,216,151464,1,0
128,184,151524,1,0
240,216,151888,1,0
240,216,152130,1,0
240,216,152312,1,0
224,216,152494,1,0
184,232,152918,1,0
224,184,153100,1,0
296,200,153282,1,0
224,120,153646,1,0
224,120,153888,1,0
72,104,154130,1,0
192,168,154615,1,0
336,168,154736,1,0
408,168,154979,1,0
280,136,155282,1,0
256,224,155464,1,0
256,224,155706,1,0
256,224,156009,1,0
232,160,156191,1,0
224,224,156373,1,0
232,160,156736,1,0
224,224,156918,1,0
200,200,157161,1,0
200,200,157282,1,0
200,200,157706,1,0
200,200,157888,1,0
200,200,158130,1,0
200,200,158312,1,0
200,200,158555,1,0
200,200,158736,1,0
216,152,159040,1,0
280,184,159343,1,0
264,256,159585,1,0
144,184,159949,1,0
144,128,160191,1,0
280,184,160433,1,0
184,168,160797,1,0
232,128,160979,1,0
232,128,161221,1,0
256,96,161585,1,0
144,128,161767,1,0
240,216,162191,1,0
216,160,162615,1,0
256,152,162797,1,0
256,152,163221,1,0
432,248,163585,1,0
392,240,163827,1,0
392,240,164009,1,0
392,240,164433,1,0
392,240,164615,1,0
176,184,164797,1,0
176,184,165040,1,0
160,216,165221,1,0
232,208,165706,1,0
264,232,165888,1,0
264,232,166191,1,0
296,256,166555,1,0
296,256,166797,1,0
296,288,167040,1,0
296,288,167221,1,0
296,288,167767,1,0
296,256,168070,1,0
296,256,168312,1,0
296,288,169040,1,0
296,288,169343,1,0
296,256,169767,1,0
240,200,170070,1,0
296,208,170312,1,0
144,168,170676,1,0
176,168,170858,1,0
120,192,171040,1,0
88,288,171403,1,0
136,304,171585,1,0
240,144,171827,1,0
272,176,172555,1,0
208,240,172918,1,0
208,240,173100,1,0
288,240,173403,1,0
272,272,173767,1,0
240,272,173949,1,0
240,272,174373,1,0
208,288,174555,1,0
208,288,174797,1,0
240,272,175221,1,0
272,232,175403,1,0
272,232,175585,1,0
256,80,175949,1,0
208,112,176373,1,0
208,112,176615,1,0
224,56,176797,1,0
144,88,177161,1,0
80,200,178252,1,0
256,208,179464,12,0,180433
256,208,180494,12,0,180979
256,208,181524,12,0,181767
256,208,182252,12,0,182555
256,208,183221,5,0
256,208,183403,1,0
256,208,183585,1,0
256,208,183767,1,0
256,208,183888,1,0
256,208,184070,1,0
256,208,184494,1,0
256,208,184676,1,0
256,208,184858,1,0
256,208,185040,1,0
256,208,185343,1,0
256,208,185646,1,0
256,208,185888,1,0
256,208,186070,1,0
256,208,186252,1,0
256,208,186494,1,0
256,208,186555,1,0
256,208,186736,1,0
256,208,186918,1,0
256,208,187100,1,0
256,208,187343,1,0
256,208,187524,1,0
256,208,187767,1,0
256,208,187949,1,0
256,208,188130,1,0
256,208,188494,1,0
256,208,188676,1,0
256,208,188918,1,0
256,208,189100,1,0
256,208,189585,1,0
256,208,189706,1,0
256,208,189888,1,0
256,208,190130,1,0
256,208,191464,1,0
256,208,191949,5,0
256,208,192918,5,0
256,192,194736,1,0
256,192,195161,5,0
80,112,196070,1,0
264,144,196858,1,0
112,272,197646,1,0
80,128,198736,1,0
160,160,199464,1,0
