osu file format v9

[General]
AudioFilename: Accelerator Heaven.mp3
AudioLeadIn: 0
PreviewTime: 54822
Countdown: 1
SampleSet: Normal
StackLeniency: 0.7
Mode: 0
LetterboxInBreaks: 1

[Editor]
Bookmarks: 9727,17781,27446,33889,40332,46774,54829,61271,67714,74157,80594,80600,87043,93486,99929,106372,112815,119258
DistanceSpacing: 1
BeatDivisor: 4
GridSize: 2

[Metadata]
Title:Accelerator Heaven
Artist:Nico Nico Douga
Creator:Teta
Version:Lv. 7 One-Way Road
Source:Beatmania IIDX Gold
Tags:Second Heaven Gcode Saten-san Ryu

[Difficulty]
HPDrainRate:8
CircleSize:4
OverallDifficulty:9
ApproachRate:9
SliderMultiplier:2
SliderTickRate:2

[Events]
//Background and Video events
Video,0,"vid.avi"
0,0,"360236.png"
//Break Periods
2,67707,73752
2,99921,105766
//Storyboard Layer 0 (Background)
//Storyboard Layer 1 (Fail)
//Storyboard Layer 2 (Pass)
//Storyboard Layer 3 (Foreground)
//Storyboard Sound Samples
//Background Colour Transformations
3,100,163,162,255

[TimingPoints]
9722,402.684563758389,4,1,0,100,1,0
27034,-100,4,2,0,0,0,0
27339,-100,4,2,0,100,0,0
54416,-100,4,2,0,0,0,0
54822,-100,4,1,0,100,0,1
67507,-100,4,1,0,100,0,0
93581,-100,4,2,0,100,0,0
94235,-100,4,1,0,100,0,0
94336,-100,4,2,0,100,0,0
94638,-100,4,1,0,100,0,0
94738,-100,4,2,0,100,0,0
95443,-100,4,1,0,100,0,0
95544,-100,4,2,0,100,0,0
95846,-100,4,1,0,100,0,0
95946,-100,4,2,0,100,0,0
96651,-100,4,1,0,100,0,0
96752,-100,4,2,0,100,0,0
97456,-100,4,1,0,100,0,0
97557,-100,4,2,0,100,0,0
97859,-100,4,1,0,100,0,0
97960,-100,4,2,0,100,0,0
98664,-100,4,1,0,100,0,0
98765,-100,4,2,0,100,0,0
99067,-100,4,1,0,100,0,0
99168,-100,4,2,0,100,0,0
109181,-100,4,2,0,0,0,0
109587,-100,4,1,0,100,0,1
121668,-100,4,1,0,100,0,0
121767,-100,4,2,0,0,0,0

[HitObjects]
408,116,11332,1,0
406,216,11534,2,0,B|406:276|340:304,1,100,0|8
256,296,11936,1,0
156,296,12138,2,0,B|106:276|106:216,1,100,0|0
132,174,12440,1,0
166,138,12540,1,8
256,94,12742,1,0
346,138,12943,1,0
306,230,13144,1,0
206,230,13346,1,8
166,138,13547,1,0
116,224,13748,1,0
156,316,13950,2,0,B|92:328,2,50,0|0|8
256,320,14352,1,8
356,316,14554,5,0
396,224,14755,1,0
346,138,14956,1,8
256,182,15158,1,0
166,138,15359,1,0
116,224,15560,1,0
136,178,15661,1,0
166,138,15762,2,0,B|172:72|216:42,1,100,8|0
305,49,16164,2,0,B|340:72|346:138,1,100
256,182,16567,1,8
306,268,16768,1,0
206,268,16970,1,0
256,182,17171,2,0,B|256:132,2,50,0|0|8
306,268,17574,1,8
156,138,17775,5,4
356,138,17977,1,4
256,138,18178,1,8
256,138,18379,2,0,B|256:35,2,100
256,238,18983,1,8
154,246,19185,5,0
154,246,19285,1,0
154,246,19386,1,4
358,246,19587,1,4
406,158,19789,1,8
352,74,19990,1,0
256,48,20191,1,0
160,74,20393,1,0
106,158,20594,1,8
52,332,20795,5,0
52,332,20896,1,0
52,332,20997,1,4
256,192,21198,1,0
256,192,21399,1,8
460,332,21601,5,0
460,332,21701,1,0
460,332,21802,1,4
256,192,22003,1,0
256,192,22205,1,8
52,332,22406,5,0
52,332,22507,1,0
52,332,22607,1,4
256,192,22809,1,4
256,192,23010,1,8
354,210,23211,1,0
348,310,23413,1,0
256,348,23614,1,0
164,310,23815,1,8
158,210,24017,1,8
256,192,24218,12,0,27037
344,256,27440,5,8
254,300,27641,1,0
168,256,27842,1,2
172,56,28245,2,0,B|320:56|320:184,1,200,8|2
344,256,28849,2,0,B|196:256|196:128,1,200,8|2
256,70,29453,1,2
314,152,29654,1,0
340,56,29856,1,8
414,122,30057,2,0,B|452:188|440:232,1,100,0|8
70,216,30661,5,8
162,256,30862,1,0
256,292,31064,1,2
442,216,31466,1,8
414,120,31668,1,0
340,54,31869,1,0
314,150,32070,1,0
256,68,32272,1,8
198,150,32473,1,0
172,54,32675,2,0,B|76:108|70:220,1,200,8|8
256,292,33480,1,8
256,92,33883,5,12
346,136,34084,1,0
430,192,34285,1,0
256,292,34688,1,12
168,244,34889,1,0
82,192,35091,1,4
256,292,35493,1,8
346,248,35695,1,0
430,192,35896,1,12
346,136,36097,1,0
256,92,36299,1,12
346,136,36500,1,0
430,192,36701,1,8
346,248,36903,1,0
256,206,37104,5,12
86,100,37507,2,0,B|64:214|204:262,1,200,2|12
346,136,38312,1,4
256,92,38513,2,0,B|164:138,1,100,8|0
134,232,38916,1,8
156,330,39117,2,0,B|356:330,1,200,4|12
256,156,39923,2,0,B|256:256,1,100,2|0
350,80,40527,5,0
256,46,40728,1,0
162,80,40930,1,2
350,304,41332,1,0
256,338,41534,1,0
162,304,41735,1,2
350,80,42138,1,0
428,142,42339,1,2
428,242,42540,1,0
350,304,42742,1,2
256,270,42943,1,0
162,304,43144,1,2
84,242,43346,1,2
428,242,43748,5,0
428,142,43950,1,0
350,80,44151,1,2
162,304,44554,1,2
84,242,44755,1,0
84,142,44956,1,2
162,80,45158,1,2
256,114,45359,1,0
350,80,45560,1,2
428,142,45762,1,2
428,242,45963,1,2
350,304,46164,1,0
256,270,46366,1,0
162,304,46567,1,2
184,206,46768,5,4
256,136,46970,1,0
328,206,47171,1,0
350,304,47373,2,0,B|468:304|468:164,1,200,2|0
402,98,47977,1,0
318,44,48178,1,2
256,122,48379,2,0,B|256:222,2,100,4|0|2
194,44,48983,1,0
110,98,49185,1,0
128,196,49386,1,0
192,272,49587,1,2
256,196,49789,2,0,B|326:278,1,100,0|4
384,196,50191,5,2
402,98,50393,1,2
306,70,50594,2,0,B|204:70,1,100,0|4
110,98,50997,1,0
128,196,51198,1,2
192,272,51399,1,2
256,194,51601,1,4
316,274,51802,1,0
384,196,52003,1,6
306,132,52205,2,0,B|198:132,1,100,0|4
256,192,52507,12,0,54419
256,294,54822,5,8
174,238,55024,1,0
186,190,55124,1,0
210,146,55225,1,8
256,124,55326,1,0
302,146,55427,1,0
326,190,55527,1,0
338,238,55628,1,8
432,206,55829,2,0,B|432:104,1,100,0|8
350,48,56232,5,0
302,36,56332,1,0
252,40,56433,2,0,B|172:52|144:94,1,100,8|0
132,118,56735,2,0,B|86:172|100:236,1,100,8|8
98,260,57037,1,0
114,308,57138,1,0
158,332,57238,1,8
258,342,57440,1,0
204,258,57641,1,8
304,266,57842,1,0
256,178,58044,5,8
170,126,58245,1,0
200,86,58346,1,0
248,74,58446,1,8
298,72,58547,2,0,B|360:86,1,50
386,114,58748,1,0
416,154,58849,2,0,B|438:212|418:256,3,100,8|0|8|0
256,316,59654,6,0,B|192:316,2,50,8|0|0
256,216,60057,2,0,B|320:216,2,50,8|0|0
306,128,60460,1,0
206,128,60661,1,0
256,42,60862,2,0,B|256:100,2,50,8|0|8
156,46,61265,5,8
90,120,61466,2,0,B|68:172,1,50
62,216,61668,1,8
64,266,61768,1,0
88,310,61869,1,0
136,324,61970,2,0,B|202:336,1,50,0|8
256,262,62272,1,0
328,332,62473,1,8
382,248,62675,5,0
388,198,62775,1,0
390,148,62876,2,0,B|368:96|300:86,1,100,8|0
264,88,63178,2,0,B|208:76|140:112,1,100,8|0
126,130,63480,1,0
112,178,63581,1,0
126,226,63681,1,8
206,288,63883,1,8
306,288,64084,1,8
384,226,64285,1,8
334,140,64487,5,8
426,102,64688,1,0
450,146,64789,2,0,B|464:208,3,50,0|8|0|0
464,244,65191,1,0
436,286,65292,1,8
340,314,65493,1,0
256,260,65695,1,8
172,208,65896,5,0
172,158,65997,1,0
172,108,66097,2,0,B|280:108,1,100,8|0
322,108,66399,2,0,B|392:108|408:180,1,100,8|0
404,208,66701,1,0
380,252,66802,1,0
346,288,66903,1,8
306,318,67003,1,0
256,328,67104,1,0
206,318,67205,1,8
166,288,67305,1,0
132,252,67406,1,4
108,208,67507,1,12
176,120,74352,5,0
256,60,74554,1,0
336,120,74755,1,8
306,216,74956,2,0,B|202:216,1,100
110,188,75359,1,0
164,272,75560,2,0,B|256:340|348:272,1,200,8|8
402,188,76164,1,0
306,216,76366,1,0
256,130,76567,1,8
206,216,76768,1,0
110,190,76970,2,0,B|72:132|102:84,1,100,8|8
164,284,77574,5,0
256,324,77775,1,8
348,284,77977,2,0,B|416:192|348:100,1,200,8|0
258,56,78581,1,8
164,100,78782,1,8
110,184,78983,1,0
166,268,79185,2,0,B|228:272|270:232,1,100,0|8
256,142,79587,1,0
348,100,79789,1,8
104,268,80594,5,0
106,168,80796,2,0,B|106:108|172:80,1,100,0|8
256,88,81198,1,0
356,88,81400,2,0,B|406:108|406:168,1,100,0|0
380,210,81702,1,0
346,246,81802,1,8
256,290,82004,1,0
166,246,82205,1,0
206,154,82406,1,0
306,154,82608,1,8
346,246,82809,1,0
396,160,83010,1,0
356,68,83212,2,0,B|420:56,2,50,0|0|8
256,64,83614,1,8
156,68,83816,5,0
116,160,84017,1,0
166,246,84218,1,8
256,202,84420,1,0
346,246,84621,1,0
396,160,84822,1,0
376,206,84923,1,0
346,246,85024,2,0,B|340:312|296:342,1,100,8|0
207,335,85426,2,0,B|172:312|166:246,1,100
256,202,85829,1,8
206,116,86030,1,0
306,116,86232,1,0
256,202,86433,2,0,B|256:252,2,50,0|0|8
206,116,86836,1,8
356,246,87037,5,4
156,246,87239,1,4
256,246,87440,1,8
256,246,87641,2,0,B|256:349,2,100
256,146,88245,1,8
358,138,88447,5,0
358,138,88547,1,0
358,138,88648,1,4
154,138,88849,1,4
106,226,89051,1,8
160,310,89252,1,0
256,336,89453,1,0
352,310,89655,1,0
406,226,89856,1,8
460,52,90057,5,0
460,52,90158,1,0
460,52,90259,1,4
256,192,90460,1,0
256,192,90661,1,8
52,52,90863,5,0
52,52,90963,1,0
52,52,91064,1,4
256,192,91265,1,0
256,192,91467,1,8
460,52,91668,5,0
460,52,91769,1,0
460,52,91869,1,4
256,192,92071,1,4
256,192,92272,1,8
158,174,92473,1,0
164,74,92675,1,0
256,36,92876,1,0
348,74,93077,1,8
354,174,93279,1,8
256,36,93480,5,4
182,104,93681,1,8
158,148,93782,1,0
160,198,93883,1,8
192,236,93983,1,0
232,268,94084,2,0,B|300:268,1,50
320,236,94285,1,4
256,160,94487,1,0
354,148,94688,1,4
352,48,94889,5,0
306,26,94990,1,0
256,36,95091,2,0,B|256:138,1,100,8|0
256,186,95393,1,0
256,236,95493,1,4
256,286,95594,1,0
212,310,95695,1,0
164,298,95795,1,0
126,266,95896,2,0,B|88:216|98:152,3,100,4|8|0|8
172,108,96701,5,4
258,56,96903,1,0
306,68,97003,1,0
340,104,97104,1,8
352,152,97205,2,0,B|344:206,1,50
316,244,97406,1,0
268,258,97507,2,0,B|188:266|160:234,1,100,4|0
98,176,97909,1,4
172,108,98111,6,0,B|120:82,2,50,0|0|8
256,162,98513,1,0
296,192,98614,1,0
346,196,98715,1,4
390,172,98815,1,0
410,126,98916,1,0
406,76,99017,1,0
366,46,99117,1,4
266,46,99319,1,8
166,46,99520,2,0,B|96:46|94:104,1,100,0|8
256,192,106366,12,0,109185
256,104,109587,5,8
188,178,109789,1,0
146,204,109889,2,0,B|90:248,1,50,0|8
88,282,110091,1,0
110,326,110191,1,0
158,342,110292,1,0
208,338,110393,1,8
256,250,110594,1,0
304,338,110795,1,8
352,250,110997,5,0
400,238,111097,1,0
444,214,111198,2,0,B|472:166|450:112,1,100,8|0
412,88,111500,2,0,B|354:52|288:68,1,100,8|0
268,74,111802,1,0
226,102,111903,1,0
206,148,112003,1,8
206,248,112205,1,4
305,248,112406,1,4
305,148,112607,1,4
396,192,112809,5,8
386,292,113010,1,0
346,322,113111,1,0
298,334,113211,1,8
248,340,113312,1,0
198,334,113413,1,8
154,312,113513,2,0,B|116:272,1,50,0|8
96,178,113815,1,0
162,102,114017,1,8
256,68,114218,6,0,B|256:122,2,50,0|0|8
356,68,114621,1,0
400,92,114721,2,0,B|442:136|430:192,1,100
422,232,115024,1,0
390,270,115124,1,0
342,284,115225,1,8
254,236,115426,1,12
306,150,115628,1,12
206,150,115829,1,12
112,184,116030,5,8
142,280,116232,1,4
184,306,116332,1,0
232,320,116433,1,12
282,318,116534,1,0
330,304,116634,2,0,B|352:294,4,25,0|0|0|0|12
256,236,117037,1,0
256,136,117238,1,8
316,56,117440,5,0
354,88,117540,1,0
378,132,117641,2,0,B|404:196|378:256,1,100
368,276,117943,1,0
324,298,118044,2,0,B|282:312,8,25,8|0|0|0|0|0|0|0|12
318,198,118648,1,8
256,120,118849,1,0
194,198,119050,1,8
126,124,119252,5,8
72,208,119453,1,0
86,256,119554,1,0
120,292,119654,2,0,B|146:310,8,25,4|0|0|0|0|0|0|0|12
214,328,120258,1,8
304,284,120460,6,0,B|328:276,4,25,0|0|0|0|0
256,268,120762,1,0
256,218,120862,2,0,B|256:100,1,100
256,67,121164,1,8
156,58,121366,1,8
156,108,121466,1,0
156,158,121567,1,0
156,208,121668,1,4
256,192,121768,12,0,124084
