osu file format v9

[General]
AudioFilename: Accelerator Heaven.mp3
AudioLeadIn: 0
PreviewTime: 54822
Countdown: 1
SampleSet: Normal
StackLeniency: 0.7
Mode: 0
LetterboxInBreaks: 1

[Editor]
Bookmarks: 9727,17781,27446,33889,40332,46774,54829,61271,67714,74157,80594,80600,87043,93486,99929,106372,112815,119258
DistanceSpacing: 1
BeatDivisor: 2
GridSize: 2

[Metadata]
Title:Accelerator Heaven
Artist:Nico Nico Douga
Creator:Teta
Version:Lv. 0 Lolicon
Source:Beatmania IIDX Gold
Tags:Second Heaven Gcode Saten-san Ryu

[Difficulty]
HPDrainRate:0
CircleSize:3
OverallDifficulty:0
ApproachRate:0
SliderMultiplier:0.799999999999999
SliderTickRate:1

[Events]
//Background and Video events
Video,0,"vid.avi"
0,0,"360236.png"
//Break Periods
2,67707,72351
2,99317,104566
//Storyboard Layer 0 (Background)
//Storyboard Layer 1 (Fail)
//Storyboard Layer 2 (Pass)
//Storyboard Layer 3 (Foreground)
//Storyboard Sound Samples
//Background Colour Transformations
3,100,163,162,255

[TimingPoints]
9722,402.684563758389,4,1,0,100,1,0
27034,-100,4,2,0,0,0,0
27339,-100,4,2,0,100,0,0
54416,-100,4,2,0,0,0,0
54822,-100,4,1,0,100,0,1
67507,-100,4,1,0,100,0,0
93581,-100,4,2,0,100,0,0
94235,-100,4,1,0,100,0,0
94336,-100,4,2,0,100,0,0
94638,-100,4,1,0,100,0,0
94738,-100,4,2,0,100,0,0
95443,-100,4,1,0,100,0,0
95544,-100,4,2,0,100,0,0
95846,-100,4,1,0,100,0,0
95946,-100,4,2,0,100,0,0
96651,-100,4,1,0,100,0,0
96752,-100,4,2,0,100,0,0
97456,-100,4,1,0,100,0,0
97557,-100,4,2,0,100,0,0
97859,-100,4,1,0,100,0,0
97960,-100,4,2,0,100,0,0
98664,-100,4,1,0,100,0,0
98765,-100,4,2,0,100,0,0
99067,-100,4,1,0,100,0,0
99168,-100,4,2,0,100,0,0
109181,-100,4,2,0,0,0,0
109587,-100,4,1,0,100,0,1
121668,-100,4,1,0,100,0,0
121767,-100,4,2,0,0,0,0

[HitObjects]
256,50,11332,1,0
332,190,12138,2,0,B|256:232|180:190,2,160,8|0|8
396,142,14151,1,8
438,210,14554,6,0,B|438:306|326:306,1,160,0|8
176,306,16164,1,0
62,194,16970,2,0,B|62:114,1,79.9999999999999,8|8
136,82,17775,5,4
376,302,19386,5,4
146,312,20997,5,4
256,192,21802,5,4
366,72,22607,5,4
256,192,24218,12,0,27037
376,304,27440,5,2
256,198,28245,2,0,B|256:70,2,120,2|2|0
256,278,29856,1,2
176,140,30661,5,2
336,140,31466,2,0,B|438:140|438:200,2,120,2|2|0
256,140,33077,1,2
256,300,33883,5,4
138,192,34688,1,8
178,122,35091,2,0,B|256:92|334:122,1,160
374,192,36299,1,8
256,300,37104,5,4
374,192,37909,1,8
334,122,38312,2,0,B|256:92|178:122,1,160
138,192,39520,1,8
256,300,40326,5,2
374,192,41131,1,0
256,84,41936,1,2
138,192,42742,2,0,B|200:120,1,79.9999999999999
256,84,43547,5,2
138,192,44352,1,0
256,300,45157,1,2
374,192,45963,2,0,B|310:268,1,79.9999999999999
256,300,46768,6,0,B|148:300|148:178,1,160,4|0
256,84,48379,2,0,B|364:84|364:206,1,160,4|0
304,234,49587,1,2
256,170,49990,5,4
166,302,50795,1,4
82,166,51601,2,0,B|164:166,2,79.9999999999999,4|0|6
256,192,53211,12,0,54419
256,74,54822,5,8
336,74,55225,1,0
384,138,55628,2,0,B|384:240|264:240,1,160,8|8
204,239,56836,2,0,B|119:239,2,79.9999999999999,0|8|0
204,158,58044,6,0,B|204:62|328:62,2,160,8|0|8
216,238,60057,1,0
296,238,60460,1,8
308,158,60862,1,4
376,116,61265,5,0
412,272,62070,1,8
256,310,62876,2,0,B|72:266,1,160,0|8
88,194,64084,1,0
134,128,64487,5,0
256,232,65292,1,8
378,128,66097,2,0,B|460:128,1,79.9999999999999,8|0
458,208,66903,2,0,B|336:208,1,120,4|4
176,120,74151,6,0,B|340:120,2,160,8|0|8
216,276,76567,1,8
296,276,76970,1,0
360,228,77373,5,8
256,106,78178,1,0
152,228,78983,2,0,B|152:312,2,79.9999999999999,8|0|8
256,334,80594,5,0
180,194,81400,2,0,B|256:152|332:194,2,160,8|0|8
116,242,83413,1,8
74,174,83816,6,0,B|74:78|186:78,1,160,0|8
336,78,85426,1,0
450,190,86232,2,0,B|480:284|372:304,1,160,12|4
136,82,88648,5,4
366,72,90259,5,4
256,192,91064,5,4
146,312,91869,5,4
366,72,93480,6,0,B|420:144|384:240,1,160,0|8
330,276,94688,2,0,B|256:328|182:276,1,160
150,202,95896,1,8
256,82,96701,5,0
150,202,97507,1,8
200,264,97909,2,0,B|360:264,1,160
440,264,99117,1,8
256,192,106366,12,0,109185
156,212,109587,5,0
186,138,109990,1,0
256,98,110393,2,0,B|340:130|358:216,2,160,8|0|8
186,138,112406,1,4
156,212,112809,5,0
190,284,113211,2,0,B|268:338,1,79.9999999999999,8|0
322,284,114017,1,8
356,212,114419,2,0,B|392:136|324:56,1,160,0|4
170,62,116030,6,0,B|122:106|116:172,2,120,0|4|0
250,62,117641,1,0
316,108,118044,1,8
364,172,118446,2,0,B|364:260,1,79.9999999999999,0|8
308,310,119252,5,0
228,310,119654,2,0,B|136:304|120:248,2,120,8|0|0
256,234,121265,1,0
256,154,121668,1,4
256,192,121768,12,0,124084
