osu file format v12

[General]
AudioFilename: SPiCa-NicoNicoChorus.mp3
AudioLeadIn: 0
PreviewTime: 74691
Countdown: 0
SampleSet: Soft
StackLeniency: 0.7
Mode: 0
LetterboxInBreaks: 0
WidescreenStoryboard: 0

[Editor]
DistanceSpacing: 1
BeatDivisor: 4
GridSize: 4

[Metadata]
Title:SPiCa
TitleUnicode:SPiCa
Artist:Nico Nico Chorus
ArtistUnicode:Nico Nico Chorus
Creator:xXCrystalMoonAnimeXx
Version:Insane Collab
Source:Nico Nico Douga
Tags:Vocaloid2 Vocaloid Hatsune Miku Sun_Rainbow Sun Rainbow Douga Regou collab collaboration Toku-P Headphone-Tokyo NicoNico Wataame Mei Kuripurin Himawari Lino Noir Nico Nico Douga
BeatmapID:270686
BeatmapSetID:41000

[Difficulty]
HPDrainRate:7
CircleSize:4
OverallDifficulty:7
ApproachRate:8
SliderMultiplier:1.6
SliderTickRate:2

[Events]
//Background and Video events
0,0,"SPiCa_Headphone-Tokyo.jpg",0,0
Video,272,"SPiCa.avi"
//Break Periods
2,144505,155420
//Storyboard Layer 0 (Background)
//Storyboard Layer 1 (Fail)
Sprite,Fail,Centre,"Fail_SR.png",320,240 R,0,62828,,0 M,0,62828,63568,603,309,555,205 S,0,62828,63568,0.1,1 M,0,63568,65791,555,205,555,206 S,0,63568,65791,1 M,0,65791,66161,555,206,597,317 S,0,65791,66161,1,0.1
Sprite,Fail,Centre,"Fail_RG.png",320,240 M,0,132457,,428,397 S,0,132457,132643,0.1,0.7760001 S,0,132643,132828,0.7760001,0.562667 S,0,132828,133013,0.562667,0.9786667 S,0,133013,133198,0.9786667,0.562667 S,0,133198,133383,0.562667,0.9146668 S,0,133383,133568,0.9146668,0.6693335 S,0,133568,133754,0.6693335,0.562667 S,0,133754,133939,0.562667,0.1
//Storyboard Layer 2 (Pass)
Sprite,Pass,Centre,"Pass_SR.png",320,240 R,0,62828,,0 M,0,62828,63568,603,309,555,205 S,0,62828,63568,0.1,1 M,0,63568,65791,555,205,555,206 S,0,63568,65791,1 M,0,65791,66161,555,206,597,317 S,0,65791,66161,1,0.1
Sprite,Pass,Centre,"Pass_RG.png",320,240 S,0,132455,,0.6906665 M,0,132455,132825,693,442,341,449 M,0,132825,133566,341,449,398,450 M,0,133566,133936,398,450,702,442
//Storyboard Layer 3 (Foreground)
Sprite,Foreground,Centre,"SR.png",320,240 M,0,1902,2457,741,362,641,365 R,0,1902,2457,0,-0.4906671 M,0,2457,,641,365 M,0,2457,2828,641,365 R,0,2457,2828,-0.4906671,-0.4434152 R,0,2828,3383,-0.4434152,0 M,0,2828,3569,641,365,539,364 R,0,3383,3569,0 M,0,3569,95420,539,364 R,0,3569,95420,0 R,0,95420,98383,0 M,0,95420,100606,539,364,739,363 R,0,98383,98568,0,-0.4266663 R,0,98568,98754,-0.4266663,0
Sprite,Foreground,Centre,"RG.png",320,240 M,0,101346,104309,727,365 M,0,104309,107272,727,365,572,362 M,0,107272,208013,572,362,577,364 R,0,119124,119309,0,-0.08533325 R,0,119309,119494,-0.08533325,0 M,0,208013,212457,577,364,727,365
Sprite,Foreground,Centre,"SR_Name.png",320,240 M,0,3569,,426,371 S,0,3569,,0.5733334 F,0,3569,3939,0,1 F,0,3939,95420,1 F,0,95420,96902,1,0
Sprite,Foreground,Centre,"RG_Name.png",320,240 M,0,107272,,567,270 S,0,107272,,0.6053333 C,0,107272,,0,0,0 F,0,107272,107643,0,1 F,0,107643,208013,1 F,0,208013,210976,1,0
//Storyboard Sound Samples
//Background Colour Transformations
3,100,163,162,255

[TimingPoints]
3590,370.37037037037,4,2,1,35,1,0
14052,-100,4,2,1,20,0,0
14515,-100,4,2,1,15,0,0
15441,-100,4,2,1,25,0,0
27108,-200,4,2,1,45,0,0
28775,368.098159509202,4,2,0,35,1,0
28775,-200,4,2,0,35,0,0
30247,370.37037037037,4,2,0,35,1,0
30617,-200,4,2,0,35,0,0
33950,-200,4,2,0,45,0,0
36172,-133.333333333333,4,2,0,45,0,0
42098,-133.333333333333,4,2,0,35,0,0
42839,-133.333333333333,4,2,0,45,0,0
51728,-133.333333333333,4,2,0,60,0,0
53580,-133.333333333333,4,2,0,40,0,0
54321,-133.333333333333,4,2,0,60,0,0
74691,-100,4,2,1,60,0,1
78209,-100,4,1,1,60,0,1
78395,-100,4,2,1,60,0,1
90987,-100,4,2,1,60,0,1
91172,-100,4,2,2,60,0,1
91358,-100,4,2,1,60,0,1
93950,-100,4,2,2,45,0,1
94691,-100,4,2,2,40,0,1
95061,-100,4,2,2,60,0,1
95246,-100,4,1,0,60,0,1
95432,-100,4,1,0,60,0,0
95617,-100,4,2,0,70,0,0
95802,-100,4,2,1,50,0,0
108765,-100,4,1,0,50,0,0
108950,-133.333333333333,4,2,1,50,0,0
113580,-100,4,2,1,50,0,0
128765,-133.333333333333,4,2,1,50,0,0
129506,-200,4,2,1,50,0,0
130061,-100,4,2,1,50,0,0
130617,319.148936170213,4,2,0,35,1,0
130936,337.078651685393,4,2,0,35,1,0
131273,394.736842105263,4,2,0,35,1,0
132455,370.37037037037,4,2,0,35,1,0
132455,-200,4,2,0,60,0,0
132825,-200,4,2,0,40,0,0
138380,370.37037037037,4,2,0,35,1,0
138380,-200,4,2,0,35,0,0
139861,-200,4,2,0,35,0,0
144120,-200,4,2,0,10,0,0
144305,-200,4,2,0,30,0,0
151713,365.853658536585,4,2,0,35,1,0
153176,363.636363636364,4,2,0,35,1,0
154266,405.405405405405,4,2,0,35,1,0
154670,375,4,2,0,35,1,0
156170,370.37037037037,4,2,0,35,1,0
156170,-133.333333333333,4,2,0,35,0,0
163577,-133.333333333333,4,2,1,35,0,0
165058,-76.9230769230769,4,2,1,65,0,1
176818,-76.9230769230769,4,2,1,65,0,0
176910,-76.9230769230769,4,2,1,65,0,1
185429,-76.9230769230769,4,2,0,55,0,1
185799,-76.9230769230769,4,2,1,70,0,0
187281,-100,4,2,1,70,0,0
192095,-100,4,2,2,70,0,0
192188,-100,4,2,1,70,0,0
192836,-100,4,2,2,70,0,0
192928,-100,4,2,1,70,0,0
195058,-100,4,2,2,70,0,0
195984,-100,4,2,1,70,0,0
207651,-100,4,2,1,30,0,0
208021,-100,4,2,1,10,0,0

[Colours]
Combo1 : 70,186,255
Combo2 : 44,243,184
Combo3 : 196,136,255

[HitObjects]
92,160,3590,2,0,B|92:116|128:84|180:76|220:100,1,160,2|0,0:0|0:0,0:0:0:0:
168,164,4145,1,0,0:0:0:0:
248,168,4330,2,0,B|248:212|212:244|160:252|129:233,1,160,2|0,0:0|0:0,0:0:0:0:
168,164,4886,2,0,B|200:136|176:92|176:92|244:32,2,160,0|0|0,0:0|0:0|0:0,0:0:0:0:
100,124,5812,2,0,B|80:164|97:201,1,80,2|0,0:0|0:0,0:0:0:0:
166,240,6182,2,0,B|190:204|166:160,1,80,0|0,0:0|0:0,0:0:0:0:
228,108,6552,2,0,B|304:72|388:92,2,160,2|0|2,0:0|0:0|0:0,0:0:0:0:
165,240,7478,6,0,B|165:332,1,80,0|0,0:0|0:0,0:0:0:0:
244,348,7849,1,0,0:0:0:0:
280,276,8034,1,2,0:0:0:0:
396,348,8219,1,0,0:0:0:0:
360,276,8404,1,0,0:0:0:0:
388,204,8589,2,0,B|432:136|392:44,2,160,0|0|0,0:0|0:0|0:0,0:0:0:0:
316,168,9515,6,0,B|280:144|220:160,1,80,2|0,0:0|0:0,0:0:0:0:
184,216,9886,2,0,B|212:244|264:232,1,80,0|0,0:0|0:0,0:0:0:0:
340,240,10256,2,0,B|396:304|344:380|272:372,2,160,2|0|2,0:0|0:0|0:0,0:0:0:0:
420,224,11182,6,0,B|452:192|440:144,1,80,0|2,0:0|0:0,0:0:0:0:
340,93,11552,2,0,B|368:124|364:168,1,80,0|2,0:0|0:0,0:0:0:0:
208,184,11923,2,0,P|248:152|280:156,2,80
312,232,12478,6,0,B|328:280|300:320|240:320|216:272,1,160,0|2,0:0|0:0,0:0:0:0:
140,285,13034,2,0,B|232:277,1,80
240,200,13404,1,0,0:0:0:0:
312,232,13589,2,0,B|352:248|368:292,2,80,2|0|0,0:0|0:0|0:0,0:0:0:0:
288,308,14145,1,2,0:0:0:0:
432,340,14330,2,0,B|456:312|444:264,1,79.9999952316285,2|0,0:0|0:0,0:0:0:0:
128,84,15071,5,2,0:0:0:0:
188,136,15256,1,0,0:0:0:0:
200,56,15441,2,0,P|272:24|352:60,1,160,2|2,0:0|0:0,0:0:0:0:
324,128,15997,1,0,0:0:0:0:
408,116,16182,6,0,B|416:164|368:208,1,80,2|0,0:0|0:0,0:0:0:0:
320,244,16552,1,0,0:0:0:0:
236,244,16738,2,0,B|164:304|48:280,1,159.999990463257
48,216,17293,1,2,0:0:0:0:
108,160,17478,2,0,B|156:92|120:-4,1,159.999990463257
204,36,18034,1,2,0:0:0:0:
276,4,18219,1,0,0:0:0:0:
272,84,18404,2,0,B|224:152|260:248,1,159.999990463257
320,272,18960,1,0,0:0:0:0:
380,216,19145,6,0,L|468:216,1,80,2|0,0:0|0:0,0:0:0:0:
320,272,19515,2,0,B|228:272,1,79.9999952316285,2|0,0:0|0:0,0:0:0:0:
236,192,19886,1,2,0:0:0:0:
380,216,20071,1,0,0:0:0:0:
440,160,20256,2,0,B|456:124|440:76,1,79.9999952316285,2|0,0:0|0:0,0:0:0:0:
296,56,20627,2,0,B|272:100|304:168,1,79.9999952316285,2|0,0:0|0:0,0:0:0:0:
236,192,20997,1,2,0:0:0:0:
380,216,21182,1,0,0:0:0:0:
308,324,21367,5,2,0:0:0:0:
228,336,21552,2,0,B|220:296|184:272,1,80,0|2,0:0|0:0,0:0:0:0:
160,196,21923,1,0,0:0:0:0:
236,192,22108,2,0,P|330:233|384:213,1,160,2|2,0:0|0:0,0:0:0:0:
380,216,22664,1,2,0:0:0:0:
396,88,22849,5,2,0:0:0:0:
252,88,23219,1,2,0:0:0:0:
320,212,23589,1,2,0:0:0:0:
204,292,23960,6,0,B|164:276|120:300,1,79.9999952316285,2|0,0:0|0:0,0:0:0:0:
56,292,24330,2,0,B|80:216|52:132,1,159.999990463257,2|2,0:0|0:0,0:0:0:0:
4,72,24886,1,0,0:0:0:0:
52,135,25071,2,2,B|92:211|200:211,1,159.999990463257
220,144,25627,1,0,0:0:0:0:
288,68,25812,2,2,B|352:144|288:220,1,160,2|2,0:0|0:0,0:0:0:0:
264,296,26367,1,2,0:0:0:0:
148,288,26552,5,4,1:0:0:0:
220,144,26738,1,0,0:0:0:0:
268,296,26923,1,2,0:0:0:0:
220,144,27108,1,0,0:0:0:0:
376,228,27293,6,0,B|416:168|384:104,1,119.999992847443,4|2,0:0|0:0,0:0:0:0:
336,52,28034,2,0,B|296:112|328:176,1,119.999992847443,0|2,0:0|0:0,0:0:0:0:
244,208,28775,2,0,B|180:272,2,79.9999952316285,4|0|0,0:0|0:0|0:0,0:0:0:0:
116,224,29879,6,0,P|88:256|36:260,1,80,2|4,0:0|0:0,0:0:0:0:
0,200,30617,2,0,P|24:176|68:164,1,80,0|2,0:0|0:0,0:0:0:0:
116,100,31172,1,0,0:0:0:0:
116,100,31358,2,0,L|208:120,1,80,0|4,0:0|0:0,0:0:0:0:
292,20,32098,1,2,0:0:0:0:
408,96,32469,5,0,0:0:0:0:
336,128,32654,1,0,0:0:0:0:
300,200,32839,2,0,B|276:248|284:284,1,79.9999952316285,0|4,0:0|0:0,0:0:0:0:
176,276,33395,1,0,0:0:0:0:
84,228,33580,1,2,0:0:0:0:
84,227,33950,6,0,B|64:261|76:305,1,80,2|0,0:0|0:0,0:0:0:0:
157,139,34691,2,0,B|132:104|88:108,2,80,4|2|0,0:0|0:0|0:0,0:0:0:0:
184,256,35987,1,0,0:0:0:0:
208,232,36080,1,0,0:0:0:0:
236,212,36172,2,0,B|260:248|264:296|224:340|164:344|124:308|120:268,1,239.999985694885,4|0,0:0|0:0,0:0:0:0:
88,108,37284,6,0,B|148:100|212:120,1,119.999992847443,2|4,0:0|0:0,0:0:0:0:
320,156,37839,1,0,0:0:0:0:
432,204,38024,1,2,0:0:0:0:
356,296,38209,1,0,0:0:0:0:
244,252,38395,1,2,0:0:0:0:
320,156,38765,5,0,0:0:0:0:
488,304,39135,6,0,B|443:345,1,59.9999987125397,2|0,0:0|0:0,0:0:0:0:
356,295,39506,2,0,B|308:330,1,59.9999987125397
244,252,39876,2,0,B|220:196|240:128,2,119.999992847443,0|2|0,0:0|0:0|0:0,0:0:0:0:
244,252,40802,2,0,B|268:308|248:376,1,119.999992847443,0|0,0:0|0:0,0:0:0:0:
168,316,41358,1,0,0:0:0:0:
84,352,41543,1,2,0:0:0:0:
84,352,41635,1,0,0:0:0:0:
84,352,41728,2,0,B|48:360|20:344,1,59.9999987125397,0|0,0:0|0:0,0:0:0:0:
60,252,42098,2,0,B|85:242|120:252,1,59.9999987125397,6|0,0:0|0:0,0:0:0:0:
244,252,42469,1,0,0:0:0:0:
308,328,42654,5,0,0:0:0:0:
308,328,42839,2,0,B|352:316|352:316|372:292|388:240,1,120.000004577637,2|0,0:0|0:0,0:0:0:0:
312,160,43395,2,0,P|272:172|232:164,1,60.0000022888184
308,64,43765,2,0,B|359:33|425:58,1,119.999997425079,0|0,0:0|0:0,0:0:0:0:
456,136,44321,1,2,0:0:0:0:
370,125,44506,2,0,B|382:257,1,119.999992847443,0|0,0:0|0:0,0:0:0:0:
448,340,45061,6,0,B|388:368|321:345,1,119.999997425079,4|0,0:0|0:0,0:0:0:0:
296,268,45617,1,0,0:0:0:0:
382,244,45802,2,0,B|364:208|349:175,1,59.9999987125397
331,135,46172,1,0,0:0:0:0:
272,136,46358,6,0,B|197:248,1,119.999997425079,2|2,0:0|0:0,0:0:0:0:
145,235,46913,1,0,0:0:0:0:
112,284,47098,1,2,0:0:0:0:
76,336,47284,2,0,B|15:319,1,59.9999987125397
16,252,47654,5,0,0:0:0:0:
40,148,47839,1,2,0:0:0:0:
146,163,48024,2,0,B|224:176|250:257,1,119.999997425079,4|0,0:0|0:0,0:0:0:0:
308,232,48580,1,0,0:0:0:0:
376,232,48765,2,0,B|392:168|476:148,1,119.999997425079
458,152,49321,5,2,0:0:0:0:
396,52,49506,1,0,0:0:0:0:
284,100,49691,1,2,0:0:0:0:
459,153,49876,6,0,B|424:96,1,60.0000022888184,2|0,0:0|0:0,0:0:0:0:
396,52,50246,2,0,B|336:76,1,60.0000022888184,0|0,0:0|0:0,0:0:0:0:
284,100,50617,1,2,0:0:0:0:
284,160,50802,1,0,0:0:0:0:
312,212,50987,1,4,0:0:0:0:
240,304,51358,6,0,B|195:378,1,59.9999987125397,0|2,0:0|0:0,0:0:0:0:
128,368,51728,2,0,P|56:368|16:328,1,120.000004577637,0|2,0:0|0:0,0:0:0:0:
96,276,52284,2,0,B|124:252|124:212,1,59.9999946355822,0|2,0:0|0:0,0:0:0:0:
204,236,52654,2,0,B|212:200|188:176,1,59.9999946355822,0|2,0:0|0:0,0:0:0:0:
268,132,53024,2,0,B|312:180|288:256,1,119.999989271164
328,336,53580,2,0,B|276:276|204:300,1,119.999989271164,2|4,0:0|0:0,0:0:0:0:
72,132,54321,5,0,0:0:0:0:
148,88,54506,1,2,0:0:0:0:
220,132,54691,1,0,0:0:0:0:
148,172,54876,1,0,0:0:0:0:
220,216,55061,1,0,0:0:0:0:
220,132,55246,2,0,B|268:92|340:108,2,119.999989271164,2|0|2,0:0|0:0|0:0,0:0:0:0:
148,172,56172,2,0,B|104:212|16:204,2,119.999989271164,0|2|4,0:0|0:0|0:0,0:0:0:0:
220,216,57098,5,2,0:0:0:0:
368,216,57284,1,0,0:0:0:0:
220,216,57469,1,0,0:0:0:0:
296,136,57654,2,0,B|332:124|364:140|364:140|408:36,1,179.999983906747,2|2,0:0|0:0,0:0:0:0:
368,216,58395,6,0,B|344:252|296:260,1,59.9999946355822,2|2,0:0|0:0,0:0:0:0:
288,332,58765,2,0,B|248:312|240:268,1,60.0000022888184,0|2,0:0|0:0,0:0:0:0:
160,304,59135,2,0,P|164:260|184:224,1,60.0000022888184,2|0,0:0|0:0,0:0:0:0:
256,216,59506,1,2,0:0:0:0:
196,168,59691,1,0,0:0:0:0:
224,96,59876,6,0,L|360:88,1,120.000004577637,4|0,0:0|0:0,0:0:0:0:
408,140,60432,1,0,0:0:0:0:
392,220,60617,2,0,P|352:260|280:252,1,120.000004577637,0|2,0:0|0:0,0:0:0:0:
228,212,61172,6,0,B|160:196,1,60.0000022888184
96,264,61543,2,0,B|232:296,1,119.999997425079,2|0,0:0|0:0,0:0:0:0:
312,228,62098,1,0,0:0:0:0:
364,160,62284,1,2,0:0:0:0:
324,80,62469,1,0,0:0:0:0:
232,92,62654,1,0,0:0:0:0:
224,184,62839,5,6,0:0:0:0:
112,148,63209,1,0,0:0:0:0:
36,240,63395,1,0,0:0:0:0:
144,292,63580,2,0,P|200:308|236:360,1,120.000004577637,0|0,1:0|0:0,0:0:0:0:
352,336,64135,1,0,0:0:0:0:
312,228,64321,2,0,P|346:179|402:163,1,120.000004577637,4|0,0:0|0:0,0:0:0:0:
464,332,65061,1,0,1:0:0:0:
288,300,65432,1,0,0:0:0:0:
401,163,65802,6,0,P|421:91|401:23,2,120.000004577637,4|2|0,0:0|0:0|0:0,0:0:0:0:
228,216,66913,1,2,0:0:0:0:
72,124,67284,5,0,1:0:0:0:
20,196,67469,1,4,0:0:0:0:
84,260,67654,1,0,0:0:0:0:
136,184,67839,1,0,0:0:0:0:
217,144,68024,2,0,P|151:90|72:124,1,180.000006866455,0|0,1:0|0:0,0:0:0:0:
212,236,68765,5,4,0:0:0:0:
356,344,69135,1,0,0:0:0:0:
468,204,69506,2,0,P|428:152|432:88,2,120.000004577637,0|2|0,0:0|0:0|0:0,0:0:0:0:
440,16,70432,2,0,P|360:32|344:88,1,120.000004577637
312,144,70987,1,2,0:0:0:0:
252,212,71172,1,0,0:0:0:0:
172,172,71358,1,2,0:0:0:0:
176,84,71543,1,0,0:0:0:0:
264,60,71728,5,4,0:0:0:0:
284,96,72469,5,4,0:0:0:0:
300,132,73209,5,4,0:0:0:0:
256,192,73302,12,0,74321,0:0:0:0:
48,112,74691,6,0,B|80:80|132:80,1,79.9999952316285,4|2,0:0|0:0,0:0:0:0:
168,144,75061,1,8,0:0:0:0:
168,144,75246,2,0,B|212:168|248:152,1,79.9999952316285,2|0,0:0|0:0,0:0:0:0:
292,216,75617,2,0,B|332:188|328:136,1,79.9999952316285,2|8,0:0|0:0,0:0:0:0:
408,156,75987,2,0,B|428:112|400:68,1,80,2|4,0:0|0:0,0:0:0:0:
332,120,76358,5,2,0:0:0:0:
292,120,76450,1,0,0:0:0:0:
252,120,76543,2,0,B|172:120,2,79.9999952316285,8|2|8,0:0|0:0|0:0,0:0:0:0:
252,200,77098,1,2,0:0:0:0:
308,256,77284,2,0,P|364:248|416:256,1,80,8|2,0:0|0:0,0:0:0:0:
486,163,77654,2,0,P|430:155|378:163,1,80,8|2,0:0|0:0,0:0:0:0:
336,120,78024,6,8,P|272:120|168:116,1,160
128,52,78580,1,2,0:0:0:0:
48,64,78765,1,8,0:0:0:0:
96,128,78950,1,2,0:0:0:0:
124,204,79135,1,8,0:0:0:0:
136,208,79228,1,0,0:0:0:0:
148,212,79321,2,0,B|184:232|232:232,1,79.9999952316285,2|10,0:0|0:0,0:0:0:0:
292,272,79691,1,2,0:0:0:0:
304,268,79784,1,0,0:0:0:0:
316,264,79876,6,0,B|360:260|408:232,1,79.9999952316285,8|2,0:0|0:0,0:0:0:0:
468,264,80246,2,8,B|488:176|464:104,1,159.999990463257,8|12,0:0|0:0,0:0:0:0:
396,68,80802,1,2,0:0:0:0:
396,68,80895,1,0,0:0:0:0:
396,68,80987,2,0,B|352:52|312:68,1,79.9999952316285,8|2,0:0|0:0,0:0:0:0:
300,144,81358,2,0,B|344:156|388:144,1,79.9999952316285,8|2,0:0|0:0,0:0:0:0:
388,228,81728,1,8,0:0:0:0:
452,180,81913,1,2,0:0:0:0:
468,264,82098,6,0,P|436:300|392:316,2,80,8|2|8,0:0|0:0|0:0,0:0:0:0:
328,284,82654,2,2,P|272:304|160:308,1,160
72,304,83209,1,8,0:0:0:0:
52,208,83395,1,2,0:0:0:0:
108,128,83580,6,0,L|72:48,1,80,4|2,0:0|0:0,0:0:0:0:
172,184,83950,2,0,L|248:140,1,80,8|2,0:0|0:0,0:0:0:0:
164,264,84321,2,0,L|216:336,1,80,8|2,0:0|0:0,0:0:0:0:
224,344,84598,1,0,0:0:0:0:
236,360,84691,2,0,P|268:328|324:308,1,80,8|2,0:0|0:0,0:0:0:0:
256,192,85061,12,4,86172,0:0:0:0:
344,132,86543,5,4,0:0:0:0:
344,132,86728,1,2,0:0:0:0:
288,236,86913,1,8,0:0:0:0:
400,192,87098,1,2,0:0:0:0:
276,164,87284,1,8,0:0:0:0:
364,252,87469,2,0,B|356:296|304:316,1,80,2|8,0:0|0:0,0:0:0:0:
344,132,87839,6,0,B|376:100|424:116,1,80,2|8,0:0|0:0,0:0:0:0:
276,164,88209,1,2,0:0:0:0:
260,152,88302,1,0,0:0:0:0:
244,140,88395,2,0,B|216:104|220:44,1,80,8|2,0:0|0:0,0:0:0:0:
416,40,88765,1,8,0:0:0:0:
320,40,88950,5,2,0:0:0:0:
296,40,89043,1,0,0:0:0:0:
272,40,89135,2,0,B|188:40,1,79.9999952316285,8|2,0:0|0:0,0:0:0:0:
136,96,89506,2,0,B|100:136|136:196,1,79.9999952316285,8|2,0:0|0:0,0:0:0:0:
184,224,89876,2,0,B|232:180|212:112,1,119.999992847443,8|0,0:0|0:0,0:0:0:0:
212,114,90246,2,0,B|300:136,1,79.9999952316285,8|2,0:0|0:0,0:0:0:0:
296,212,90617,6,0,B|212:212,1,79.9999952316285,8|2,0:0|0:0,0:0:0:0:
180,268,90987,2,8,B|224:196|212:112,1,159.999990463257,8|12,0:0|0:0,0:0:0:0:
136,96,91543,1,2,0:0:0:0:
72,160,91728,5,8,0:0:0:0:
104,232,91913,2,0,B|136:316,1,79.9999952316285,2|8,0:0|0:0,0:0:0:0:
196,160,92284,5,2,0:0:0:0:
216,200,92376,1,0,0:0:0:0:
236,232,92469,2,0,B|276:312,1,79.9999952316285,4|2,0:0|0:0,0:0:0:0:
344,264,92839,2,0,B|384:248|440:260,2,79.9999952316285,8|2|0,0:0|0:0|0:0,0:0:0:0:
304,196,93395,2,0,B|324:156|300:108,2,79.9999952316285,2|8|2,0:0|0:0|0:0,0:0:0:0:
196,160,93950,6,0,B|100:136,1,79.9999952316285,6|2,0:0|0:0,0:0:0:0:
84,288,94321,2,0,B|184:324,1,80,10|2,0:0|0:0,0:0:0:0:
316,288,94691,2,0,B|360:248|348:200,1,79.9999952316285,2|2,0:0|0:0,0:0:0:0:
444,96,95061,2,0,P|396:80|356:80,1,80
196,160,95432,1,4,0:0:0:0:
256,192,95617,12,2,100617,0:0:0:0:
256,192,100987,5,0,0:0:0:0:
256,192,101358,1,4,0:0:0:0:
256,72,103209,5,2,0:0:0:0:
256,120,103580,1,0,0:0:0:0:
256,168,103950,1,2,0:0:0:0:
256,216,104135,1,0,0:0:0:0:
256,228,104228,1,0,0:0:0:0:
256,240,104321,1,4,0:0:0:0:
256,192,104413,12,2,106913,0:0:0:0:
140,92,107284,6,0,B|120:272,1,159.999990463257,4|8,0:0|0:0,0:0:0:0:
56,320,107839,1,0,0:0:0:0:
144,352,108024,2,0,B|212:308|312:344,1,159.999990463257,2|8,0:0|0:0,0:0:0:0:
392,282,108580,2,0,P|356:260|320:248,1,80,0|0,0:0|0:0,0:0:0:0:
404,376,108950,5,0,0:0:0:0:
384,188,109135,1,8,0:0:0:0:
292,160,109321,2,0,B|240:160|224:188,1,60.0000022888184,0|2,0:0|0:0,0:0:0:0:
136,236,109691,1,0,0:0:0:0:
152,328,109876,2,0,B|72:344,1,60.0000022888184,8|0,0:0|0:0,0:0:0:0:
56,348,110154,1,0,0:0:0:0:
20,352,110246,1,4,0:0:0:0:
48,80,110617,6,0,B|88:60|132:68,1,60.0000022888184,8|0,0:0|0:0,0:0:0:0:
134,159,110987,2,0,B|184:184|208:136|272:160,1,120.000004577637,2|8,0:0|0:0,0:0:0:0:
384,140,111543,2,0,P|420:216|400:272,1,120.000004577637
312,348,112098,1,8,0:0:0:0:
168,352,112284,2,0,B|160:272,1,60.0000022888184,0|2,0:0|0:0,0:0:0:0:
271,125,112654,5,0,0:0:0:0:
262,230,112839,1,8,0:0:0:0:
105,164,113024,1,0,0:0:0:0:
172,92,113209,1,4,0:0:0:0:
56,360,113580,6,0,B|16:336|12:288,1,79.9999952316285,8|0,0:0|0:0,0:0:0:0:
96,252,113950,2,0,B|160:200|132:96,1,159.999990463257,2|8,0:0|0:0,0:0:0:0:
40,160,114506,1,0,0:0:0:0:
40,160,114876,5,0,0:0:0:0:
248,208,115061,1,8,0:0:0:0:
336,176,115246,1,0,0:0:0:0:
264,116,115432,1,2,0:0:0:0:
240,228,115617,5,0,0:0:0:0:
352,180,115802,1,8,0:0:0:0:
256,100,115987,1,2,0:0:0:0:
204,312,116172,6,0,B|268:380|380:344,1,159.999990463257,6|8,0:0|0:0,0:0:0:0:
156,232,116728,1,0,0:0:0:0:
156,232,116913,2,0,B|108:236|60:276,1,79.9999952316285,2|0,0:0|0:0,0:0:0:0:
72,348,117284,5,8,0:0:0:0:
72,348,117469,1,4,0:0:0:0:
260,216,118950,1,2,0:0:0:0:
88,108,119135,6,0,B|128:32|236:48,1,160,4|8,0:0|0:0,0:0:0:0:
260,136,119691,2,0,B|252:184|264:232,1,80,0|2,0:0|0:0,0:0:0:0:
368,136,120061,2,0,B|372:96|368:56,1,80,0|8,0:0|0:0,0:0:0:0:
168,244,120432,6,0,B|192:300|232:312|280:320|316:292,1,160
348,212,120987,1,8,0:0:0:0:
400,292,121172,2,0,B|428:328|432:372,1,80,0|2,0:0|0:0,0:0:0:0:
248,208,121543,1,0,0:0:0:0:
220,116,121728,1,8,0:0:0:0:
304,64,121913,1,2,0:0:0:0:
388,116,122098,6,0,B|428:140|452:176|452:220|436:260,1,160,4|8,0:0|0:0,0:0:0:0:
136,212,122654,1,0,0:0:0:0:
44,240,122839,2,0,B|24:292|40:352,1,80,2|0,0:0|0:0,0:0:0:0:
216,272,123209,1,8,0:0:0:0:
300,224,123395,6,0,B|324:144|304:60,1,160,0|0,0:0|0:0,0:0:0:0:
216,92,123950,2,0,B|204:132|216:184,1,80,8|0,0:0|0:0,0:0:0:0:
302,303,124321,2,0,B|304:304|312:264|300:224,1,80,2|0,0:0|0:0,0:0:0:0:
216,272,124691,2,0,B|52:292,1,160,8|4,0:0|0:0,0:0:0:0:
12,208,125246,5,0,0:0:0:0:
24,112,125432,1,8,0:0:0:0:
232,188,125802,5,2,0:0:0:0:
252,108,125987,1,0,0:0:0:0:
304,44,126172,1,8,0:0:0:0:
360,256,126543,5,2,0:0:0:0:
400,224,126728,1,0,0:0:0:0:
452,212,126913,1,8,0:0:0:0:
444,304,127098,5,0,0:0:0:0:
360,256,127284,1,2,0:0:0:0:
264,256,127469,1,0,0:0:0:0:
176,292,127654,1,8,0:0:0:0:
84,284,127839,1,0,0:0:0:0:
64,192,128024,6,0,B|52:112,2,80,2|0|8,0:0|0:0|0:0,0:0:0:0:
228,128,128765,6,0,B|236:64,2,59.9999982118607,2|0|8,0:0|0:0|0:0,0:0:0:0:
416,156,129506,6,0,B|436:112,2,40,2|0|8,0:0|0:0|0:0,0:0:0:0:
324,302,130061,1,0,0:0:0:0:
312,129,130246,1,2,0:0:0:0:
424,264,130432,1,0,0:0:0:0:
254,219,130617,1,2,0:0:0:0:
68,96,132259,5,2,0:0:0:0:
136,144,132455,2,0,P|152:76|116:28,1,120,4|0,0:0|0:0,0:0:0:0:
48,16,133195,1,8,0:0:0:0:
107,188,133751,5,0,0:0:0:0:
140,272,133936,2,0,B|184:256|232:264,1,80,4|0,0:0|0:0,0:0:0:0:
396,280,134677,2,0,B|348:288|304:276,1,80,8|0,0:0|0:0,0:0:0:0:
240,108,135417,6,0,B|220:72,1,40,4|0,0:0|0:0,0:0:0:0:
336,120,135788,2,0,B|364:88,1,40,0|0,0:0|0:0,0:0:0:0:
368,220,136158,2,0,B|384:256|368:312,1,80,8|0,0:0|0:0,0:0:0:0:
372,298,136899,5,2,0:0:0:0:
127,325,137269,2,0,B|103:245,2,80,8|2|8,0:0|0:0|0:0,0:0:0:0:
132,104,138380,6,0,P|196:144|256:96,1,160,4|2,0:0|0:0,0:0:0:0:
255,98,139492,1,8,0:0:0:0:
356,72,139677,1,0,0:0:0:0:
448,104,139862,6,0,B|464:156,1,40,2|0,0:0|0:0,0:0:0:0:
380,204,140232,2,0,B|368:248,1,40,8|0,0:0|0:0,0:0:0:0:
420,324,140603,2,0,B|384:356|332:348,1,80,2|8,0:0|0:0,0:0:0:0:
260,304,141158,1,0,0:0:0:0:
164,320,141343,6,0,B|8:348,2,160,4|8|4,0:0|0:0|0:0,0:0:0:0:
256,192,142917,12,2,144305,0:0:0:0:
128,84,156170,6,0,B|144:216,1,119.999996423721,4|8,0:0|0:0,0:0:0:0:
116,276,156725,1,0,0:0:0:0:
180,320,156910,2,0,B|228:368|296:364,1,119.999996423721,2|8,0:0|0:0,0:0:0:0:
328,304,157466,6,0,B|352:284|388:284,1,59.9999982118607,0|2,0:0|0:0,0:0:0:0:
492,212,157836,2,0,B|460:228|432:220,1,59.9999982118607,0|8,0:0|0:0,0:0:0:0:
368,180,158207,1,0,0:0:0:0:
288,180,158392,2,0,B|164:168,1,119.999996423721,2|8,0:0|0:0,0:0:0:0:
104,220,158947,6,0,B|88:252|112:284,1,60.0000022888184,4|2,0:0|0:0,0:0:0:0:
192,344,159318,2,0,P|192:304|180:280,1,60.0000022888184,0|8,0:0|0:0,0:0:0:0:
44,328,159688,1,0,0:0:0:0:
104,220,159873,2,0,P|96:160|44:112,1,120.000004577637,0|8,0:0|0:0,0:0:0:0:
24,200,160429,5,0,0:0:0:0:
160,104,160614,2,0,B|212:96|248:104,1,59.9999982118607,2|0,0:0|0:0,0:0:0:0:
296,112,160984,2,0,P|368:140|428:120,1,120.000004577637,8|2,0:0|0:0,0:0:0:0:
480,160,161540,1,0,0:0:0:0:
512,232,161725,1,8,0:0:0:0:
488,304,161910,1,2,0:0:0:0:
488,304,162095,6,0,P|376:284|272:364,1,240.000009155274,4|0,0:0|0:0,0:0:0:0:
84,364,163207,5,8,0:0:0:0:
120,296,163392,1,0,0:0:0:0:
60,248,163577,2,0,B|40:176,1,59.9999982118607,8|0,0:0|0:0,0:0:0:0:
112,156,163947,2,0,B|124:88,1,59.9999982118607,8|0,0:0|0:0,0:0:0:0:
272,48,164318,5,8,0:0:0:0:
320,56,164410,1,0,0:0:0:0:
368,68,164503,1,8,0:0:0:0:
408,96,164595,1,0,0:0:0:0:
436,136,164688,1,8,0:0:0:0:
452,180,164781,1,0,0:0:0:0:
456,228,164873,1,8,0:0:0:0:
448,276,164966,1,0,0:0:0:0:
420,316,165058,6,0,B|388:356|328:356,1,103.999998140335,4|0,0:0|0:0,0:0:0:0:
204,236,165429,2,0,B|248:204|304:204,1,103.999998140335,8|0,0:0|0:0,0:0:0:0:
144,340,165799,2,0,B|80:368|32:328|0:280|32:208,1,207.99999628067,2|8,0:0|0:0,0:0:0:0:
112,128,166355,1,0,0:0:0:0:
204,236,166540,6,0,B|248:192|244:143,1,103.999998140335,2|0,0:0|0:0,0:0:0:0:
112,128,166910,1,8,0:0:0:0:
204,236,167095,1,0,0:0:0:0:
352,220,167281,2,0,B|392:180|456:176|512:204|532:260,1,207.99999628067,2|8,0:0|0:0,0:0:0:0:
260,288,167836,6,0,B|220:248|216:184|244:128|300:108,1,207.99999628067,4|0,0:0|0:0,0:0:0:0:
352,220,168392,2,0,B|384:268|368:336,1,103.999995239258,8|0,0:0|0:0,0:0:0:0:
260,288,168762,2,0,B|144:344|64:228,1,207.99999628067,0|8,0:0|0:0,0:0:0:0:
240,96,169318,1,0,0:0:0:0:
368,140,169503,6,0,B|424:156|480:148,1,103.999998140335,2|0,0:0|0:0,0:0:0:0:
240,96,169873,2,0,P|136:80|56:144,1,207.999990478516,8|2,0:0|0:0,0:0:0:0:
144,228,170429,1,0,0:0:0:0:
152,244,170521,1,0,0:0:0:0:
160,260,170614,2,0,P|176:316|152:388,1,103.999995239258,8|0,0:0|0:0,0:0:0:0:
48,312,170984,6,0,P|4:200|56:132,1,207.999990478516,4|8,0:0|0:0,0:0:0:0:
348,224,171540,1,0,0:0:0:0:
456,296,171725,2,0,B|480:244|472:188,1,103.999998140335,2|0,0:0|0:0,0:0:0:0:
348,224,172095,1,4,0:0:0:0:
224,164,172280,1,2,0:0:0:0:
348,108,172466,5,8,0:0:0:0:
224,280,172651,2,0,B|180:324|108:312,1,103.999998140335,0|8,0:0|0:0,0:0:0:0:
32,132,173021,2,0,B|104:36|232:84,1,207.999990478516,4|2,0:0|0:0,0:0:0:0:
224,280,173577,1,8,0:0:0:0:
440,324,173762,2,0,B|500:232|464:120,1,207.99999628067,4|2,0:0|0:0,0:0:0:0:
328,97,174318,5,8,0:0:0:0:
308,89,174410,1,0,0:0:0:0:
288,85,174503,1,0,0:0:0:0:
264,85,174595,1,0,0:0:0:0:
240,93,174688,1,2,0:0:0:0:
220,109,174781,1,0,0:0:0:0:
208,129,174873,1,0,0:0:0:0:
204,153,174966,1,0,0:0:0:0:
212,177,175058,2,0,B|236:233|220:293,1,103.999998140335,8|0,0:0|0:0,0:0:0:0:
56,248,175429,6,0,P|32:184|48:124,1,103.999995239258,4|0,0:0|0:0,0:0:0:0:
92,24,175799,1,8,0:0:0:0:
196,208,175984,2,0,P|260:268|364:232,1,207.999990478516,2|0,0:0|0:0,0:0:0:0:
408,88,176540,1,8,0:0:0:0:
272,16,176725,1,0,0:0:0:0:
168,124,176910,6,0,B|148:180|176:248,1,103.999998140335,4|0,0:0|0:0,0:0:0:0:
300,288,177281,1,8,0:0:0:0:
172,356,177466,1,0,0:0:0:0:
52,280,177651,2,0,B|0:196|48:52,1,207.999990478516,2|8,0:0|0:0,0:0:0:0:
300,288,178207,1,0,0:0:0:0:
416,224,178392,6,0,B|432:168|420:96,1,103.999998140335,4|0,0:0|0:0,0:0:0:0:
204,236,178762,2,0,B|192:296|204:348,1,103.999998140335,8|0,0:0|0:0,0:0:0:0:
268,88,179132,2,0,B|228:44|164:44|104:72|96:132,1,207.99999628067,2|8,0:0|0:0,0:0:0:0:
52,280,179688,1,0,0:0:0:0:
204,236,179873,5,4,0:0:0:0:
352,256,180058,1,0,0:0:0:0:
452,352,180244,1,8,0:0:0:0:
352,256,180429,1,0,0:0:0:0:
360,116,180614,2,0,B|384:68|452:44|508:72,1,155.999992858887,2|0,0:0|0:0,0:0:0:0:
494,66,180984,1,8,0:0:0:0:
468,200,181169,1,0,0:0:0:0:
352,256,181355,6,0,B|300:232|244:240,1,103.999998140335,6|0,0:0|0:0,0:0:0:0:
120,284,181725,2,0,B|64:296|12:264|-8:204|32:136,1,207.99999628067,8|2,0:0|0:0,0:0:0:0:
356,28,182281,1,0,0:0:0:0:
408,216,182466,1,8,0:0:0:0:
220,168,182651,1,0,0:0:0:0:
356,28,182836,6,0,B|412:4|472:24|512:64|524:120,1,207.999990478516,4|2,0:0|0:0,0:0:0:0:
400,144,183392,1,0,0:0:0:0:
400,144,183484,1,0,0:0:0:0:
400,144,183577,1,8,0:0:0:0:
136,368,183947,5,2,0:0:0:0:
256,304,184132,1,0,0:0:0:0:
204,152,184318,5,4,0:0:0:0:
80,224,184503,1,0,0:0:0:0:
152,348,184688,5,8,0:0:0:0:
272,280,184873,1,2,0:0:0:0:
256,40,185244,5,0,0:0:0:0:
208,132,185429,2,0,B|256:152|312:132,1,103.999995239258,4|0,0:0|0:0,0:0:0:0:
256,192,185799,12,2,186910,0:0:0:0:
72,88,187281,6,0,B|112:104|156:96,1,80,4|0,0:0|0:0,0:0:0:0:
212,176,187651,1,8,0:0:0:0:
308,136,187836,1,0,0:0:0:0:
412,156,188021,2,0,B|448:224|424:328,1,160,2|8,0:0|0:0,0:0:0:0:
144,272,188577,1,0,0:0:0:0:
40,256,188762,6,0,B|28:300|44:344,1,80,0|0,0:0|0:0,0:0:0:0:
144,272,189132,2,8,B|156:228|144:188,1,80,8|0,0:0|0:0,0:0:0:0:
156,172,189410,1,0,0:0:0:0:
176,160,189503,1,2,0:0:0:0:
296,116,189688,2,0,B|320:148|312:200,1,80,0|8,0:0|0:0,0:0:0:0:
192,64,190058,1,0,0:0:0:0:
288,24,190244,6,0,B|388:56|392:172,1,160,4|8,0:0|0:0,0:0:0:0:
456,220,190799,1,0,0:0:0:0:
356,248,190984,2,0,B|332:304|352:368,1,120,2|0,0:0|0:0,0:0:0:0:
351,365,191355,1,8,0:0:0:0:
448,316,191540,1,0,0:0:0:0:
448,316,191725,6,0,B|472:240|448:132,1,160,2|8,0:0|0:0,0:0:0:0:
368,100,192281,1,0,0:0:0:0:
276,148,192466,2,0,B|232:172|184:164,1,80,2|0,0:0|0:0,0:0:0:0:
180,168,192744,1,0,0:0:0:0:
160,168,192836,1,8,0:0:0:0:
88,92,193021,1,0,0:0:0:0:
60,192,193207,6,0,B|112:256|96:356,2,160,4|8|2,0:0|0:0|0:0,0:0:0:0:
88,92,194132,1,0,0:0:0:0:
112,96,194225,1,0,0:0:0:0:
136,100,194318,2,0,L|248:76,1,80,8|0,0:0|0:0,0:0:0:0:
288,168,194688,6,0,B|328:252|440:256,1,160,4|8,0:0|0:0,0:0:0:0:
396,144,195244,1,2,0:0:0:0:
396,144,195614,1,0,0:0:0:0:
260,312,195799,1,8,0:0:0:0:
104,200,195984,6,0,B|60:120|108:44,1,160,4|0,0:0|0:0,0:0:0:0:
260,312,196540,1,8,0:0:0:0:
352,352,196725,1,0,0:0:0:0:
352,352,196818,1,0,0:0:0:0:
352,352,196910,2,0,B|368:300|356:260,1,80,2|0,0:0|0:0,0:0:0:0:
264,136,197281,2,0,B|256:180|264:216,1,80,8|0,0:0|0:0,0:0:0:0:
360,176,197651,5,2,0:0:0:0:
164,160,197836,1,0,0:0:0:0:
384,180,198021,5,8,0:0:0:0:
136,160,198207,2,0,P|60:176|4:120,1,160,4|0,0:0|0:0,0:0:0:0:
92,64,198762,1,8,0:0:0:0:
192,344,199132,6,0,B|228:264|328:280,1,160,4|8,0:0|0:0,0:0:0:0:
408,216,199688,1,0,0:0:0:0:
448,312,199873,2,0,B|492:284|504:252,1,80
504,232,200151,1,0,0:0:0:0:
496,208,200244,1,8,0:0:0:0:
444,120,200429,1,2,0:0:0:0:
408,216,200614,6,0,B|236:256,1,160,4|8,0:0|0:0,0:0:0:0:
176,324,201169,2,0,B|128:340|84:336,1,80,0|2,0:0|0:0,0:0:0:0:
8,216,201540,2,0,B|52:200|96:208,1,80,0|8,0:0|0:0,0:0:0:0:
4,316,201910,1,0,0:0:0:0:
8,216,202095,6,0,B|48:144|20:56,1,160,4|8,0:0|0:0,0:0:0:0:
116,24,202651,1,0,0:0:0:0:
212,68,202836,2,0,B|284:36|368:76,1,160,2|8,0:0|0:0,0:0:0:0:
440,152,203392,1,0,0:0:0:0:
336,172,203577,6,0,B|340:256,1,80,4|0,0:0|0:0,0:0:0:0:
428,308,203947,1,8,0:0:0:0:
328,348,204132,2,0,B|308:384,2,40,0|0|2,0:0|0:0|0:0,0:0:0:0:
412,212,204503,2,0,B|436:168,2,40,0|0|8,0:0|0:0|0:0,0:0:0:0:
164,308,205058,6,0,P|76:324|8:200,1,240,4|0,0:0|0:0,0:0:0:0:
119,149,205799,2,0,B|120:188|104:228,1,80,2|0,0:0|0:0,0:0:0:0:
24,104,206169,1,8,0:0:0:0:
119,149,206355,1,0,0:0:0:0:
240,160,206540,5,4,0:0:0:0:
448,100,206725,1,0,0:0:0:0:
320,268,206910,1,8,0:0:0:0:
316,48,207095,1,2,0:0:0:0:
112,324,207651,5,2,0:0:0:0:
104,328,207744,1,2,0:0:0:0:
96,332,207836,1,6,0:0:0:0:
256,192,208021,12,0,213947,0:0:0:0:
