osu file format v12

[General]
AudioFilename: SPiCa-NicoNicoChorus.mp3
AudioLeadIn: 0
PreviewTime: 74691
Countdown: 0
SampleSet: Soft
StackLeniency: 0.7
Mode: 0
LetterboxInBreaks: 0
WidescreenStoryboard: 0

[Editor]
DistanceSpacing: 1
BeatDivisor: 4
GridSize: 4

[Metadata]
Title:SPiCa
TitleUnicode:SPiCa
Artist:Nico Nico Chorus
ArtistUnicode:Nico Nico Chorus
Creator:xXCrystalMoonAnimeXx
Version:Hard
Source:Nico Nico Douga
Tags:Vocaloid2 Vocaloid Hatsune Miku Sun_Rainbow Sun Rainbow Douga Regou collab collaboration Toku-P Headphone-Tokyo NicoNico Wataame Mei Kuripurin Himawari Lino Noir Nico Nico Douga
BeatmapID:232615
BeatmapSetID:41000

[Difficulty]
HPDrainRate:5
CircleSize:4
OverallDifficulty:6
ApproachRate:7
SliderMultiplier:1
SliderTickRate:1

[Events]
//Background and Video events
0,0,"Stardust_Miku.jpg",0,0
Video,273,"SPiCa.avi"
//Break Periods
2,98595,103421
//Storyboard Layer 0 (Background)
//Storyboard Layer 1 (Fail)
Sprite,Fail,Centre,"CMA_Fail.png",320,240 M,0,62829,,528,161 F,0,62829,63569,0,1 F,0,63569,64310,1 F,0,64310,65051,1,0
//Storyboard Layer 2 (Pass)
Sprite,Pass,Centre,"CMA_Pass.png",320,240 M,0,62829,,528,161 F,0,62829,63569,0,1 F,0,63569,64310,1 F,0,64310,65051,1,0
//Storyboard Layer 3 (Foreground)
Sprite,Foreground,Centre,"CMA.png",320,240 M,0,2088,2273,741,339,533,282 M,0,2273,2458,533,282,444,362 M,0,2458,2829,444,362,542,345 M,0,2829,3014,542,345,547,364 M,0,3014,190236,547,364 M,0,190236,190421,547,364,658,242 M,0,190421,190607,658,242,752,251
Sprite,Foreground,Centre,"CMA Name.png",320,240 M,0,3570,,317,417 S,0,3570,,0.6160001 F,0,3570,3940,0,1 F,0,3940,190236,1 F,0,190236,190607,1,0
//Storyboard Sound Samples
//Background Colour Transformations
3,100,163,162,255

[TimingPoints]
3590,370.37037037037,4,2,3,35,1,0
9515,-100,4,2,3,30,0,0
12478,-100,4,2,3,40,0,0
13960,-100,4,2,3,30,0,0
24330,-100,4,2,3,50,0,0
27293,-100,4,2,3,60,0,0
28775,368.098159509202,4,2,3,60,1,0
30247,370.37037037037,4,2,3,60,1,0
39691,-100,4,2,3,55,0,0
42098,-100,4,2,3,40,0,0
42654,-100,4,2,3,55,0,0
53950,-100,4,2,3,40,0,0
54505,-100,4,2,3,55,0,0
62839,-100,4,2,3,60,0,0
67283,-100,4,2,3,40,0,0
68024,-100,4,2,3,60,0,0
68765,-100,4,2,3,40,0,0
69505,-100,4,2,3,60,0,0
70246,-100,4,2,3,40,0,0
70987,-100,4,2,3,60,0,0
73950,-100,4,2,3,40,0,0
74691,-100,4,2,3,60,0,1
95432,-100,4,2,3,60,0,0
117469,-100,4,2,3,40,0,0
117839,-100,4,2,3,60,0,0
119135,-100,4,2,3,55,0,0
124135,-100,4,2,3,50,0,0
130061,-100,4,2,3,45,0,0
130617,319.148936170213,4,2,3,35,1,0
130936,337.078651685393,4,2,3,35,1,0
131273,394.736842105263,4,2,3,35,1,0
132259,-100,4,2,3,50,0,0
132455,370.37037037037,4,2,3,45,1,0
138380,370.37037037037,4,2,3,45,1,0
144305,-200,4,2,3,40,0,0
151713,365.853658536585,4,2,3,35,1,0
151713,-200,4,2,3,35,0,0
152810,-200,4,2,3,50,0,0
153176,363.636363636364,4,2,3,35,1,0
154266,405.405405405405,4,2,3,35,1,0
154670,375,4,2,3,35,1,0
154671,-200,4,2,3,35,0,0
156170,370.37037037037,4,2,3,35,1,0
156170,-133.333333333333,4,2,3,50,0,0
156911,-133.333333333333,4,2,3,40,0,0
159133,-133.333333333333,4,2,3,50,0,0
163022,-100,4,2,3,60,0,0
165058,-100,4,2,3,60,0,1
176818,-100,4,2,3,60,0,0
176910,-100,4,2,3,60,0,1
185799,-100,4,2,3,60,0,0
190244,-100,4,2,3,50,0,0

[Colours]
Combo1 : 70,186,255
Combo2 : 44,243,184
Combo3 : 196,136,255

[HitObjects]
256,184,3590,1,2,0:0:0:0:
56,184,4330,1,2,0:0:0:0:
256,184,5071,1,2,0:0:0:0:
456,184,5812,1,2,0:0:0:0:
256,184,6552,2,0,P|244:296|312:316,1,200,2|2,0:0|0:0,0:0:0:0:
456,184,8034,1,2,0:0:0:0:
288,72,8775,1,2,0:0:0:0:
88,84,9515,5,2,0:0:0:0:
172,140,9886,1,0,0:0:0:0:
216,168,10071,1,0,0:0:0:0:
256,192,10256,1,2,0:0:0:0:
424,300,10997,5,2,0:0:0:0:
256,192,11738,1,2,0:0:0:0:
156,176,12108,1,0,0:0:0:0:
104,180,12293,1,0,0:0:0:0:
56,192,12478,6,0,B|24:236|56:292,2,100,2|0|2,0:0|0:0|0:0,0:0:0:0:
256,192,13960,1,2,0:0:0:0:
484,72,15071,6,0,B|484:4,2,50,0|0|2,0:0|0:0|0:0,0:0:0:0:
308,168,16182,5,2,0:0:0:0:
128,256,16923,1,2,0:0:0:0:
308,168,17664,1,2,0:0:0:0:
128,80,18404,1,2,0:0:0:0:
228,192,18960,5,0,0:0:0:0:
228,192,19145,2,0,P|232:244|280:288,1,100,2|0,0:0|0:0,0:0:0:0:
352,236,19886,2,0,P|348:184|300:140,1,100,2|0,0:0|0:0,0:0:0:0:
232,100,20627,1,2,0:0:0:0:
172,204,20997,1,0,0:0:0:0:
288,240,21367,6,0,B|288:140,1,99.999990463257,2|0,0:0|0:0,0:0:0:0:
332,116,21923,1,0,0:0:0:0:
376,88,22108,1,2,0:0:0:0:
184,152,22849,2,0,B|168:218|192:303|256:352,1,199.999980926514,2|2,0:0|0:0,0:0:0:0:
284,220,23960,5,0,0:0:0:0:
284,220,24145,1,0,0:0:0:0:
284,220,24330,2,0,B|75:275,1,200,2|2,0:0|0:0,0:0:0:0:
36,132,25627,2,0,B|36:88|72:88,2,50,0|2|0,0:0|0:0|0:0,0:0:0:0:
136,148,26367,1,2,0:0:0:0:
136,148,26552,1,2,0:0:0:0:
136,148,26738,1,0,0:0:0:0:
112,296,27108,5,0,0:0:0:0:
112,296,27293,1,4,0:0:0:0:
252,236,27849,1,0,0:0:0:0:
252,236,28034,1,2,0:0:0:0:
352,60,28589,5,0,0:0:0:0:
352,60,28775,2,0,B|352:174,2,99.999990463257,4|2|0,0:0|0:0|0:0,0:0:0:0:
252,60,29879,1,0,0:0:0:0:
252,160,30247,6,0,B|370:161,2,99.999990463257,4|0|0,0:0|0:0|0:0,0:0:0:0:
252,60,31358,1,0,0:0:0:0:
152,60,31728,2,0,B|152:180,1,100,4|2,0:0|0:0,0:0:0:0:
152,260,32469,5,0,0:0:0:0:
240,202,32839,1,0,0:0:0:0:
316,136,33209,2,0,P|240:80|164:136,1,200,4|2,0:0|0:0,0:0:0:0:
240,202,34321,1,0,0:0:0:0:
288,296,34691,2,0,P|242:312|194:296,2,100,4|0|0,0:0|0:0|0:0,0:0:0:0:
240,202,35802,1,0,0:0:0:0:
240,152,35987,5,2,0:0:0:0:
240,128,36080,1,0,0:0:0:0:
240,104,36172,1,4,0:0:0:0:
256,192,36358,12,0,38765,0:0:0:0:
36,40,39135,5,2,0:0:0:0:
40,188,39691,5,0,0:0:0:0:
52,236,39876,2,0,B|78:336,1,100,2|0,0:0|0:0,0:0:0:0:
77,332,40432,1,2,0:0:0:0:
180,332,40802,1,2,0:0:0:0:
148,236,41172,1,2,0:0:0:0:
128,144,41543,2,0,B|128:36,1,100,2|0,0:0|0:0,0:0:0:0:
128,44,42098,1,6,0:0:0:0:
256,188,42654,5,0,0:0:0:0:
256,188,42839,1,2,0:0:0:0:
256,88,43209,1,2,0:0:0:0:
256,88,43395,1,0,0:0:0:0:
340,140,43765,1,2,0:0:0:0:
340,240,44135,1,2,0:0:0:0:
368,336,44506,2,0,B|416:320|432:264,1,100,2|0,0:0|0:0,0:0:0:0:
432,216,45061,6,0,B|432:108,1,100,4|0,0:0|0:0,0:0:0:0:
432,64,45617,1,0,0:0:0:0:
432,16,45802,1,2,0:0:0:0:
248,172,46358,6,0,B|167:91,2,99.999990463257,2|2|2,0:0|0:0|0:0,0:0:0:0:
204,212,47284,2,2,B|160:252,1,50
212,288,47654,6,0,B|292:216,1,100,2|4,0:0|0:0,0:0:0:0:
468,192,48580,1,0,0:0:0:0:
472,148,48765,2,0,P|424:128|372:148,1,100,2|0,0:0|0:0,0:0:0:0:
424,212,49321,5,2,0:0:0:0:
476,290,49691,1,2,0:0:0:0:
396,348,50061,1,2,0:0:0:0:
348,348,50246,2,2,B|298:348,1,49.9999952316285
252,324,50617,1,2,0:0:0:0:
212,292,50802,1,2,0:0:0:0:
192,244,50987,1,4,0:0:0:0:
220,68,51543,5,0,0:0:0:0:
220,68,51728,2,0,P|168:48|112:64,1,100,2|0,0:0|0:0,0:0:0:0:
84,80,52284,2,0,L|36:184,1,100,2|0,0:0|0:0,0:0:0:0:
0,256,53024,2,0,P|71:323|163:303,1,200,2|0,0:0|0:0,0:0:0:0:
188,260,53950,1,4,0:0:0:0:
212,104,54506,5,0,0:0:0:0:
212,104,54691,2,0,B|261:67|320:108,2,100,2|0|0,0:0|0:0|0:0,0:0:0:0:
212,156,55617,1,2,0:0:0:0:
260,172,55802,1,0,0:0:0:0:
308,184,55987,2,0,B|308:240|276:277,1,99.999990463257,0|2,0:0|0:0,0:0:0:0:
232,296,56543,1,2,0:0:0:0:
180,324,56728,6,0,B|116:324,2,50,0|6|0,0:0|0:0|0:0,0:0:0:0:
232,352,57284,1,2,0:0:0:0:
280,368,57469,1,0,0:0:0:0:
336,368,57654,2,0,B|377:389|416:388|449:356,1,99.999990463257,0|2,0:0|0:0,0:0:0:0:
480,360,58209,1,0,0:0:0:0:
492,312,58395,6,0,B|428:232|428:232,1,100,2|2,0:0|0:0,0:0:0:0:
384,136,59135,1,2,0:0:0:0:
308,200,59506,1,2,0:0:0:0:
260,188,59691,1,0,0:0:0:0:
212,180,59876,2,0,B|164:168|100:188,1,100,2|2,0:0|0:0,0:0:0:0:
77,219,60432,1,0,0:0:0:0:
88,268,60617,2,0,P|132:300|184:288,1,100,0|2,0:0|0:0,0:0:0:0:
217,267,61172,5,0,0:0:0:0:
268,268,61358,1,2,0:0:0:0:
300,228,61543,1,0,0:0:0:0:
252,140,61913,1,0,0:0:0:0:
288,104,62098,1,2,0:0:0:0:
252,68,62284,1,0,0:0:0:0:
188,144,62654,5,0,0:0:0:0:
188,144,62839,2,2,B|84:256,1,149.999985694886,6|0,0:0|0:0,0:0:0:0:
52,288,63580,1,2,0:0:0:0:
184,348,64135,5,2,0:0:0:0:
152,312,64321,2,2,B|304:164,1,200,6|0,0:0|0:0,0:0:0:0:
372,108,65432,1,2,0:0:0:0:
372,108,65802,6,0,B|380:152|452:156|424:220|452:244|384:284,1,200,4|0,0:0|0:0,0:0:0:0:
296,292,66913,1,2,0:0:0:0:
356,212,67284,1,6,0:0:0:0:
256,40,68024,5,2,0:0:0:0:
208,128,68395,1,0,0:0:0:0:
156,212,68765,1,6,0:0:0:0:
356,212,69506,5,2,0:0:0:0:
304,128,69876,1,0,0:0:0:0:
256,40,70246,1,6,0:0:0:0:
256,40,70987,5,2,0:0:0:0:
256,40,71358,1,2,0:0:0:0:
256,140,71728,1,6,0:0:0:0:
256,140,72469,2,2,B|256:244,1,99.999990463257,2|0,0:0|0:0,0:0:0:0:
188,304,73209,2,0,B|232:304|256:240|256:240|280:304|324:304,1,200,2|0,0:0|0:0,0:0:0:0:
216,144,74691,5,4,0:0:0:0:
172,116,74876,1,0,0:0:0:0:
132,84,75061,1,8,0:0:0:0:
92,52,75246,1,0,0:0:0:0:
52,24,75432,2,0,B|52:72|4:72|4:124,1,100,2|8,0:0|0:0,0:0:0:0:
44,144,75987,5,0,0:0:0:0:
88,168,76172,2,0,B|88:224,1,50,6|0,0:0|0:0,0:0:0:0:
136,252,76543,1,8,0:0:0:0:
180,276,76728,1,0,0:0:0:0:
208,236,76913,1,2,0:0:0:0:
300,276,77284,5,10,0:0:0:0:
300,276,77469,2,0,B|388:196,1,100,4|0,0:0|0:0,0:0:0:0:
412,176,78024,1,8,0:0:0:0:
448,144,78209,2,0,B|492:104,1,50,0|0,0:0|0:0,0:0:0:0:
444,36,78765,1,8,0:0:0:0:
408,72,78950,1,2,0:0:0:0:
372,108,79135,1,6,0:0:0:0:
336,140,79321,1,2,0:0:0:0:
300,172,79506,1,8,0:0:0:0:
300,276,79876,6,0,B|448:144,1,200,2|4,0:0|0:0,0:0:0:0:
328,32,81172,2,2,B|284:72,1,50
176,160,81913,5,2,0:0:0:0:
152,160,82005,1,0,0:0:0:0:
128,160,82098,2,0,B|72:180|68:236,1,100,4|8,0:0|0:0,0:0:0:0:
68,232,82654,1,0,0:0:0:0:
168,256,83024,1,2,0:0:0:0:
216,256,83209,1,10,0:0:0:0:
264,256,83395,2,0,B|264:316|200:316|200:384|224:384,1,149.999985694886,4|8,0:0|0:0,0:0:0:0:
324,384,84321,1,0,0:0:0:0:
424,384,84691,1,8,0:0:0:0:
492,316,85061,5,4,0:0:0:0:
492,316,85246,1,0,0:0:0:0:
492,316,85432,1,8,0:0:0:0:
452,284,85617,2,0,B|420:236|352:244,1,100,0|0,0:0|0:0,0:0:0:0:
316,240,86172,1,8,0:0:0:0:
268,236,86358,1,0,0:0:0:0:
280,160,86543,6,2,B|195:151|160:248|220:296,1,200,6|2,0:0|0:0,0:0:0:0:
268,236,87654,1,10,0:0:0:0:
316,240,87839,1,0,0:0:0:0:
364,248,88024,2,0,P|364:216|348:192,1,50,2|0,0:0|0:0,0:0:0:0:
328,156,88395,2,0,P|300:136|276:132,1,50,10|0,0:0|0:0,0:0:0:0:
232,116,88765,1,2,0:0:0:0:
268,236,89135,6,0,B|212:236,1,50,8|0,0:0|0:0,0:0:0:0:
168,240,89506,2,0,B|92:312,1,100,4|8,0:0|0:0,0:0:0:0:
92,360,90061,2,0,B|36:360,1,50,0|0,0:0|0:0,0:0:0:0:
40,260,90617,6,0,B|40:192,1,50,8|0,0:0|0:0,0:0:0:0:
40,160,90987,1,2,0:0:0:0:
40,112,91172,1,0,0:0:0:0:
40,64,91358,1,10,0:0:0:0:
168,44,91728,6,0,B|212:88,1,50
192,128,92098,2,0,B|236:172,1,50,8|0,0:0|0:0,0:0:0:0:
276,168,92469,2,0,B|328:148|392:176,1,100,4|8,0:0|0:0,0:0:0:0:
404,208,93024,2,0,L|432:272,1,50
332,292,93580,6,0,B|272:292,1,50,8|0,0:0|0:0,0:0:0:0:
276,244,93950,2,0,B|216:244,2,50,4|0|8,0:0|0:0|0:0,0:0:0:0:
324,244,94506,1,0,0:0:0:0:
256,56,94876,5,2,0:0:0:0:
208,144,95061,1,2,0:0:0:0:
308,144,95246,1,2,0:0:0:0:
256,192,95432,12,4,98395,0:0:0:0:
256,192,104321,12,2,106913,0:0:0:0:
256,84,107284,5,4,0:0:0:0:
256,188,107654,5,2,0:0:0:0:
300,212,107839,2,0,B|340:237|364:210,1,49.9999952316285
348,120,108395,1,2,0:0:0:0:
348,72,108580,1,0,0:0:0:0:
348,172,108950,1,2,0:0:0:0:
440,216,109321,1,0,0:0:0:0:
444,316,109691,1,2,0:0:0:0:
344,332,110061,2,0,B|284:332,1,49.9999952316285,0|4,0:0|0:0,0:0:0:0:
264,236,110617,1,2,0:0:0:0:
264,236,110802,5,0,0:0:0:0:
264,236,110987,1,0,0:0:0:0:
332,164,111358,1,2,0:0:0:0:
332,164,111543,1,0,0:0:0:0:
432,152,111913,2,0,B|432:272,1,100,0|2,0:0|0:0,0:0:0:0:
432,252,112654,1,0,0:0:0:0:
432,352,113024,1,0,0:0:0:0:
432,352,113209,1,4,0:0:0:0:
240,292,113765,5,2,0:0:0:0:
240,292,113950,1,0,0:0:0:0:
172,364,114321,2,0,B|112:364,1,50
120,264,114876,1,2,0:0:0:0:
72,264,115061,2,0,B|20:264,2,49.9999952316285
96,220,115617,1,2,0:0:0:0:
72,176,115802,1,0,0:0:0:0:
96,132,115987,1,0,0:0:0:0:
136,104,116172,2,0,P|184:76|240:72,1,100,4|2,0:0|0:0,0:0:0:0:
276,76,116728,5,0,0:0:0:0:
316,104,116913,1,0,0:0:0:0:
416,104,117284,1,2,0:0:0:0:
456,76,117469,1,4,0:0:0:0:
368,128,117839,5,0,0:0:0:0:
368,224,118209,1,0,0:0:0:0:
280,272,118580,2,0,B|364:356,1,100
408,356,119135,6,0,B|448:356|460:328|456:292|424:276,1,100,4|0,0:0|0:0,0:0:0:0:
412,244,119691,1,2,0:0:0:0:
380,204,119876,1,0,0:0:0:0:
408,108,120246,1,2,0:0:0:0:
448,140,120432,1,0,0:0:0:0:
472,184,120617,1,2,0:0:0:0:
360,84,120987,1,0,0:0:0:0:
224,152,121358,1,2,0:0:0:0:
128,36,121728,6,0,B|24:96,2,100,2|4|2,0:0|0:0|0:0,0:0:0:0:
180,36,122654,1,0,0:0:0:0:
228,36,122839,2,0,B|280:72,2,50,0|0|2,0:0|0:0|0:0,0:0:0:0:
180,36,123395,1,0,0:0:0:0:
84,152,123765,1,2,0:0:0:0:
204,236,124135,5,2,0:0:0:0:
240,272,124321,1,2,0:0:0:0:
272,236,124506,1,2,0:0:0:0:
308,272,124691,1,2,0:0:0:0:
352,180,125061,2,0,P|400:228|356:360,2,200,2|2|0,0:0|0:0|0:0,0:0:0:0:
256,64,127099,5,0,0:0:0:0:
256,112,127284,1,2,0:0:0:0:
256,160,127469,1,0,0:0:0:0:
256,212,127654,1,2,0:0:0:0:
256,308,128024,5,2,0:0:0:0:
256,260,128209,1,0,0:0:0:0:
256,212,128395,1,2,0:0:0:0:
352,212,128765,5,2,0:0:0:0:
304,212,128950,1,0,0:0:0:0:
256,212,129135,1,2,0:0:0:0:
156,212,129506,5,2,0:0:0:0:
208,212,129691,1,0,0:0:0:0:
256,212,129876,1,2,0:0:0:0:
286,284,130061,6,0,L|236:284,1,50,2|0,0:0|0:0,0:0:0:0:
240,140,130432,2,0,L|290:140,1,50,2|0,0:0|0:0,0:0:0:0:
413,286,130936,2,0,P|409:342|380:372,1,100,0|2,0:0|0:0,0:0:0:0:
132,376,131667,2,0,P|102:346|98:290,1,100,0|2,0:0|0:0,0:0:0:0:
248,280,132259,5,0,0:0:0:0:
172,312,132455,2,0,L|64:368,1,100,4|2,0:0|0:0,0:0:0:0:
28,296,133010,1,0,0:0:0:0:
92,256,133195,2,0,P|56:220|8:224,1,100,0|2,0:0|0:0,0:0:0:0:
20,144,133751,5,0,0:0:0:0:
100,156,133936,2,0,P|140:184|152:204,1,50,4|0,0:0|0:0,0:0:0:0:
176,256,134306,2,0,P|216:216|216:172,1,100,2|2,0:0|0:0,0:0:0:0:
256,32,135047,1,0,0:0:0:0:
296,176,135417,2,0,P|297:217|337:257,1,100,4|2,0:0|0:0,0:0:0:0:
444,156,136158,5,0,0:0:0:0:
296,176,136529,1,2,0:0:0:0:
397,289,136899,1,4,0:0:0:0:
212,352,137640,6,0,B|163:359|115:338|103:319,1,99.999990463257,2|0,0:0|0:0,0:0:0:0:
76,304,138195,1,0,0:0:0:0:
40,272,138380,2,0,P|12:228|16:176,1,100,4|0,0:0|0:0,0:0:0:0:
104,60,139120,1,2,0:0:0:0:
88,208,139491,1,0,0:0:0:0:
228,148,139861,6,0,B|196:88|256:20|308:32,1,150,4|0,0:0|0:0,0:0:0:0:
300,112,140602,1,2,0:0:0:0:
392,76,140972,2,0,B|392:12,2,49.9999952316285,0|0|4,0:0|0:0|0:0,0:0:0:0:
216,228,142083,2,0,B|296:200|320:327|406:280|406:280,1,200,0|2,0:0|0:0,0:0:0:0:
484,232,143194,1,0,0:0:0:0:
496,280,143380,1,2,0:0:0:0:
484,328,143565,1,2,0:0:0:0:
256,280,144305,6,0,B|336:208,1,100,2|2,0:0|0:0,0:0:0:0:
432,212,145417,1,0,0:0:0:0:
468,212,145602,1,2,0:0:0:0:
504,212,145787,1,2,0:0:0:0:
468,304,146157,1,2,0:0:0:0:
432,304,146342,1,2,0:0:0:0:
396,304,146528,1,2,0:0:0:0:
296,304,146898,6,0,B|296:268,1,25,2|0,0:0|0:0,0:0:0:0:
256,188,147454,2,0,B|256:156,2,25,0|2|0,0:0|0:0|0:0,0:0:0:0:
256,240,148009,1,2,0:0:0:0:
188,312,148380,2,0,B|176:336,1,25,2|0,0:0|0:0,0:0:0:0:
120,284,148750,2,0,B|140:256,1,25,0|0,0:0|0:0,0:0:0:0:
176,200,149120,1,2,0:0:0:0:
256,96,149398,5,0,0:0:0:0:
256,96,149491,1,0,0:0:0:0:
256,120,149676,1,0,0:0:0:0:
256,144,149861,1,2,0:0:0:0:
256,168,150046,1,2,0:0:0:0:
256,192,150231,1,2,0:0:0:0:
256,304,150787,1,2,0:0:0:0:
256,304,150972,1,2,0:0:0:0:
256,192,151528,5,0,0:0:0:0:
256,192,151713,2,0,B|256:156,3,25,0|0|2|0,0:0|0:0|0:0|0:0,0:0:0:0:
256,268,152627,1,0,0:0:0:0:
256,304,152810,1,0,0:0:0:0:
256,340,152993,1,2,0:0:0:0:
256,192,153176,12,2,154670,0:0:0:0:
228,220,156170,5,4,0:0:0:0:
284,168,156540,1,0,0:0:0:0:
168,264,156910,1,8,0:0:0:0:
344,124,157281,1,0,0:0:0:0:
344,264,157651,5,8,0:0:0:0:
168,124,158021,1,0,0:0:0:0:
400,312,158392,1,8,0:0:0:0:
108,76,158762,1,0,0:0:0:0:
256,192,159132,5,12,0:0:0:0:
344,264,159503,1,0,0:0:0:0:
168,124,159873,1,8,0:0:0:0:
168,264,160244,5,0,0:0:0:0:
344,124,160614,1,8,0:0:0:0:
168,264,160984,1,0,0:0:0:0:
344,124,161355,1,8,0:0:0:0:
256,192,161725,1,0,0:0:0:0:
452,124,162095,6,0,B|452:248,1,112.499985918403,8|0,0:0|0:0,0:0:0:0:
452,276,162836,1,8,0:0:0:0:
352,276,163207,2,0,B|300:320,1,50,0|0,0:0|0:0,0:0:0:0:
296,260,163577,2,0,B|240:220,1,50,8|0,0:0|0:0,0:0:0:0:
256,176,163947,2,0,B|256:136,8,25,8|0|0|0|8|0|0|0|8,0:0|0:0|0:0|0:0|0:0|0:0|0:0|0:0|0:0,0:0:0:0:
256,336,165058,5,6,0:0:0:0:
272,288,165244,1,0,0:0:0:0:
300,248,165429,1,8,0:0:0:0:
340,216,165614,1,0,0:0:0:0:
384,196,165799,2,0,B|436:168|488:196,2,100,2|12|0,0:0|0:0|0:0,0:0:0:0:
260,112,166910,5,8,0:0:0:0:
220,144,167095,1,0,0:0:0:0:
180,172,167281,2,0,B|128:144|76:172,2,100,2|8|4,0:0|0:0|0:0,0:0:0:0:
160,216,168207,1,0,0:0:0:0:
136,260,168392,1,8,0:0:0:0:
112,304,168576,1,0,0:0:0:0:
84,348,168762,1,2,0:0:0:0:
40,256,169132,6,0,B|-1:149|98:68|98:68,1,200,8|8,0:0|0:0,0:0:0:0:
192,64,170244,2,0,B|199:129|131:159|131:159,1,100,2|8,0:0|0:0,0:0:0:0:
112,56,170984,6,0,B|176:4|272:28|272:28,1,150,4|2,0:0|0:0,0:0:0:0:
304,40,171725,1,0,0:0:0:0:
316,188,172281,1,2,0:0:0:0:
336,172,172373,1,0,0:0:0:0:
360,164,172466,1,4,0:0:0:0:
412,164,172651,2,0,B|464:164,2,50,0|8|4,0:0|0:0|0:0,0:0:0:0:
352,244,173392,2,0,P|284:248|256:220,1,100,2|4,0:0|0:0,0:0:0:0:
256,192,173947,12,8,175058,0:0:0:0:
220,32,175428,5,4,0:0:0:0:
220,32,175614,1,0,0:0:0:0:
220,32,175799,1,0,0:0:0:0:
220,32,175984,2,0,B|270:34|303:109,1,100,4|2,0:0|0:0,0:0:0:0:
308,140,176540,2,0,B|344:188,1,50
256,144,176910,6,0,B|256:244,1,99.999990463257,4|8,0:0|0:0,0:0:0:0:
256,292,177466,1,0,0:0:0:0:
256,344,177651,1,2,0:0:0:0:
256,244,178021,1,8,0:0:0:0:
160,184,178392,2,0,P|256:160|356:184,1,200,4|2,0:0|0:0,0:0:0:0:
376,84,179502,5,8,0:0:0:0:
324,80,179688,2,0,P|256:68|176:84,1,150,4|8,0:0|0:0,0:0:0:0:
160,184,180614,1,2,0:0:0:0:
80,244,180984,2,0,P|168:292|244:228,1,200,4|8,0:0|0:0,0:0:0:0:
328,187,182095,5,2,0:0:0:0:
328,287,182466,1,8,0:0:0:0:
240,239,182836,1,4,0:0:0:0:
240,139,183207,1,8,0:0:0:0:
240,139,183392,2,0,B|240:75,1,50,0|2,0:0|0:0,0:0:0:0:
340,100,183947,5,8,0:0:0:0:
420,164,184318,1,4,0:0:0:0:
480,176,184503,1,0,0:0:0:0:
440,220,184687,1,8,0:0:0:0:
380,208,184873,1,0,0:0:0:0:
288,192,185244,5,0,0:0:0:0:
288,192,185429,1,2,0:0:0:0:
288,192,185614,1,4,0:0:0:0:
256,192,185799,12,4,190243,0:0:0:0:
