osu file format v12

[General]
AudioFilename: SPiCa-NicoNicoChorus.mp3
AudioLeadIn: 0
PreviewTime: 74691
Countdown: 0
SampleSet: Soft
StackLeniency: 0.7
Mode: 0
LetterboxInBreaks: 0
WidescreenStoryboard: 0

[Editor]
DistanceSpacing: 1
BeatDivisor: 4
GridSize: 4

[Metadata]
Title:SPiCa
TitleUnicode:SPiCa
Artist:Nico Nico Chorus
ArtistUnicode:Nico Nico Chorus
Creator:xXCrystalMoonAnimeXx
Version:Easy
Source:
Tags:Vocaloid2 Vocaloid Hatsune Miku Sun_Rainbow Sun Rainbow Douga Regou collab collaboration Toku-P Headphone-Tokyo NicoNico Wataame Mei Kuripurin Himawari Lino Noir Nico Nico Douga
BeatmapID:232614
BeatmapSetID:41000

[Difficulty]
HPDrainRate:2
CircleSize:3
OverallDifficulty:2
ApproachRate:3
SliderMultiplier:1
SliderTickRate:1

[Events]
//Background and Video events
0,0,"SPiCa-hatsune.jpg",0,0
Video,273,"SPiCa.avi"
//Break Periods
2,98595,105844
2,125261,131015
//Storyboard Layer 0 (Background)
//Storyboard Layer 1 (Fail)
Sprite,Fail,Centre,"CMA_Fail.png",320,240 M,0,62829,,528,161 F,0,62829,63569,0,1 F,0,63569,64310,1 F,0,64310,65051,1,0
//Storyboard Layer 2 (Pass)
Sprite,Pass,Centre,"CMA_Pass.png",320,240 M,0,62829,,528,161 F,0,62829,63569,0,1 F,0,63569,64310,1 F,0,64310,65051,1,0
//Storyboard Layer 3 (Foreground)
Sprite,Foreground,Centre,"CMA.png",320,240 M,0,2088,2273,741,339,533,282 M,0,2273,2458,533,282,444,362 M,0,2458,2829,444,362,542,345 M,0,2829,3014,542,345,547,364 M,0,3014,190236,547,364 M,0,190236,190421,547,364,658,242 M,0,190421,190607,658,242,752,251
Sprite,Foreground,Centre,"CMA Name.png",320,240 M,0,3570,,317,417 S,0,3570,,0.6160001 F,0,3570,3940,0,1 F,0,3940,190236,1 F,0,190236,190607,1,0
//Storyboard Sound Samples
//Background Colour Transformations
3,100,163,162,255

[TimingPoints]
3590,370.37037037037,4,2,0,35,1,0
9515,-100,4,2,3,30,0,0
15441,-100,4,2,3,40,0,0
21367,-100,4,2,3,45,0,0
24330,-100,4,2,3,50,0,0
25812,-100,4,2,3,55,0,0
27293,-100,4,2,3,40,0,0
28775,368.098159509202,4,2,3,40,1,0
30247,370.37037037037,4,2,3,35,1,0
39876,-100,4,2,3,50,0,0
42098,-100,4,2,3,35,0,0
42839,-100,4,2,3,50,0,0
45061,-100,4,2,3,35,0,0
45802,-100,4,2,3,50,0,0
48024,-100,4,2,3,35,0,0
48394,-100,4,2,3,50,0,0
53950,-100,4,2,3,30,0,0
54691,-100,4,2,3,50,0,0
62839,-100,4,2,3,55,0,0
64320,-100,4,2,3,40,0,0
64691,-100,4,2,3,55,0,0
71728,-100,4,2,3,40,0,0
72469,-100,4,2,3,55,0,0
74691,-100,4,2,3,60,0,1
80617,-100,4,2,3,40,0,1
80987,-100,4,2,3,60,0,1
82098,-100,4,2,3,50,0,1
85061,-100,4,2,3,60,0,1
95432,-100,4,2,3,60,0,0
119135,-100,4,2,3,40,0,0
121358,-100,4,2,3,60,0,0
130617,319.148936170213,4,2,0,35,1,0
130936,337.078651685393,4,2,0,35,1,0
131273,394.736842105263,4,2,0,35,1,0
132455,370.37037037037,4,2,0,35,1,0
138380,370.37037037037,4,2,0,35,1,0
144305,-100,4,2,3,30,0,0
151713,365.853658536585,4,2,3,35,1,0
153176,363.636363636364,4,2,0,35,1,0
154266,405.405405405405,4,2,0,35,1,0
154670,375,4,2,0,35,1,0
156170,370.37037037037,4,2,0,35,1,0
157281,-100,4,2,3,40,0,0
165058,-100,4,2,3,50,0,1
173947,-100,4,2,3,30,0,1
176818,-100,4,2,3,60,0,0
176910,-100,4,2,3,70,0,1
179873,-100,4,2,3,50,0,1
180244,-100,4,2,3,70,0,1
182836,-100,4,2,3,50,0,1
185799,-100,4,2,3,60,0,0
188021,-100,4,2,3,50,0,0

[Colours]
Combo1 : 70,186,255
Combo2 : 44,243,184
Combo3 : 196,136,255

[HitObjects]
156,88,3590,1,2,0:0:0:0:
356,88,5071,1,0,0:0:0:0:
356,296,6552,5,2,0:0:0:0:
156,296,8034,1,0,0:0:0:0:
156,296,9515,6,0,B|116:196|152:96,2,200,2|0|0,0:0|0:0|0:0,0:0:0:0:
356,296,12478,5,2,0:0:0:0:
356,88,13960,1,0,0:0:0:0:
356,244,15071,6,0,B|356:300,2,50,0|0|2,0:0|0:0|0:0,0:0:0:0:
152,244,16923,1,0,0:0:0:0:
256,72,18404,5,2,0:0:0:0:
356,244,19886,1,0,0:0:0:0:
256,72,21367,6,0,B|312:144|200:188|256:260,2,200,2|0|2,0:0|0:0|0:0,0:0:0:0:
452,40,24330,5,0,0:0:0:0:
428,260,25812,2,0,P|340:304|256:260,1,200,2|0,0:0|0:0,0:0:0:0:
352,152,27293,6,0,P|256:12|156:156,1,400,4|4,0:0|0:0,0:0:0:0:
28,260,29511,2,0,P|24:328|136:344,1,200,0|4,0:0|0:0,0:0:0:0:
256,248,30987,5,2,0:0:0:0:
416,248,31728,1,4,0:0:0:0:
336,108,32468,1,2,0:0:0:0:
256,248,33209,6,0,P|204:132|144:96,1,200,4|2,0:0|0:0,0:0:0:0:
96,248,34691,1,4,0:0:0:0:
420,344,36172,6,0,B|500:256|320:152|420:44|420:44,1,300,4|0,0:0|0:0,0:0:0:0:
328,44,37654,2,0,P|320:144|352:248,1,200,2|2,0:0|0:0,0:0:0:0:
192,192,39135,1,2,0:0:0:0:
110,327,39877,6,0,B|-44:328|-44:56|112:56,1,400
188,24,41729,1,0,0:0:0:0:
260,56,42098,1,2,0:0:0:0:
312,212,42840,6,0,B|404:152|504:216,2,200,2|0|0,0:0|0:0|0:0,0:0:0:0:
252,268,44692,1,2,0:0:0:0:
188,316,45062,2,0,B|96:376|-1:314,1,200,4|0,0:0|0:0,0:0:0:0:
100,244,46358,5,2,0:0:0:0:
76,168,46729,2,0,P|144:172|180:240,1,150,2|2,0:0|0:0,0:0:0:0:
188,316,47655,6,0,B|296:316,2,100,0|2|0,0:0|0:0|0:0,0:0:0:0:
108,304,48766,1,0,0:0:0:0:
28,304,49136,2,0,B|24:240|100:200|152:236|152:236|152:96,1,300,2|0,0:0|0:0,0:0:0:0:
136,24,50618,1,2,0:0:0:0:
72,76,50988,1,4,0:0:0:0:
76,236,51729,6,0,B|219:348|306:205|458:325,1,400
476,164,53950,1,2,0:0:0:0:
453,321,54691,2,0,B|306:205|219:348|76:236,1,400
124,172,56543,1,2,0:0:0:0:
200,144,56913,6,0,P|120:92|45:153,2,200,4|2|0,0:0|0:0|0:0,0:0:0:0:
276,160,58765,2,0,P|257:203|204:224,1,100,2|0,0:0|0:0,0:0:0:0:
136,192,59506,1,2,0:0:0:0:
200,144,59877,6,0,P|267:81|348:131,1,200,0|2,0:0|0:0,0:0:0:0:
456,244,61358,2,0,P|389:307|308:257,1,200,0|2,0:0|0:0,0:0:0:0:
268,104,62840,5,4,0:0:0:0:
108,119,63580,1,0,0:0:0:0:
108,280,64321,2,0,B|56:388,1,100,2|0,0:0|0:0,0:0:0:0:
148,384,65062,2,0,B|196:280,1,100,2|0,0:0|0:0,0:0:0:0:
272,304,65803,5,4,0:0:0:0:
432,304,66543,1,0,0:0:0:0:
348,160,67284,1,2,0:0:0:0:
188,160,68025,5,0,0:0:0:0:
268,160,68395,1,0,0:0:0:0:
348,160,68766,1,4,0:0:0:0:
464,264,69506,6,0,B|368:300|244:264,1,200,2|0,0:0|0:0,0:0:0:0:
140,368,70988,2,0,B|236:332|356:372,1,200,2|4,0:0|0:0,0:0:0:0:
472,276,72469,1,0,0:0:0:0:
336,192,73210,1,2,0:0:0:0:
44,40,74692,5,4,0:0:0:0:
44,200,75432,1,0,0:0:0:0:
44,40,76173,1,2,0:0:0:0:
124,40,76543,2,0,B|232:40,1,100,0|2,0:0|0:0,0:0:0:0:
224,120,77284,6,0,B|132:196|132:196,2,100,0|2|0,0:0|0:0|0:0,0:0:0:0:
296,84,78395,1,2,0:0:0:0:
372,64,78766,2,0,B|384:120|336:152|336:152|364:192|336:248,1,200,0|0,0:0|0:0,0:0:0:0:
400,296,79877,2,0,P|312:328|256:244,1,200,2|4,0:0|0:0,0:0:0:0:
338,245,80988,2,0,P|323:198|282:173,2,100,0|2|0,0:0|0:0|0:0,0:0:0:0:
416,220,82099,6,0,P|380:144|312:100,1,150,4|4,0:0|0:0,0:0:0:0:
256,64,83025,1,2,0:0:0:0:
184,104,83395,2,0,P|133:142|97:218,1,150,4|0,0:0|0:0,0:0:0:0:
76,296,84321,1,2,0:0:0:0:
236,276,85062,6,0,B|228:340|172:372,2,100,2|0|2,0:0|0:0|0:0,0:0:0:0:
260,200,86173,1,0,0:0:0:0:
180,188,86543,6,0,B|188:120|268:76|360:120|360:212|320:256,1,300,4|0,0:0|0:0,0:0:0:0:
304,328,88025,1,2,0:0:0:0:
228,348,88395,1,0,0:0:0:0:
152,328,88766,1,2,0:0:0:0:
104,168,89506,6,0,B|44:128|68:68,2,100,2|0|2,0:0|0:0|0:0,0:0:0:0:
140,96,90618,2,0,P|196:28|248:96,1,200,0|2,0:0|0:0,0:0:0:0:
288,168,91728,6,0,P|352:172|452:264,2,200,0|4|0,0:0|0:0|0:0,0:0:0:0:
308,244,93580,2,0,B|364:244|384:304,1,100,2|4,0:0|0:0,0:0:0:0:
304,324,94321,2,0,B|236:360|168:288|104:336,1,200,0|2,0:0|0:0,0:0:0:0:
256,192,95432,12,4,98395,0:0:0:0:
168,88,107284,6,0,P|155:146|167:186,1,100,0|2,0:0|0:0,0:0:0:0:
256,136,108024,1,0,0:0:0:0:
342,185,108395,2,0,P|415:189|464:244,1,150,0|2,0:0|0:0,0:0:0:0:
372,280,109321,2,0,B|352:336|280:353,2,100,0|2|0,0:0|0:0|0:0,0:0:0:0:
256,184,110618,5,0,0:0:0:0:
160,180,110987,2,0,P|92:184|44:244,1,150,2|0,0:0|0:0,0:0:0:0:
140,281,111913,2,0,B|160:336|210:346,2,100,0|2|0,0:0|0:0|0:0,0:0:0:0:
43,244,113024,1,2,0:0:0:0:
48,96,113580,6,0,P|92:104|140:152,1,100,0|2,0:0|0:0,0:0:0:0:
216,200,114321,2,0,P|256:220|312:196,1,100,0|2,0:0|0:0,0:0:0:0:
384,140,115062,2,0,P|425:104|469:96,2,100,0|2|0,0:0|0:0|0:0,0:0:0:0:
292,108,116172,1,2,0:0:0:0:
192,116,116543,1,0,0:0:0:0:
124,192,116913,6,0,P|148:264|220:292,1,150,2|0,0:0|0:0,0:0:0:0:
300,248,117839,2,0,B|382:232|382:350|474:330,1,200
496,180,119136,6,0,B|416:-20|96:-20|16:180,1,600,4|0,0:0|0:0,0:0:0:0:
100,236,122099,6,0,P|256:128|416:248,1,400,2|0,0:0|0:0,0:0:0:0:
328,288,124321,6,0,P|256:228|184:292,1,200,2|0,0:0|0:0,0:0:0:0:
464,260,132455,6,0,B|466:326|407:348,2,100,4|0|2,0:0|0:0|0:0,0:0:0:0:
308,232,133936,1,4,0:0:0:0:
48,44,135417,5,4,0:0:0:0:
308,232,136899,1,4,0:0:0:0:
48,44,138379,5,4,0:0:0:0:
168,156,139120,2,0,B|168:246|258:246|258:326,2,200,2|2|2,0:0|0:0|0:0,0:0:0:0:
348,156,141342,2,0,B|348:246|257:246|257:326,2,200,4|2|2,0:0|0:0|0:0,0:0:0:0:
464,44,143564,1,0,0:0:0:0:
411,192,144305,6,0,B|330:216|148:192|107:59|256:-46|404:59|363:192|181:216|100:192,2,600,2|2|2,0:0|0:0|0:0,0:0:0:0:
476,344,149490,1,2,0:0:0:0:
316,344,150231,6,0,B|212:344,2,100,2|0|2,0:0|0:0|0:0,0:0:0:0:
316,184,151713,2,0,P|309:92|368:56,2,150,2|2|2,0:0|0:0|0:0,0:0:0:0:
256,192,153176,12,2,156170,0:0:0:0:
336,236,157280,5,8,0:0:0:0:
416,236,157651,2,0,B|472:236|472:284|508:284,2,100,2|8|0,0:0|0:0|0:0,0:0:0:0:
336,236,158762,1,8,0:0:0:0:
256,236,159132,6,0,B|256:24|256:24,1,200,2|0,0:0|0:0,0:0:0:0:
176,36,160243,1,8,0:0:0:0:
96,36,160614,2,0,B|40:36|40:84|4:84,2,100,2|8|0,0:0|0:0|0:0,0:0:0:0:
104,116,161725,1,8,0:0:0:0:
184,116,162095,2,0,B|264:180,2,100,2|8|0,0:0|0:0|0:0,0:0:0:0:
256,192,163206,12,4,165058,0:0:0:0:
48,44,166169,6,0,B|128:116,1,100,8|2,0:0|0:0,0:0:0:0:
72,172,166910,2,0,B|152:244,1,100,8|0,0:0|0:0,0:0:0:0:
88,292,167651,6,0,B|168:364,1,100,8|4,0:0|0:0,0:0:0:0:
244,356,168391,1,8,0:0:0:0:
324,356,168762,1,0,0:0:0:0:
404,356,169132,2,0,B|404:308|464:332|464:260,1,100,8|2,0:0|0:0,0:0:0:0:
468,200,169873,1,8,0:0:0:0:
468,120,170243,6,0,B|468:56|404:24,1,100,0|8,0:0|0:0,0:0:0:0:
384,112,170984,2,0,B|288:112|348:240|220:228,1,200,4|0,0:0|0:0,0:0:0:0:
80,232,172465,2,0,L|80:388,2,150,4|2|0,0:0|0:0|0:0,0:0:0:0:
256,192,173947,12,4,175984,0:0:0:0:
180,328,176910,6,0,B|68:296|56:180,1,200,4|0,0:0|0:0,0:0:0:0:
68,108,178021,2,0,B|132:116|140:188,2,100,8|2|8,0:0|0:0|0:0,0:0:0:0:
57,186,179132,1,0,0:0:0:0:
60,268,179502,6,0,B|148:348,1,100,8|4,0:0|0:0,0:0:0:0:
216,336,180243,1,8,0:0:0:0:
296,336,180614,1,0,0:0:0:0:
256,264,180984,2,0,B|256:156,2,100,8|2|8,0:0|0:0|0:0,0:0:0:0:
296,336,182095,6,0,B|404:336,1,100,0|8,0:0|0:0,0:0:0:0:
452,280,182836,2,0,P|448:172|384:88,1,200,4|2,0:0|0:0,0:0:0:0:
324,68,183947,1,8,0:0:0:0:
320,148,184317,2,0,P|257:112|248:40,2,150,2|0|2,0:0|0:0|0:0,0:0:0:0:
256,192,185799,12,4,190243,0:0:0:0:
