osu file format v8

[General]
AudioFilename: NicoNico Chorus - Melt.mp3
AudioLeadIn: 1500
PreviewTime: 60749
Countdown: 1
SampleSet: Soft
StackLeniency: 0.7
Mode: 0
LetterboxInBreaks: 1

[Editor]
DistanceSpacing: 0.800000011920929
BeatDivisor: 4
GridSize: 8

[Metadata]
Title:Melt
Artist:Nico Nico Chorus
Creator:crowzen2
Version:Normal
Source:Nico Nico Douga
Tags:hatsune miku nico douga chorus samiljul muya KRZY

[Difficulty]
HPDrainRate:5
CircleSize:4
OverallDifficulty:4
ApproachRate:4
SliderMultiplier:1.4
SliderTickRate:1

[Events]
//Background and Video events
0,0,"BG.png"
//Break Periods
2,32718,34375
2,88836,99316
2,108953,110610
2,188012,197787
//Storyboard Layer 0 (Background)
//Storyboard Layer 1 (Fail)
//Storyboard Layer 2 (Pass)
//Storyboard Layer 3 (Foreground)
//Storyboard Sound Samples
//Background Colour Transformations
3,100,163,162,255

[TimingPoints]
1460,705.882352941176,4,2,0,20,1,0
7107,-100,4,2,0,40,0,0
12754,-100,4,2,0,100,0,0
60754,-100,4,2,0,100,0,1
87578,-100,4,2,0,100,0,0
136990,-100,4,2,0,100,0,1
164518,-100,4,2,0,100,0,0
210402,-100,4,2,0,100,0,1
221696,-100,4,2,0,100,0,1
237225,-100,4,2,0,100,0,0

[Colours]
Combo1 : 64,232,255
Combo2 : 0,213,213
Combo3 : 0,223,112
Combo4 : 128,255,128

[HitObjects]
400,80,1460,2,0,B|384:32|344:16|296:40|288:96,1,140,2|2
272,136,2518,1,0
264,192,2871,2,0,B|248:224|232:264|176:256|136:224,1,140,2|0
144,120,4283,6,0,B|96:120|64:152|64:216,1,140,2|0
64,272,5342,1,0
64,328,5695,2,0,B|208:328,1,140,2|0
320,328,7107,6,0,B|432:328|432:264,1,140,2|0
432,216,8165,1,0
432,160,8518,2,0,B|288:160,1,140,2|0
256,192,9930,12,0,12048
160,96,12754,6,0,B|96:160|128:224,1,140,4|0
152,272,13812,1,0
184,224,14165,1,2
216,272,14518,1,0
272,272,14871,1,0
384,272,15577,6,0,B|400:208|376:128,1,140,2|0
352,80,16636,1,0
320,128,16989,1,0
288,80,17342,1,2
232,80,17695,1,0
120,80,18401,6,0,B|64:80|24:120|24:168,1,140,2|0
56,208,19459,1,0
112,208,19812,1,2
168,208,20165,1,0
224,208,20518,1,0
256,192,20871,12,0,24048
320,288,24401,6,0,B|384:256|384:192|352:160,1,140
320,136,25459,1,2
264,136,25812,1,0
168,192,26518,5,2
168,248,26871,2,0,B|216:296|264:288|312:248,1,140,0|2
344,232,27930,1,0
344,176,28283,1,2
288,168,28636,1,0
288,112,28989,1,2
344,104,29342,1,0
344,48,29695,6,0,B|136:32|88:192|104:336|344:336,1,560,2|0
400,336,35695,5,0
400,280,36048,1,2
400,224,36401,1,2
400,168,36754,2,0,B|392:112|304:112|304:184,1,140
304,272,38165,5,0
248,272,38518,1,2
192,272,38871,1,2
136,272,39224,1,0
136,216,39577,1,2
136,160,39930,1,0
192,160,40283,1,2
248,160,40636,1,0
304,160,40989,6,0,B|368:176|384:288|256:288,1,210,2|0
208,288,42401,2,0,B|112:256|128:144|224:112,1,210,2|0
248,120,43812,2,0,B|440:136|440:280|360:360|232:344,1,420,2|0
192,344,46283,1,0
136,344,46636,5,2
136,288,46989,1,0
136,232,47342,1,2
192,232,47695,1,0
248,232,48048,1,2
248,176,48401,1,0
304,176,48754,1,2
304,232,49107,1,0
304,288,49459,6,0,B|208:288,1,70,2|2
176,288,50165,2,0,B|176:192,1,70,2|2
176,160,50871,2,0,B|248:112|336:176,1,140,2|2
368,160,51930,5,0
368,216,52283,1,2
368,272,52636,1,0
368,328,52989,1,2
312,328,53342,1,0
256,328,53695,2,0,B|256:168,2,140
32,336,56518,5,2
80,304,56871,1,2
128,272,57224,1,2
176,240,57577,1,2
256,192,57930,12,0,60048
256,72,60754,6,0,B|336:112|336:208,1,140,4|0
336,240,61812,1,0
280,240,62165,1,2
224,240,62518,1,0
168,240,62871,1,2
112,240,63224,1,0
112,184,63577,2,0,B|144:112|232:88|376:112,1,280
416,112,65342,5,0
416,168,65695,1,2
416,224,66048,1,0
416,280,66401,1,2
472,280,66754,1,0
472,280,67107,1,0
472,224,67459,5,0
416,224,67812,1,2
360,224,68165,2,0,B|304:224,1,35
312,304,68871,5,0
256,304,69224,1,2
144,304,69930,1,2
256,304,70636,1,2
256,248,70989,2,2,B|256:168,2,70
200,208,72048,6,0,B|112:184|104:72|184:32|264:64,1,280,4|0
320,72,73812,1,0
368,96,74165,1,2
408,136,74518,1,0
416,192,74871,1,2
416,248,75224,1,0
416,248,75401,1,0
232,176,76636,5,0
176,176,76989,1,2
176,176,77342,1,2
120,176,77695,2,0,B|64:144|-16:232|56:312,1,210
104,336,79107,2,0,B|176:384|256:352|256:240,1,210
256,192,80518,12,0,82636
320,192,83342,6,0,L|320:48,1,140,4|0
208,56,84754,2,0,L|208:200,1,140
208,312,86165,2,0,L|352:312,1,140
256,192,88107,5,0
256,192,88283,1,2
256,192,88460,1,0
256,192,88636,1,0
128,192,100636,6,0,L|48:192,2,70
128,248,101695,1,2
184,248,102048,1,0
296,248,102754,5,0
352,248,103107,2,0,B|360:192|336:144|272:120,1,140,2|2
240,112,104165,1,0
184,104,104518,1,2
128,120,104871,1,0
104,168,105224,1,2
96,224,105577,1,0
104,280,105930,2,0,B|152:344|248:344,4,140
112,184,111930,5,0
112,128,112283,1,2
168,128,112636,1,0
224,128,112989,2,0,B|288:208|208:288,1,140,2|2
208,312,114048,1,0
264,312,114401,6,0,B|360:328|384:232,1,140,2|2
384,200,115460,1,0
384,144,115812,1,2
440,144,116165,1,0
384,144,116518,1,2
328,144,116871,1,0
272,144,117224,6,0,B|224:144|160:160|128:208|120:288,1,210,2|0
120,320,118636,2,0,B|184:352|248:336|280:288|280:224,1,210,2|0
256,192,120048,12,2,122165
256,136,122871,5,2
200,136,123224,1,0
200,192,123577,1,2
256,192,123930,1,0
312,192,124283,1,2
312,248,124636,1,0
256,248,124989,1,2
256,192,125342,1,0
296,152,125695,6,0,B|376:88,2,70,2|0|2
240,152,126754,1,2
184,152,127107,1,2
104,152,127636,2,0,B|64:152,1,35
72,208,128165,1,0
72,264,128518,5,2
128,264,128871,1,0
184,264,129224,1,2
184,320,129577,1,0
240,320,129930,2,0,B|328:312|344:192|256:160,1,210
224,144,131342,1,0
200,112,132754,5,2
256,112,133107,1,2
312,112,133460,1,2
256,112,133812,1,2
256,168,134165,2,0,B|256:328,1,140
256,360,135577,5,2
208,328,135930,1,0
208,272,136283,1,2
256,248,136636,1,2
256,192,136989,6,0,B|112:192|112:64,1,210,4|0
168,72,138401,1,2
224,72,138754,1,0
280,72,139107,1,2
280,128,139460,1,0
280,184,139812,1,2
280,240,140165,2,0,B|288:344|392:344|392:216,1,210,2|0
392,176,141577,5,0
392,120,141930,1,2
392,64,142283,1,0
336,64,142636,2,0,B|176:64|176:176,1,210
176,224,144048,2,0,B|176:336|16:336,1,210
32,280,145460,6,0,B|32:200,1,70,2|0
32,152,146165,2,0,B|32:72,1,70,2|0
32,24,146871,1,2
80,56,147224,1,2
128,88,147577,1,2
176,120,147930,1,2
224,152,148283,6,0,B|304:216|384:120,1,140,4|0
400,128,149342,1,0
400,184,149695,1,2
400,240,150048,1,0
400,296,150401,1,2
344,296,150754,1,0
288,296,151107,1,2
232,296,151460,2,0,B|184:296|144:272|136:224|136:136,1,210,2|2
80,144,152871,5,0
80,88,153224,1,2
136,88,153577,1,0
192,88,153930,2,0,B|304:80|304:200|160:184,1,210
136,184,155342,2,0,B|24:176|24:296|168:280,1,210
192,280,156754,2,0,B|272:312|368:312|400:232|408:152,1,280,2|0
288,56,159224,5,0
232,56,159577,2,0,B|232:200,1,140,2|2
288,200,160636,1,0
288,256,160989,2,0,B|144:256,1,140,2|2
144,312,162048,1,0
88,312,162401,2,0,B|88:232|120:160|168:88|200:56,1,280,2|0
304,64,164518,5,2
336,64,164695,1,2
360,64,164871,1,2
392,64,165048,1,2
416,64,165224,6,0,C|416:224,1,140
416,320,166636,1,0
360,320,166989,1,2
304,320,167342,1,2
248,320,167695,1,2
192,320,168048,1,2
192,208,168754,5,0
248,208,169107,1,0
304,208,169460,2,0,B|352:208|368:160|336:112|288:112,1,140,2|2
200,80,170871,5,0
200,192,171577,1,2
200,304,172283,1,2
312,304,172989,1,2
368,304,173342,1,2
424,304,173695,2,0,B|440:192|352:96,1,210
320,72,175107,1,0
264,56,175460,2,0,B|208:72,1,35
256,192,175989,12,0,187812
112,160,199107,6,0,B|256:160,1,140
312,160,200165,1,0
368,160,200518,1,2
312,160,200871,1,0
312,160,201224,1,0
400,224,201930,6,0,B|256:224,1,140
192,224,202989,1,0
192,224,203342,1,0
124,224,203695,1,2
192,224,204048,1,0
192,160,204754,6,0,B|192:16,1,140
248,16,205812,1,0
304,16,206165,2,0,B|304:160,1,140,2|0
256,192,207577,12,0,209695
256,192,210401,6,0,B|144:200|144:80|288:96,1,210,4|0
312,96,211812,1,2
368,96,212165,1,0
368,152,212518,1,2
312,152,212871,1,2
256,152,213224,1,0
200,152,213577,2,0,B|160:120|120:144|88:184|120:232|208:232,1,210,2|2
256,232,214989,5,0
256,288,215342,1,2
256,344,215695,1,10
200,344,216048,2,0,B|120:312|136:248|168:216,1,140,2|2
208,232,217107,1,0
264,232,217460,2,0,B|408:232,1,140,2|2
456,232,218518,1,0
456,176,218871,6,0,B|488:88|440:24|376:8|328:40|280:96|328:184,1,350,2|2
328,224,220989,1,2
272,224,221342,1,2
216,224,221695,2,0,B|104:216|104:336|248:320,1,210,4|0
272,320,223107,5,0
272,264,223460,1,2
216,264,223812,1,2
216,208,224165,1,0
272,208,224518,1,2
272,152,224871,1,2
272,120,225048,2,0,B|208:120|176:136|144:168|128:216|128:296,1,245,2|0
128,336,226636,5,2
184,336,226989,1,2
240,336,227342,1,2
296,336,227695,1,0
296,336,227871,1,0
352,272,228401,5,0
296,272,228754,1,2
240,272,229107,1,0
240,272,229283,1,0
184,208,229812,5,0
240,208,230165,1,2
296,208,230518,1,0
296,208,230695,2,0,B|296:128|208:56|96:112,1,245
40,128,232636,5,0
40,184,232989,2,0,B|40:280,1,70,2|0
40,312,233695,2,0,B|120:312,1,70,2|0
168,312,234401,2,0,B|168:232,1,70,2|0
168,184,235107,2,0,B|248:184,1,70,2|0
296,184,235812,5,2
296,240,236165,1,2
296,296,236518,1,2
240,296,236871,1,2
240,240,237224,1,2
184,176,237754,5,0
184,176,237930,1,2
184,176,238107,1,0
184,176,238283,1,0
