osu file format v9

[General]
AudioFilename: Leia (Chorus).mp3
AudioLeadIn: 0
PreviewTime: 69756
Countdown: 0
SampleSet: Normal
StackLeniency: 0.4
Mode: 0
LetterboxInBreaks: 1

[Editor]
Bookmarks: 53966,70387,100387,114598,129756,142387,159747,173966,189124,204282,232071,244703,257334,269966
DistanceSpacing: 1.2
BeatDivisor: 4
GridSize: 4

[Metadata]
Title:Leia
Artist:Nico Nico Chorus
Creator:Natteke
Version:Collab
Source:
Tags:vocaloid megurine luka inaba-tan happy30

[Difficulty]
HPDrainRate:7
CircleSize:4
OverallDifficulty:7
ApproachRate:9
SliderMultiplier:1.8
SliderTickRate:1

[Events]
//Background and Video events
0,0,"bg.jpg"
//Break Periods
//Storyboard Layer 0 (Background)
//Storyboard Layer 1 (Fail)
//Storyboard Layer 2 (Pass)
//Storyboard Layer 3 (Foreground)
//Storyboard Sound Samples
//Background Colour Transformations
3,100,163,162,255

[TimingPoints]
53959,315.789473684211,5,1,1,70,1,0
60590,315.789473684211,5,1,1,70,1,0
62800,315.789473684211,5,1,1,70,1,0
70378,315.789473684211,5,1,1,70,1,0
83009,315.789473684211,5,1,1,70,1,0
86443,-133.333333333333,5,1,1,70,0,0
100379,-133.333333333333,5,1,1,60,0,0
100457,-133.333333333333,5,2,1,60,0,0
101247,-133.333333333333,5,1,1,60,0,0
101404,-133.333333333333,5,2,1,60,0,0
101561,-133.333333333333,5,1,1,60,0,0
101718,-133.333333333333,5,2,1,60,0,0
101875,-133.333333333333,5,1,1,60,0,0
102032,-133.333333333333,5,2,1,60,0,0
103142,-133.333333333333,5,1,1,60,0,0
103299,-133.333333333333,5,2,1,60,0,0
103456,-133.333333333333,5,1,1,60,0,0
103613,-133.333333333333,5,2,1,60,0,0
103770,-133.333333333333,5,1,1,60,0,0
103927,-133.333333333333,5,2,1,60,0,0
104721,-133.333333333333,5,1,1,60,0,0
104878,-133.333333333333,5,2,1,60,0,0
105035,-133.333333333333,5,1,1,60,0,0
105192,-133.333333333333,5,2,1,60,0,0
105349,-133.333333333333,5,1,1,60,0,0
105506,-133.333333333333,5,2,1,60,0,0
105663,-133.333333333333,5,1,1,60,0,0
105820,-133.333333333333,5,2,1,60,0,0
106615,-133.333333333333,5,1,1,60,0,0
107405,-133.333333333333,5,2,1,60,0,0
108194,-133.333333333333,5,1,1,60,0,0
108351,-133.333333333333,5,2,1,60,0,0
108508,-133.333333333333,5,1,1,60,0,0
108665,-133.333333333333,5,2,1,60,0,0
108822,-133.333333333333,5,1,1,60,0,0
109300,-133.333333333333,5,2,1,60,0,0
110089,-133.333333333333,5,1,1,60,0,0
110404,-133.333333333333,5,2,1,60,0,0
110798,315.789473684211,5,2,1,60,1,0
110798,-133.333333333333,5,2,1,60,0,0
111668,-133.333333333333,5,1,1,60,0,0
111825,-133.333333333333,5,2,1,60,0,0
111982,-133.333333333333,5,1,1,60,0,0
112139,-133.333333333333,5,2,1,60,0,0
112296,-133.333333333333,5,1,1,60,0,0
112768,-133.333333333333,5,2,1,60,0,0
113642,-133.333333333333,5,1,1,60,0,0
114747,-133.333333333333,5,2,1,60,0,0
122089,-133.333333333333,5,1,1,60,0,0
122247,-133.333333333333,5,2,1,60,0,0
122957,-133.333333333333,5,1,1,60,0,0
123273,-133.333333333333,5,2,1,60,0,0
123905,-133.333333333333,5,1,1,60,0,0
126115,-133.333333333333,5,1,1,60,0,0
129745,315.789473684211,5,1,1,70,1,1
154931,-100,5,1,1,70,0,0
155008,315.789473684211,5,1,1,70,1,1
155008,-75.187969924812,5,1,1,70,0,1
159744,315.789473684211,5,1,1,70,1,0
159744,-117.647058823529,5,1,1,70,0,0
160773,-117.647058823529,5,2,1,70,0,0
160930,-117.647058823529,5,1,1,70,0,0
161087,-117.647058823529,5,2,1,70,0,0
161247,-117.647058823529,5,1,1,70,0,0
161404,-117.647058823529,5,2,1,70,0,0
161561,-117.647058823529,5,1,1,70,0,0
164247,-117.647058823529,5,2,1,70,0,0
164404,-117.647058823529,5,1,1,70,0,0
164561,-117.647058823529,5,2,1,70,0,0
164718,-117.647058823529,5,1,1,70,0,0
167721,-117.647058823529,5,2,1,70,0,0
167878,-117.647058823529,5,1,1,70,0,0
168035,-117.647058823529,5,2,1,70,0,0
168192,-117.647058823529,5,1,1,70,0,0
169615,-117.647058823529,5,2,1,70,0,0
169772,-117.647058823529,5,1,1,70,0,0
169929,-117.647058823529,5,2,1,70,0,0
170086,-117.647058823529,5,1,1,70,0,0
170165,315.789473684211,5,1,1,70,1,0
170165,-117.647058823529,5,1,1,70,0,0
189105,-111.111111111111,5,1,1,70,0,0
219115,-200,5,1,1,40,0,0
219428,315.789473684211,5,1,1,40,1,0
219428,-200,5,1,1,40,0,0
219589,-200,5,2,1,40,0,0
231431,-133.333333333333,5,2,1,50,0,0
240905,-200,5,2,1,50,0,0
241063,-200,5,2,1,30,0,0
241379,-200,5,2,1,15,0,0
243901,-100,5,1,1,75,0,0
244691,-83.3333333333333,5,1,1,75,0,1
257326,-83.3333333333333,5,1,1,85,0,1
269879,-83.3333333333333,5,1,1,85,0,0
269954,-83.3333333333333,5,1,1,85,0,1
282585,315.789473684211,5,1,1,85,1,1
286216,-133.333333333333,5,1,1,85,0,0

[Colours]
Combo1 : 255,0,255
Combo2 : 0,255,0
Combo3 : 255,128,0
Combo4 : 72,164,255

[HitObjects]
200,336,53959,2,0,B|160:352,2,45,4|0|0
312,336,54274,2,0,B|352:352,2,45
96,80,54590,5,0
40,184,54748,1,0
88,288,54906,1,0
184,216,55064,2,0,B|168:176,2,45,4|0|0
416,80,55380,37,0
472,184,55537,1,0
328,216,55695,2,0,B|344:176,2,45,4|0|0
256,304,56011,2,0,B|256:352,2,45
160,232,56327,5,0
192,120,56485,1,0
312,120,56643,1,0
352,232,56801,1,4
352,232,56880,1,0
352,232,56959,1,0
352,232,57116,38,0,B|448:272,1,90
384,64,57432,1,0
240,184,57590,1,0
312,336,57748,6,0,B|352:352,2,45,4|0|0
200,336,58064,2,0,B|160:352,2,45
416,80,58380,37,0
472,184,58537,1,0
424,288,58695,1,0
328,216,58853,2,0,B|344:176,2,45,4|0|0
256,120,59169,5,0
256,120,59327,1,0
184,216,59485,2,0,B|168:176,2,45,4|0|0
256,312,59801,2,0,B|256:256,2,45
96,80,60116,37,0
40,184,60274,1,0
88,288,60432,1,0
184,216,60590,1,4
184,216,60668,1,0
184,216,60747,1,0
328,216,60905,1,0
328,216,60984,1,0
328,216,61063,1,0
328,216,61142,1,0
328,216,61221,6,0,B|392:240|392:240|432:288|416:368,1,180
419,345,61616,1,0
419,345,61695,1,0
336,128,62011,1,0
336,128,62090,1,0
336,128,62168,2,0,B|256:48|176:120,1,180
256,352,62642,37,0
256,264,62800,1,0
256,240,62878,1,0
256,216,62957,1,0
256,192,63036,1,0
256,168,63115,1,0
256,144,63194,1,0
256,120,63273,1,0
256,96,63352,1,0
256,72,63431,6,0,B|352:40,1,90,4|0
152,112,63747,2,0,B|96:96,2,45
360,184,64063,2,0,B|416:168,2,45
120,232,64378,37,0
416,296,64615,1,0
80,352,64852,1,0
192,320,65010,6,0,B|200:368,2,45,4|0|0
320,320,65326,2,0,B|312:368,2,45
264,216,65642,1,0
312,112,65800,1,0
424,104,65957,1,0
480,208,66115,37,4
480,208,66194,1,0
480,208,66273,1,0
448,320,66431,2,0,B|432:384,2,45
376,224,66747,1,0
272,280,66905,2,0,B|256:216,2,45
200,376,67221,1,0
112,296,67378,1,0
8,352,67536,1,4
256,192,67694,12,0,69431
88,112,69747,37,0
88,112,69905,1,0
88,112,70063,1,0
88,112,70221,1,0
88,112,70378,38,0,B|24:192|88:288,1,180,4|0
176,232,70851,2,0,B|256:176|352:232,1,180,8|0
264,336,71325,6,0,B|256:288|264:240,1,90,8|0
424,144,71641,2,0,B|431:185|423:233,1,90,8|0
344,304,71956,38,0,B|336:240|336:240|352:216|352:216|352:200|352:200|336:104,1,180,4|0
240,88,72430,2,0,B|257:186,1,90,8|8
168,240,72746,1,0
168,240,72825,1,0
168,240,72904,6,0,B|151:142,1,90,8|8
72,80,73220,1,0
0,216,73378,1,0
120,344,73535,38,0,B|184:352|184:352|232:312|232:312|304:320,1,180,4|0
376,256,74009,1,0
376,256,74088,1,0
376,256,74167,2,0,B|472:272,1,90,8|0
288,240,74483,2,0,B|192:224,1,90,8|8
360,96,74799,1,0
360,96,74956,1,0
360,96,75035,1,0
360,96,75114,6,0,B|341:193,1,90,4|0
320,288,75430,1,8
320,288,75588,2,0,B|232:224|160:312,1,180,4|0
256,368,76062,37,0
136,232,76220,1,0
224,72,76378,1,8
344,200,76535,1,0
90,300,76693,6,0,B|24:264|48:168|104:160,1,180,4|0
200,232,77167,1,8
200,232,77325,2,0,B|208:328,1,90
256,72,77641,2,0,B|272:144|272:144|280:160|280:160|280:256,1,180,8|4
392,288,78114,1,0
392,288,78272,38,0,B|328:360|208:328,1,180,4|8
0,328,78746,2,0,B|64:256|184:288,1,180,4|8
256,176,79220,2,8,B|264:224|232:264,1,90
120,112,79535,2,8,B|112:64|144:24,1,90,8|0
256,56,79851,6,0,B|344:120|432:48,1,180,4|8
422,55,80325,2,0,B|448:240,1,180,4|8
447,233,80799,2,0,B|360:192|272:256,1,180,4|8
277,252,81272,1,0
176,320,81430,38,0,B|152:224,1,90,12|0
16,160,81746,2,8,B|112:176,1,90,12|8
248,104,82062,2,0,B|176:168,1,90,4|0
296,184,82378,1,8
313,182,82456,1,0
330,185,82535,1,8
346,193,82614,1,0
358,206,82693,1,8
365,222,82772,1,0
368,239,82851,1,8
365,256,82930,1,0
357,272,83009,6,4,B|272:274|272:274|216:304|216:304|80:312,3,270
72,56,84903,1,4
256,360,85377,1,4
440,56,85851,1,4
336,112,86009,1,0
256,192,86166,21,0
256,224,86245,1,0
256,256,86324,1,0
256,296,86403,1,0
256,328,86482,2,0,B|344:392|448:328,1,202.49999396503,4|8
344,208,87272,1,0
376,136,87430,2,0,B|504:80,1,134.999995976687,0|8
424,320,88061,1,8
248,88,88377,37,4
184,136,88535,2,0,B|56:80,1,134.999995976687,0|8
16,272,89166,1,0
80,216,89324,2,0,B|160:184|224:256,1,134.999995976687,0|8
344,336,89956,6,0,B|256:400|152:336,1,202.49999396503,4|8
480,88,90745,1,0
448,160,90903,2,0,B|320:216,2,134.999995976687,0|0|8
56,72,91851,37,0
128,32,92009,2,0,B|256:88,1,134.999995976687,0|8
64,264,92482,2,0,B|64:216|88:184,1,67.4999979883433
120,128,92798,1,0
184,344,93114,5,8
208,264,93272,1,0
272,216,93430,1,4
336,264,93587,2,0,B|480:296,1,134.999995976687,0|8
344,16,94219,1,0
288,80,94377,2,0,B|144:112,1,134.999995976687
120,184,94851,1,0
192,216,95009,2,0,B|272:224|304:312,1,134.999995976687,8|4
336,368,95482,37,0
512,200,95798,1,8
328,24,96114,1,0
312,104,96272,1,0
88,360,96587,1,8
72,280,96745,1,0
48,200,96903,6,0,B|16:64,1,134.999995976687,4|0
152,256,97377,2,0,B|112:120,1,134.999995976687,8|0
176,72,97851,1,0
312,152,98166,1,0
232,296,98482,2,0,B|288:352|360:328,1,134.999995976687,8|4
472,120,99272,37,0
416,64,99430,2,0,B|344:80,1,67.4999979883433,8|0
160,144,99745,1,0
200,224,99903,2,0,B|272:240,1,67.4999979883433,8|0
328,312,100219,1,0
64,304,100377,22,0,B|64:232|80:144,1,134.999995976687,4|0
168,128,100851,1,0
168,128,101166,1,0
168,128,101324,2,0,B|176:208,1,67.4999979883433,0|0
248,264,101640,2,0,B|256:184,1,67.4999979883433,0|0
304,112,101956,2,0,B|368:104|448:112,1,134.999995976687,0|4
368,304,102587,5,0
368,304,102745,2,0,B|304:312|224:304,1,134.999995976687,0|0
144,256,103219,2,0,B|136:336,1,67.4999979883433
48,280,103535,2,0,B|56:200,1,67.4999979883433
136,152,103851,37,4
136,152,104166,1,0
136,152,104324,2,0,B|152:88|144:8,1,134.999995976687
248,32,104798,2,0,B|336:48,1,67.4999979883433
288,184,105114,2,0,B|200:200,1,67.4999979883433
232,328,105430,2,0,B|320:344,1,67.4999979883433
400,328,105745,6,0,B|448:272|424:176,1,134.999995976687,0|0
320,96,106219,2,0,B|367:150|348:222,1,134.999995976687,0|0
256,256,106693,2,0,B|176:272,1,67.4999979883433
96,232,107009,1,0
72,187,107087,1,0
65,136,107166,1,0
84,89,107245,1,0
128,64,107324,38,0,B|280:64,1,134.999995976687,4|0
336,136,107798,2,0,B|320:208|240:240,1,134.999995976687
280,328,108272,2,0,B|432:328,2,134.999995976687
280,328,109219,6,0,B|232:272|144:304,1,134.999995976687,0|0
64,264,109693,2,0,B|40:192|72:120,1,134.999995976687
144,72,110166,1,0
248,72,110324,1,0
352,72,110482,1,4
352,72,110798,38,0,B|384:128|360:208,1,134.999995976687,4|0
264,208,111271,2,0,B|120:208,1,134.999995976687
24,200,111745,2,0,B|1:275|33:331,2,134.999995976687
184,80,112692,6,0,B|272:72,1,67.4999979883433,4|0
328,144,113008,2,0,B|334:211,1,67.4999979883433,0|0
264,288,113324,2,0,B|176:296,1,67.4999979883433,0|0
96,192,113640,37,0
129,197,113719,1,0
162,198,113798,1,0
195,194,113876,1,0
226,184,113955,1,0
255,168,114034,1,0
276,142,114113,1,0
291,112,114192,1,0
293,78,114271,1,0
374,333,114587,37,4
416,256,114903,1,0
496,216,115219,1,0
424,64,115534,1,2
138,51,116482,37,0
96,128,116798,1,0
16,168,117113,1,0
88,320,117429,1,2
176,208,117745,1,0
304,112,118061,1,0
432,352,118376,5,0
368,296,118534,1,0
288,272,118692,1,0
240,336,118850,1,0
160,360,119008,1,0
88,328,119166,1,0
72,248,119324,2,0,B|80:208|96:184,2,67.4999979883433,2|0|0
164,232,119798,2,0,B|172:272|188:296,2,67.4999979883433
208,72,120271,38,0,B|200:32|184:8,2,67.4999979883433
352,304,120745,2,0,B|344:344|328:368,2,67.4999979883433
380,220,121219,1,2
380,220,121534,1,2
380,220,121850,1,2
496,288,122166,6,0,B|432:320,1,67.4999979883433,4|0
435,318,122482,1,0
280,192,122798,2,0,B|216:224,1,67.4999979883433
219,222,123034,1,0
219,222,123113,1,0
128,88,123429,1,2
264,0,123745,1,0
376,120,124061,38,0,B|424:208|392:320,1,202.49999396503,4|0
128,360,125008,1,0
32,232,125324,1,0
168,136,125640,1,0
256,272,125955,5,4
48,328,126271,1,0
328,352,126587,1,0
120,240,126903,1,0
392,176,127219,1,0
160,72,127534,1,0
64,320,127850,38,0,B|200:352,1,134.999995976687,4|0
448,224,128324,2,0,B|312:256,1,134.999995976687
316,254,128719,1,0
316,254,128798,1,0
80,240,129113,21,0
32,184,129271,1,0
64,120,129429,1,0
136,136,129587,1,0
152,216,129745,6,0,B|80:192|48:64,1,180,4|0
176,48,130218,2,0,B|248:48|248:48|264:56|264:56|368:56,1,180,8|0
440,152,130692,2,0,B|456:192|448:240,1,90,8|0
344,312,131008,2,0,B|328:272|336:224,1,90,8|0
232,368,131323,38,0,B|192:288|224:168,1,180,4|8
96,152,131797,2,0,B|104:88|176:48|256:88,1,180,8|0
120,320,132271,2,8,B|120:272|120:272|128:224,1,90,0|0
248,184,132587,1,8
376,184,132744,1,8
496,216,132902,6,0,B|520:280|480:352|400:336,1,180,4|0
224,272,133376,2,0,B|296:264|296:264|328:272|328:272|408:256,1,180,8|0
336,160,133850,2,0,B|240:176,1,90,8|0
200,368,134166,2,0,B|296:352,1,90,8|0
224,272,134481,38,0,B|176:184|56:232,1,180,4|8
104,352,134955,2,8,B|184:176,1,180,8|0
232,72,135429,1,0
263,68,135508,1,0
294,69,135587,1,0
324,77,135666,1,0
351,93,135744,1,8
373,114,135823,1,8
384,143,135902,1,8
388,174,135981,1,8
386,205,136060,6,0,B|386:310|277:346,1,180,4|0
152,192,136534,2,0,B|184:144|272:144|312:192,1,180,8|0
232,272,137008,2,0,B|216:360,1,90,8|0
48,184,137323,2,0,B|64:96,1,90,8|0
176,56,137639,38,0,B|264:32|357:57,1,180,4|0
264,312,138113,2,8,B|256:264|256:264|264:256|264:256|256:240|256:240|264:112,1,180,8|0
368,192,138587,1,8
376,312,138744,1,0
136,312,138902,1,8
144,192,139060,1,8
256,160,139218,6,0,B|256:360,1,180,4|0
256,152,139692,2,8,B|304:248|400:264,1,180
256,152,140166,2,8,B|208:248|112:264,1,180
80,152,140639,1,0
80,152,140718,1,0
80,152,140797,38,0,B|112:56|224:40,1,180,4|0
328,56,141271,1,0
441,207,141429,2,0,B|448:168|424:120,1,90,8|0
314,351,141744,2,0,B|360:352|392:312,1,90,8|8
147,265,142060,2,0,B|160:312|200:336,1,90,8|0
80,136,142376,38,0,B|0:200|32:312,1,180,4|0
88,368,142850,1,8
272,320,143008,2,0,B|368:344,1,90,0|0
448,280,143323,2,0,B|384:184|272:232,1,180,8|8
136,368,143797,1,0
32,216,143955,38,0,B|96:120|208:168,1,180,4|0
192,272,144429,2,0,B|240:368|360:352,1,180,8|8
440,304,144902,1,0
488,208,145060,1,8
448,112,145218,1,0
344,88,145376,1,8
376,192,145534,6,0,B|328:288|208:272,1,180,4|0
136,216,146008,1,8
472,352,146481,1,8
40,152,146797,1,8
112,72,146955,37,0
112,72,147034,1,0
112,72,147113,2,0,B|208:104,1,90,4|0
392,192,147429,1,8
328,280,147587,2,0,B|232:312,1,90
152,256,147902,1,8
0,336,148060,2,0,B|96:368,1,90
256,200,148376,2,0,B|160:168,1,90,8|0
384,360,148692,6,0,B|480:312|464:192,1,180,4|0
328,280,149166,2,0,B|264:304|264:304|248:344|248:344|176:368,1,180,8|0
24,184,149639,2,0,B|56:296,1,90,8|0
76,64,149955,2,0,B|108:176,1,90,8|0
104,172,150192,1,0
112,192,150271,38,0,B|196:263|308:175,1,180,4|0
200,128,150744,1,8
112,296,150902,2,0,B|144:408,1,90,8|0
328,256,151218,2,0,B|296:368,1,90,8|0
456,168,151534,2,0,B|424:280,1,90,8|0
423,275,151771,1,0
417,296,151850,1,4
216,224,152008,6,0,B|104:192,2,90,0|0|8
288,160,152481,2,0,B|400:128,2,90,0|0|8
24,288,153113,37,8
16,184,153271,1,0
16,184,153350,1,0
16,184,153429,1,4
96,112,153587,2,0,B|128:208|224:224,1,180,8|0
176,320,154060,2,0,B|240:320|288:344,1,90,8|0
456,192,154376,1,8
440,208,154455,1,0
416,216,154534,1,0
392,224,154613,1,0
368,224,154692,1,0
344,216,154771,1,0
320,208,154850,1,0
304,192,154929,1,0
296,168,155008,6,0,B|280:104|344:40,1,119.700001141548,12|0
448,48,155323,1,0
488,160,155481,2,0,B|504:224|440:288,1,119.700001141548,12|0
344,320,155797,1,0
240,264,155955,38,0,B|256:392,1,119.700001141548,12|0
376,144,156271,1,0
248,48,156429,2,0,B|120:64,1,119.700001141548,12|0
64,160,156744,1,0
104,328,156902,6,0,B|160:368|232:320,1,119.700001141548,12|0
320,264,157218,1,0
456,368,157376,2,0,B|400:408|328:360,1,119.700001141548,12|0
224,192,157692,1,0
312,24,157850,38,0,B|368:-16|440:32,1,119.700001141548,12|0
496,120,158165,1,0
176,120,158323,2,0,B|232:80|304:128,1,119.700001141548,12|0
360,216,158639,1,0
72,232,158797,6,0,B|128:192|200:240,1,119.700001141548,12|0
264,320,159113,1,0
320,112,159271,2,0,B|336:184|328:240,1,119.700001141548,12|0
144,376,159586,1,0
48,336,159744,6,0,B|32:280|48:176,1,152.999993616343,4|0
136,72,160217,2,0,B|150:167|134:223,1,152.999993616343,8|0
160,320,160691,2,0,B|256:336,1,76.4999968081714,8|0
336,240,161007,2,0,B|240:224,1,76.4999968081714,8|0
352,336,161322,2,0,B|440:352,1,76.4999968081714,8|0
456,256,161638,6,0,B|424:184|464:88,1,152.999993616343,0|0
456,106,162112,2,0,B|286:107,1,152.999993616343,8|0
136,104,162586,2,0,B|232:104,1,76.4999968081714
200,200,162901,2,0,B|232:272|192:368,1,152.999993616343,8|4
199,349,163533,37,0
296,328,163691,2,0,B|328:248|424:272,1,152.999993616343,8|0
480,136,164165,2,0,B|496:176|480:224,1,76.4999968081714,8|0
392,144,164480,2,0,B|379:108|395:68,1,76.4999968081714,8|0
312,192,164796,2,0,B|232:232|144:184,2,152.999993616343,8|0|0
240,128,165586,6,0,B|232:312,1,152.999993616343,8|0
136,264,166059,1,0
320,272,166217,1,0
240,112,166375,1,4
240,112,166691,38,4,B|232:168|232:168|248:192|248:192|240:264,1,152.999993616343,4|0
224,360,167165,1,8
368,224,167480,1,0
368,224,167638,2,0,B|376:128,1,76.4999968081714,8|0
456,208,167954,2,0,B|448:304,1,76.4999968081714,8|0
360,320,168270,1,8
360,320,168586,6,0,B|184:320,1,152.999993616343,0|0
128,256,169059,2,0,B|168:176|128:96,1,152.999993616343,8|0
40,248,169533,2,0,B|32:288|40:336,1,76.4999968081714,8|0
224,240,169849,2,0,B|232:200|224:152,1,76.4999968081714,12|0
419,58,170165,38,0,B|360:72|360:72|344:64|344:64|272:80,1,152.999993616343,4|0
88,120,170638,2,0,B|147:133|147:133|163:125|163:125|235:141,1,152.999993616343,8|0
432,184,171112,2,0,B|372:197|372:197|356:189|356:189|284:205,2,152.999993616343,8|8|8
432,184,172059,6,0,B|440:216|440:272,1,76.4999968081714,4|0
392,344,172375,1,8
288,200,172533,38,0,B|296:168|296:112,1,76.4999968081714,0|4
248,40,172849,1,8
64,112,173007,6,0,B|56:144|56:200,1,76.4999968081714,4|0
104,272,173322,1,8
176,208,173480,1,0
272,184,173638,1,8
321,190,173717,1,8
368,200,173796,1,8
413,220,173875,1,8
450,253,173954,1,4
496,176,174112,6,0,B|512:88|456:32,2,152.999993616343
448,256,174901,1,8
152,368,175217,5,0
88,304,175375,1,0
176,280,175533,1,0
120,208,175691,1,0
208,192,175849,1,4
264,264,176007,2,0,B|344:320|400:248,2,152.999993616343
184,304,176796,2,0,B|168:224|88:184,2,152.999993616343,8|0|0
224,384,177586,1,0
336,224,177743,38,0,B|344:184|376:144,1,76.4999968081714,4|0
448,112,178059,1,0
488,192,178217,1,0
416,320,178375,2,0,B|328:344,1,76.4999968081714
176,272,178691,6,0,B|264:296,1,76.4999968081714,8|0
320,160,179007,2,0,B|232:184,1,76.4999968081714
80,72,179322,2,0,B|88:168,1,76.4999968081714
24,336,179638,38,0,B|8:168,1,152.999993616343,4|0
176,64,180112,1,0
112,296,180428,1,0
112,296,180586,2,0,B|176:368|272:328,1,152.999993616343,8|0
268,328,180980,1,0
284,320,181059,1,0
300,308,181138,1,0
312,296,181217,1,0
324,280,181296,1,0
332,264,181375,1,0
336,244,181454,1,0
336,224,181533,1,4
424,244,181691,6,0,B|408:160|480:92,2,152.999993616343
452,332,182480,1,8
144,120,182796,1,0
232,148,182954,1,0
164,208,183112,1,0
248,244,183270,1,0
184,308,183428,37,4
184,308,183586,2,0,B|92:364|40:252,1,152.999993616343
116,104,184217,1,0
116,104,184375,1,8
408,184,184691,1,0
72,288,185007,1,0
464,336,185322,6,0,B|304:356,1,152.999993616343,4|0
312,354,185796,2,0,B|260:288|292:184,1,152.999993616343
285,208,186270,1,8
404,72,186586,1,0
468,244,186901,1,0
172,356,187217,38,0,B|140:276|48:256,1,152.999993616343,4|0
124,192,187691,2,0,B|288:216,1,152.999993616343
392,44,188164,1,8
448,364,188480,1,0
192,328,188796,1,0
172,324,188875,1,0
152,320,188954,1,0
132,316,189033,1,0
112,312,189112,38,0,B|88:216|112:136,1,161.999992275238,4|8
176,72,189586,1,0
256,144,189743,2,0,B|264:184|256:232,1,80.9999961376192,0|8
208,320,190059,38,0,B|288:376|368:320,1,161.999992275238,4|8
408,232,190533,1,0
400,128,190691,2,0,B|384:40,1,80.9999961376192,0|8
128,112,191007,6,0,B|184:32|280:80,1,161.999992275238,4|8
224,240,191480,2,0,B|208:192|224:144,2,80.9999961376192,0|0|8
448,248,191954,38,0,B|400:168|296:208,1,161.999992275238,4|8
280,304,192428,1,0
280,304,192586,2,8,B|192:344,1,80.9999961376192,12|8
112,280,192901,6,0,B|64:208|104:112,1,161.999992275238,4|0
208,232,193375,2,0,B|184:192|197:144,2,80.9999961376192,8|0|0
432,176,193849,38,0,B|352:240|274:172,1,161.999992275238,4|0
336,48,194322,1,8
336,48,194480,2,0,B|352:128,1,80.9999961376192
240,296,194796,6,0,B|172:355|92:291,1,161.999992275238,4|0
188,164,195270,1,8
188,164,195428,2,0,B|172:244,1,80.9999961376192
328,352,195743,38,0,B|368:192,1,161.999992275238,4|0
352,88,196217,1,8
321,99,196296,1,8
288,103,196375,1,12
255,101,196454,1,8
223,94,196533,1,0
194,79,196612,1,0
173,53,196691,6,0,B|99:104|147:208,1,161.999992275238,4|0
240,256,197164,2,0,B|320:296,1,80.9999961376192,8|0
416,336,197480,1,8
384,16,197638,38,0,B|458:67|410:171,1,161.999992275238,4|0
317,219,198112,2,0,B|237:259,1,80.9999961376192,8|0
141,299,198428,1,8
64,216,198586,6,0,B|32:128|80:48,1,161.999992275238,4|0
184,40,199059,1,8
184,40,199217,2,0,B|200:128,1,80.9999961376192,4|0
232,224,199533,38,0,B|336:248|384:160,1,161.999992275238,4|8
432,72,200007,1,8
432,72,200164,2,8,B|472:160,1,80.9999961376192,12|8
408,336,200480,6,0,B|344:264|256:320,1,161.999992275238,4|0
80,224,200954,1,8
80,224,201112,2,0,B|168:272,1,80.9999961376192
264,240,201428,38,0,B|224:168|280:56,1,161.999992275238,4|0
360,152,201901,2,0,B|376:232,1,80.9999961376192,8|0
408,344,202217,1,0
296,328,202375,6,0,B|232:320|232:320|216:328|216:328|128:320,1,161.999992275238,4|0
200,224,202849,2,0,B|112:216,1,80.9999961376192,8|0
16,168,203164,1,8
80,80,203322,37,8
80,80,203401,1,8
80,80,203480,1,0
184,128,203638,1,0
205,139,203717,1,0
228,146,203796,1,0
252,149,203875,1,0
276,149,203954,1,8
299,145,204033,1,8
322,138,204112,1,8
343,126,204191,1,8
360,112,204270,22,0,B|444:156|432:264,1,161.999992275238,4|0
368,340,204743,1,8
508,164,205059,1,8
312,264,205217,6,0,B|248:272|248:272|232:264|232:264|144:272,1,161.999992275238,4|8
16,88,205849,1,8
224,176,206164,38,0,B|316:200|380:124,1,161.999992275238,4|0
440,224,206638,1,8
236,380,206954,1,8
148,328,207112,6,0,B|140:288|140:288|148:216,1,80.9999961376192,4|0
336,204,207428,2,0,B|344:244|344:244|336:316,1,80.9999961376192,8|0
228,280,207743,2,4,B|164:272|164:272|148:280|148:280|60:272,1,161.999992275238,4|4
24,132,208217,38,0,B|116:108|180:184,1,161.999992275238,8|0
316,305,208691,2,0,B|372:372|464:348,1,161.999992275238,0|8
504,124,209322,5,0
300,220,209638,1,8
140,60,209954,37,4
140,60,210112,2,0,B|128:140|128:140|140:176|140:176|136:236,1,161.999992275238
248,356,210586,2,0,B|260:276|260:276|248:240|248:240|252:180,1,161.999992275238,8|8
352,144,211059,5,0
440,216,211217,1,0
436,240,211296,1,0
428,264,211375,1,0
416,284,211454,1,0
400,300,211533,1,12
292,336,211691,1,0
252,228,211849,37,4
164,300,212007,2,0,B|80:264|0:336,1,161.999992275238
88,196,212480,2,0,B|76:116,2,80.9999961376192,8|0|4
256,348,213112,1,0
424,196,213428,6,0,B|436:116,2,80.9999961376192,8|0|4
476,296,213901,2,0,B|388:356|320:248,1,161.999992275238
260,184,214375,1,8
364,136,214533,1,0
244,300,214691,38,0,B|188:320|188:320|160:356|160:356|92:380,1,161.999992275238,4|0
28,292,215164,1,0
88,196,215322,2,0,B|136:204|136:204|164:252,1,80.9999961376192,8|0
28,116,215638,5,4
192,12,215796,2,0,B|256:80|200:176,1,161.999992275238
260,264,216270,2,0,B|288:304|352:312,1,80.9999961376192,8|0
432,264,216586,37,4
336,60,216901,1,0
156,136,217217,1,8
156,136,217296,1,0
156,136,217375,1,0
240,60,217533,5,0
256,80,217612,1,0
272,100,217691,1,0
280,124,217770,1,0
284,148,217849,1,0
284,172,217928,1,0
276,196,218007,1,0
264,216,218086,1,0
248,236,218164,1,0
232,256,218243,1,0
220,276,218322,1,0
216,300,218401,1,0
220,324,218480,37,4
316,216,218638,1,0
256,84,218796,1,8
112,68,218954,1,0
52,208,219112,1,0
56,224,219191,1,0
60,240,219270,1,0
64,256,219349,1,0
68,272,219428,6,0,B|208:304,1,135,4|2
424,360,220375,1,0
360,272,220691,1,0
456,224,221006,38,0,B|488:84,1,135,0|2
168,40,221954,1,0
192,88,222112,1,0
216,136,222270,1,0
184,180,222427,1,0
156,224,222585,6,0,B|16:256,1,135,0|2
136,368,223533,1,0
260,320,223849,1,0
376,352,224164,38,0,B|448:392|500:332,1,135,0|2
308,240,225112,1,0
284,192,225270,1,0
260,144,225427,1,0
292,100,225585,1,0
320,56,225743,6,0,B|460:24,1,135,0|2
368,312,226691,1,0
176,104,227006,1,0
16,220,227322,2,0,B|-4:292|52:344,1,135,0|2
292,368,228270,37,0
196,236,228585,1,0
320,132,228901,1,0
320,132,229375,1,2
320,132,229849,6,0,B|304:184|308:236,1,90
400,316,230480,2,0,B|436:260|420:168,1,135,0|2
104,96,231427,5,0
80,168,231585,1,0
136,216,231743,1,0
192,168,231901,1,0
176,96,232059,6,0,B|240:56|312:88,1,134.999995976687,2|0
368,128,232533,2,0,B|408:184|368:288,1,134.999995976687,2|0
336,320,233006,2,0,B|280:368|192:344,1,134.999995976687,2|2
256,192,233638,1,4
256,192,234112,1,4
256,192,234585,37,0
216,128,234743,1,0
144,152,234901,1,0
144,224,235059,1,0
216,256,235217,6,0,B|248:336|336:304,1,134.999995976687,2|0
384,264,235691,2,0,B|344:200|400:128,1,134.999995976687,2|0
408,64,236164,2,0,B|248:64,1,134.999995976687,2|0
256,216,236796,1,4
256,216,237270,1,4
256,216,237743,37,0
304,272,237901,1,0
368,240,238059,1,0
352,168,238217,1,0
280,144,238375,6,0,B|216:96|128:152,1,134.999995976687,2|0
80,192,238849,2,0,B|144:240|232:184,1,134.999995976687,2|0
207,197,239322,2,0,B|248:336,1,134.999995976687,2|2
392,320,239954,1,4
392,320,240427,1,4
392,320,240901,37,0
376,224,241217,1,0
312,144,241533,2,0,B|264:96|168:104,2,135
224,192,242796,1,0
224,192,243112,2,0,B|272:240|368:232,1,135
448,192,244059,37,0
436,300,244217,1,0
420,320,244296,1,0
404,340,244375,1,0
304,384,244533,1,0
320,172,244691,38,0,B|288:24|148:80,1,216.000005149841,4|0
56,232,245164,2,0,B|68:172|68:172|44:140|44:140|68:24,1,216.000005149841,8|0
140,256,245638,2,0,B|112:372,1,108.000002574921,8|0
240,272,245954,2,0,B|268:156,1,108.000002574921,8|0
336,236,246270,5,4
164,108,246427,2,0,B|196:28|304:28|328:108,1,216.000005149841
336,236,246901,2,0,B|452:264,1,108.000002574921,8|0
340,344,247217,2,0,B|224:372,1,108.000002574921
104,380,247533,1,8
28,276,247691,1,0
80,156,247849,38,0,B|136:280|280:200,1,216.000005149841,4|0
440,352,248322,2,0,B|428:292|428:292|452:260|452:260|428:144,1,216.000005149841,8|0
316,12,248796,2,0,B|340:84|340:84|288:160|192:112,1,216.000005149841,8|8
160,72,249270,1,0
360,192,249427,5,4
428,140,249585,2,0,B|452:212|452:212|404:352,1,216.000005149841,8|8
324,376,250059,1,0
248,336,250217,1,0
248,336,250296,1,0
248,336,250375,1,0
216,256,250533,1,0
208,228,250612,1,0
208,200,250691,1,0
216,176,250770,1,0
228,152,250849,1,0
248,136,250927,1,0
276,128,251006,38,0,B|360:120|380:196|380:196|340:296,1,216.000005149841,4|0
160,340,251480,2,0,B|76:348|56:272|56:272|96:172,1,216.000005149841,8|0
68,32,251954,2,0,B|22:141,1,108.000002574921,8|0
156,248,252270,2,0,B|258:292|374:243,1,216.000005149841,12|12
356,136,252743,6,0,B|254:92|138:141,1,216.000005149841,4|0
196,16,253217,1,8
252,132,253375,2,0,B|272:196|272:196|236:248|236:248|268:356,1,216.000005149841
368,260,253849,2,0,B|400:328|528:292|480:188,1,216.000005149841,8|4
380,104,254322,38,0,B|284:136|348:224|236:264,1,216.000005149841
128,312,254796,1,0
44,212,254954,1,0
44,212,255033,1,0
44,212,255112,2,0,B|104:244|176:192,1,108.000002574921,8|0
252,132,255427,2,0,B|284:260,1,108.000002574921,8|0
468,344,255743,6,0,B|500:284|448:212,1,108.000002574921,12|0
340,48,256059,2,0,B|308:108|360:180,1,108.000002574921,8|0
268,364,256375,2,0,B|300:304|248:232,1,108.000002574921,8|0
148,148,256691,1,0
140,172,256770,1,0
132,196,256849,1,0
124,220,256927,1,0
116,244,257006,1,0
108,268,257085,1,0
100,292,257164,1,0
92,316,257243,1,0
80,336,257322,6,0,B|64:240|80:112,1,216.000005149841,4|0
192,56,257796,2,0,B|200:104|200:104|192:176,1,108.000002574921,8|0
232,288,258112,1,0
344,224,258270,2,0,B|336:160|352:112,1,108.000002574921,8|0
432,216,258585,2,0,B|440:280|424:328,1,108.000002574921,8|0
142,325,258901,6,0,B|244:369|360:320,1,216.000005149841,4|0
352,192,259375,2,0,B|250:148|134:197,1,216.000005149841,8|8
80,80,259849,2,0,B|128:48|184:48,1,108.000002574921
330,48,260164,2,8,B|384:48|432:80,1,108.000002574921
472,264,260480,38,0,B|392:288|328:232|360:128,1,216.000005149841,4|0
272,240,260954,2,8,B|240:176|240:176|240:160|240:160|216:144|216:144|152:120|80:120,1,216.000005149841
96,304,261427,2,8,B|112:248|112:192,1,108.000002574921,8|0
312,40,261743,2,8,B|311:90|327:146,1,108.000002574921,8|0
264,328,262059,6,12,B|232:264|232:264|216:112,1,216.000005149841,12|0
344,128,262533,2,0,B|424:136|472:208|448:296,1,216.000005149841,4|0
328,248,263006,2,0,B|200:248,1,108.000002574921,0|8
128,160,263322,2,0,B|236:160,1,108.000002574921,8|8
280,40,263638,38,0,B|176:24|56:56,1,216.000005149841,4|0
32,320,264112,2,8,B|112:288|120:176|56:104,1,216.000005149841,8|0
208,136,264585,2,0,B|200:192|200:192|216:256,1,108.000002574921,8|0
336,288,264901,2,8,B|348:238|348:238|340:182,1,108.000002574921
432,352,265217,6,0,B|464:240|464:240|440:136,1,216.000005149841,4|0
352,240,265691,2,8,B|240:280|120:232,1,216.000005149841,8|0
248,168,266164,2,0,B|272:112|240:64,1,108.000002574921,8|0
48,200,266480,2,0,B|24:256|56:304,1,108.000002574921,8|8
160,88,266796,38,0,B|136:152|136:152|144:168|144:168|128:184|144:304,1,216.000005149841,4|0
264,344,267270,2,8,B|344:248|480:288,1,216.000005149841,8|0
448,96,267743,2,0,B|464:216,1,108.000002574921,8|0
344,152,268059,2,0,B|358:44,1,108.000002574921,8|8
248,112,268375,6,0,B|144:72|24:128,1,216.000005149841,12|0
144,200,268849,2,0,B|248:240|368:184,1,216.000005149841,12|0
440,64,269322,37,0
442,90,269401,1,0
444,116,269480,1,0
446,142,269559,1,0
448,168,269638,1,0
450,194,269717,1,0
452,220,269796,1,0
454,246,269875,1,0
457,272,269954,37,4
212,360,270270,1,4
40,164,270585,1,4
244,4,270901,1,12
348,80,271059,2,0,B|372:136|348:192,2,108.000002574921
236,144,271533,38,0,B|172:192|172:192|184:276|88:312,1,216.000005149841,4|0
60,48,272164,1,0
356,372,272480,1,12
436,292,272638,2,0,B|464:240|448:180,1,108.000002574921
336,64,272954,2,0,B|308:116|324:176,1,108.000002574921,0|4
56,356,273427,5,0
292,248,273743,1,0
64,120,274059,1,12
64,120,274375,2,0,B|48:176|76:240,1,108.000002574921
168,312,274691,1,0
360,68,275006,38,0,B|256:128|152:68,1,216.000005149841,4|0
384,312,275638,2,0,B|396:364,2,54.0000012874604
448,256,275954,2,0,B|464:200|436:136,1,108.000002574921,8|0
368,108,276270,5,4
144,348,276585,1,0
16,124,276901,1,0
248,244,277217,1,8
248,244,277533,2,0,B|360:264,1,108.000002574921
452,368,277849,38,0,B|340:348,1,108.000002574921,4|0
152,168,278164,2,0,B|256:108|360:168,1,216.000005149841
228,376,278638,1,0
100,356,278796,1,8
192,264,278954,1,0
192,264,279033,1,0
192,264,279112,1,0
68,224,279270,1,0
152,124,279427,1,4
256,192,279506,12,0,286058
440,72,286374,6,0,B|408:196|416:344,1,269.999991953373,4|0
72,72,287321,2,0,B|104:196|96:344,1,269.999991953373,4|0
256,144,288269,1,4
256,344,289058,37,0
256,344,289137,1,0
256,344,289216,2,0,B|272:272,1,67.4999979883433
136,176,289532,1,0
304,80,289690,2,0,B|328:40,2,33.7499989941716
256,144,290006,1,0
