osu file format v13

[General]
AudioFilename: Leia Chorus Version.mp3
AudioLeadIn: 0
PreviewTime: -1
Countdown: 1
SampleSet: Normal
StackLeniency: 0.7
Mode: 1
LetterboxInBreaks: 1
WidescreenStoryboard: 1

[Editor]
DistanceSpacing: 1.2
BeatDivisor: 4
GridSize: 4
TimelineZoom: 1

[Metadata]
Title:Leia
TitleUnicode:Leia
Artist:Nico Nico Chorus
ArtistUnicode:Nico Nico Chorus
Creator:Lvl 100
Version:LVL 100
Source:niconicodouga
Tags:Leia,NicoNicoDouga,Vocaloid
BeatmapID:609787
BeatmapSetID:267737

[Difficulty]
HPDrainRate:5
CircleSize:5
OverallDifficulty:6
ApproachRate:5
SliderMultiplier:1.4
SliderTickRate:1

[Events]
//Background and Video events
0,0,"Leia.full.915206.jpg",0,0
//Break Periods
2,219636,230236
//Storyboard Layer 0 (Background)
//Storyboard Layer 1 (Fail)
//Storyboard Layer 2 (Pass)
//Storyboard Layer 3 (Foreground)
//Storyboard Sound Samples

[TimingPoints]
53959,315.789473684211,4,1,0,100,1,0
70380,-100,4,1,0,100,0,1
83011,-100,4,1,0,100,0,0
86485,-111.111111111111,4,1,0,100,0,0
114590,-117.647058823529,4,1,0,100,0,0
129748,-100,4,1,0,100,0,1
155011,-86.9565217391304,4,1,0,100,0,1
159748,-100,4,1,0,100,0,0
189116,-100,4,1,0,100,0,1
219432,-100,4,1,0,100,0,0
241537,-133.333333333333,4,1,0,100,0,0
244695,-100,4,1,0,100,0,1
269959,-90.9090909090909,4,1,0,100,0,1
290169,-100,4,1,0,100,0,0

[Colours]
Combo1 : 255,0,255
Combo2 : 0,255,0
Combo3 : 255,128,0
Combo4 : 72,164,255

[HitObjects]
256,192,53963,5,0,0:0:0:0:
256,192,54041,1,0,0:0:0:0:
256,192,54120,1,8,0:0:0:0:
256,192,54278,1,8,0:0:0:0:
256,192,54357,1,0,0:0:0:0:
256,192,54436,1,0,0:0:0:0:
256,192,54594,1,8,0:0:0:0:
256,192,54752,1,8,0:0:0:0:
256,192,54910,1,8,0:0:0:0:
256,192,55068,1,0,0:0:0:0:
256,192,55147,1,0,0:0:0:0:
256,192,55226,1,0,0:0:0:0:
256,192,55384,1,8,0:0:0:0:
256,192,55541,1,8,0:0:0:0:
256,192,55699,5,0,0:0:0:0:
256,192,55778,1,0,0:0:0:0:
256,192,55857,1,8,0:0:0:0:
256,192,56015,1,8,0:0:0:0:
256,192,56094,1,0,0:0:0:0:
256,192,56173,1,0,0:0:0:0:
256,192,56331,1,8,0:0:0:0:
256,192,56489,1,8,0:0:0:0:
256,192,56647,1,8,0:0:0:0:
256,192,56805,1,0,0:0:0:0:
256,192,56884,1,0,0:0:0:0:
256,192,56963,1,0,0:0:0:0:
256,192,57120,1,8,0:0:0:0:
256,192,57278,1,0,0:0:0:0:
256,192,57357,1,0,0:0:0:0:
256,192,57436,1,8,0:0:0:0:
256,192,57594,1,8,0:0:0:0:
256,192,57752,5,0,0:0:0:0:
256,192,57831,1,0,0:0:0:0:
256,192,57910,1,8,0:0:0:0:
256,192,58068,1,8,0:0:0:0:
256,192,58147,1,0,0:0:0:0:
256,192,58226,1,0,0:0:0:0:
256,192,58384,1,8,0:0:0:0:
256,192,58541,1,8,0:0:0:0:
256,192,58699,1,8,0:0:0:0:
256,192,58857,1,0,0:0:0:0:
256,192,58936,1,0,0:0:0:0:
256,192,59015,1,0,0:0:0:0:
256,192,59173,1,8,0:0:0:0:
256,192,59331,1,8,0:0:0:0:
256,192,59489,5,0,0:0:0:0:
256,192,59568,1,0,0:0:0:0:
256,192,59647,1,8,0:0:0:0:
256,192,59805,1,8,0:0:0:0:
256,192,59884,1,0,0:0:0:0:
256,192,59963,1,0,0:0:0:0:
256,192,60120,1,8,0:0:0:0:
256,192,60278,1,8,0:0:0:0:
256,192,60436,1,8,0:0:0:0:
256,192,60594,1,0,0:0:0:0:
256,192,60673,1,0,0:0:0:0:
256,192,60752,1,0,0:0:0:0:
256,192,60910,1,8,0:0:0:0:
256,192,60989,1,0,0:0:0:0:
256,192,61068,1,0,0:0:0:0:
256,192,61147,1,0,0:0:0:0:
256,192,61226,1,8,0:0:0:0:
256,192,61541,1,0,0:0:0:0:
256,192,61616,1,0,0:0:0:0:
256,192,61695,1,8,0:0:0:0:
256,192,62015,1,0,0:0:0:0:
256,192,62094,1,0,0:0:0:0:
256,192,62173,1,8,0:0:0:0:
256,192,62489,1,0,0:0:0:0:
256,192,62568,1,0,0:0:0:0:
256,192,62647,1,8,0:0:0:0:
256,192,62805,5,0,0:0:0:0:
256,192,62884,1,0,0:0:0:0:
256,192,62963,1,0,0:0:0:0:
256,192,63041,1,2,0:0:0:0:
256,192,63120,1,0,0:0:0:0:
256,192,63199,1,0,0:0:0:0:
256,192,63278,1,0,0:0:0:0:
256,192,63436,1,8,0:0:0:0:
256,192,63594,1,8,0:0:0:0:
256,192,63752,5,0,0:0:0:0:
256,192,63831,1,0,0:0:0:0:
256,192,63910,1,8,0:0:0:0:
256,192,64068,1,8,0:0:0:0:
256,192,64147,1,0,0:0:0:0:
256,192,64226,1,0,0:0:0:0:
256,192,64384,1,8,0:0:0:0:
256,192,64620,1,8,0:0:0:0:
256,192,64857,1,8,0:0:0:0:
256,192,65015,5,0,0:0:0:0:
256,192,65094,1,0,0:0:0:0:
256,192,65169,1,10,0:0:0:0:
256,192,65331,1,8,0:0:0:0:
256,192,65410,1,0,0:0:0:0:
256,192,65489,1,0,0:0:0:0:
256,192,65647,1,8,0:0:0:0:
256,192,65805,1,8,0:0:0:0:
256,192,65963,1,8,0:0:0:0:
256,192,66120,1,0,0:0:0:0:
256,192,66199,1,2,0:0:0:0:
256,192,66278,1,0,0:0:0:0:
256,192,66436,1,8,0:0:0:0:
256,192,66669,1,8,0:0:0:0:
256,192,66748,1,0,0:0:0:0:
256,192,66827,1,0,0:0:0:0:
256,192,66906,2,0,L|484:192,1,210
256,192,67541,5,12,0:0:0:0:
256,192,68015,1,8,0:0:0:0:
256,192,68489,1,8,0:0:0:0:
256,192,68963,1,8,0:0:0:0:
256,192,69278,1,8,0:0:0:0:
204,144,69432,1,0,0:0:0:0:
256,192,69594,1,0,0:0:0:0:
256,192,69673,1,0,0:0:0:0:
256,192,69752,1,8,0:0:0:0:
256,192,69831,1,8,0:0:0:0:
256,192,69910,1,0,0:0:0:0:
256,192,69989,1,0,0:0:0:0:
256,192,70068,1,8,0:0:0:0:
200,140,70222,1,0,0:0:0:0:
256,192,70384,5,4,0:0:0:0:
256,192,70541,1,0,0:0:0:0:
256,192,70857,1,8,0:0:0:0:
256,192,71173,1,0,0:0:0:0:
256,192,71331,1,8,0:0:0:0:
256,192,71489,1,0,0:0:0:0:
256,192,71568,1,0,0:0:0:0:
256,192,71647,1,8,0:0:0:0:
200,140,71801,1,0,0:0:0:0:
256,192,71963,1,0,0:0:0:0:
256,192,72120,1,6,0:0:0:0:
200,140,72274,1,0,0:0:0:0:
256,192,72436,1,4,0:0:0:0:
256,192,72752,1,8,0:0:0:0:
200,140,72906,1,0,0:0:0:0:
256,192,73068,1,0,0:0:0:0:
256,192,73147,1,0,0:0:0:0:
256,192,73226,1,8,0:0:0:0:
200,140,73301,1,0,0:0:0:0:
200,140,73380,1,0,0:0:0:0:
176,120,73458,1,0,0:0:0:0:
256,192,73541,5,4,0:0:0:0:
256,192,73699,1,0,0:0:0:0:
256,192,74015,1,8,0:0:0:0:
256,192,74331,1,0,0:0:0:0:
256,192,74489,1,8,0:0:0:0:
256,192,74647,1,0,0:0:0:0:
256,192,74726,1,0,0:0:0:0:
256,192,74805,1,8,0:0:0:0:
256,192,74963,1,0,0:0:0:0:
256,192,75120,1,12,0:0:0:0:
256,192,75278,1,12,0:0:0:0:
176,120,75432,1,0,0:0:0:0:
256,192,75594,1,4,0:0:0:0:
256,192,75910,1,0,0:0:0:0:
256,192,75989,1,0,0:0:0:0:
256,192,76068,1,8,0:0:0:0:
256,192,76226,1,0,0:0:0:0:
256,192,76305,1,0,0:0:0:0:
256,192,76384,1,8,0:0:0:0:
176,120,76537,1,0,0:0:0:0:
256,192,76695,5,6,0:0:0:0:
256,192,76857,1,0,0:0:0:0:
256,192,77173,1,8,0:0:0:0:
256,192,77489,1,0,0:0:0:0:
256,192,77647,1,8,0:0:0:0:
256,192,77805,1,0,0:0:0:0:
256,192,77884,1,0,0:0:0:0:
256,192,77963,1,8,0:0:0:0:
172,120,78116,1,0,0:0:0:0:
256,192,78278,1,0,0:0:0:0:
256,192,78436,1,4,0:0:0:0:
256,192,78752,1,4,0:0:0:0:
256,192,79068,1,8,0:0:0:0:
172,120,79222,1,0,0:0:0:0:
256,192,79384,1,0,0:0:0:0:
256,192,79463,1,0,0:0:0:0:
256,192,79541,1,8,0:0:0:0:
172,120,79695,1,0,0:0:0:0:
256,192,79857,5,4,0:0:0:0:
256,192,80015,1,0,0:0:0:0:
256,192,80331,1,8,0:0:0:0:
256,192,80647,1,0,0:0:0:0:
256,192,80805,1,8,0:0:0:0:
256,192,80963,1,0,0:0:0:0:
256,192,81041,1,0,0:0:0:0:
256,192,81120,1,8,0:0:0:0:
256,192,81278,1,0,0:0:0:0:
256,192,81436,1,8,0:0:0:0:
256,192,81594,1,0,0:0:0:0:
256,192,81752,1,8,0:0:0:0:
256,192,81910,1,0,0:0:0:0:
256,192,81989,1,0,0:0:0:0:
256,192,82068,1,8,0:0:0:0:
256,192,82226,1,0,0:0:0:0:
256,192,82305,1,0,0:0:0:0:
256,192,82384,1,8,0:0:0:0:
256,192,82463,1,0,0:0:0:0:
256,192,82541,1,0,0:0:0:0:
256,192,82620,1,0,0:0:0:0:
256,192,82699,1,8,0:0:0:0:
256,192,83015,5,12,0:0:0:0:
256,192,83489,1,0,0:0:0:0:
256,192,83963,1,12,0:0:0:0:
256,192,84432,1,12,0:0:0:0:
256,192,84910,1,4,0:0:0:0:
256,192,85384,1,12,0:0:0:0:
256,192,85699,1,0,0:0:0:0:
256,192,85778,1,0,0:0:0:0:
256,192,85857,1,8,0:0:0:0:
256,192,86015,1,0,0:0:0:0:
256,192,86094,1,0,0:0:0:0:
256,192,86173,1,8,0:0:0:0:
256,192,86252,1,8,0:0:0:0:
256,192,86331,1,0,0:0:0:0:
256,192,86410,1,0,0:0:0:0:
256,192,86485,5,2,0:0:0:0:
256,192,86963,1,8,0:0:0:0:
192,152,87274,1,0,0:0:0:0:
256,192,87436,1,0,0:0:0:0:
192,152,87590,1,0,0:0:0:0:
256,192,87752,1,8,0:0:0:0:
192,152,87906,1,0,0:0:0:0:
256,192,88068,1,8,0:0:0:0:
256,192,88380,1,0,0:0:0:0:
256,192,88857,1,8,0:0:0:0:
256,192,89173,1,0,0:0:0:0:
256,192,89331,1,0,0:0:0:0:
256,192,89647,1,8,0:0:0:0:
192,152,89801,1,0,0:0:0:0:
256,192,89963,5,0,0:0:0:0:
256,192,90436,1,8,0:0:0:0:
256,192,90752,1,0,0:0:0:0:
192,152,90906,1,0,0:0:0:0:
256,192,91226,1,0,0:0:0:0:
256,192,91541,1,8,0:0:0:0:
192,152,91853,1,0,0:0:0:0:
256,192,92015,1,0,0:0:0:0:
256,192,92331,1,8,0:0:0:0:
192,152,92485,1,0,0:0:0:0:
192,152,92643,1,0,0:0:0:0:
256,192,92805,1,0,0:0:0:0:
256,192,93120,1,8,0:0:0:0:
256,192,93278,1,0,0:0:0:0:
256,192,93436,5,4,0:0:0:0:
256,192,93910,1,8,0:0:0:0:
256,192,94226,1,0,0:0:0:0:
256,192,94384,1,0,0:0:0:0:
256,192,94699,1,0,0:0:0:0:
256,192,95015,1,8,0:0:0:0:
192,152,95327,1,0,0:0:0:0:
256,192,95489,1,0,0:0:0:0:
256,192,95805,1,8,0:0:0:0:
256,192,96120,1,0,0:0:0:0:
256,192,96278,1,0,0:0:0:0:
256,192,96594,1,8,0:0:0:0:
256,192,96752,1,8,0:0:0:0:
192,152,96906,1,0,0:0:0:0:
256,192,97384,1,8,0:0:0:0:
256,192,97699,1,0,0:0:0:0:
256,192,97857,1,0,0:0:0:0:
256,192,98173,1,0,0:0:0:0:
256,192,98489,1,8,0:0:0:0:
256,192,98805,1,0,0:0:0:0:
256,192,99278,1,0,0:0:0:0:
256,192,99436,1,8,0:0:0:0:
256,192,99594,1,0,0:0:0:0:
256,192,99752,1,2,0:0:0:0:
256,192,99910,1,8,0:0:0:0:
256,192,100068,1,0,0:0:0:0:
256,192,100226,1,8,0:0:0:0:
256,192,100384,5,4,0:0:0:0:
256,192,100699,1,0,0:0:0:0:
256,192,101015,1,8,0:0:0:0:
256,192,101331,1,0,0:0:0:0:
256,192,101647,1,4,0:0:0:0:
256,192,101963,1,8,0:0:0:0:
256,192,102274,1,4,0:0:0:0:
256,192,102594,1,0,0:0:0:0:
232,168,102748,1,0,0:0:0:0:
256,192,102910,1,8,0:0:0:0:
216,168,103064,1,0,0:0:0:0:
256,192,103226,1,0,0:0:0:0:
212,168,103380,1,0,0:0:0:0:
256,192,103541,1,8,0:0:0:0:
256,192,103857,5,4,0:0:0:0:
256,192,104173,1,8,0:0:0:0:
256,192,104489,1,8,0:0:0:0:
256,192,104805,1,8,0:0:0:0:
256,192,105120,1,0,0:0:0:0:
256,192,105436,1,8,0:0:0:0:
256,192,105752,1,8,0:0:0:0:
256,192,106068,1,0,0:0:0:0:
256,192,106384,1,8,0:0:0:0:
256,192,106699,1,0,0:0:0:0:
256,192,106857,1,8,0:0:0:0:
256,192,107015,1,8,0:0:0:0:
256,192,107094,1,0,0:0:0:0:
256,192,107173,1,0,0:0:0:0:
256,192,107252,1,0,0:0:0:0:
256,192,107331,5,0,0:0:0:0:
256,192,107647,1,8,0:0:0:0:
256,192,107963,1,8,0:0:0:0:
256,192,108278,1,0,0:0:0:0:
256,192,108594,1,0,0:0:0:0:
256,192,108910,1,8,0:0:0:0:
256,192,109226,1,0,0:0:0:0:
200,160,109380,1,0,0:0:0:0:
256,192,109537,1,8,0:0:0:0:
256,192,109857,1,8,0:0:0:0:
256,192,110173,1,0,0:0:0:0:
256,192,110331,1,8,0:0:0:0:
256,192,110489,1,4,0:0:0:0:
256,192,110805,5,0,0:0:0:0:
256,192,111120,1,8,0:0:0:0:
256,192,111436,1,8,0:0:0:0:
256,192,111752,1,0,0:0:0:0:
256,192,112068,1,0,0:0:0:0:
256,192,112384,1,8,0:0:0:0:
256,192,112699,1,0,0:0:0:0:
200,160,112853,1,0,0:0:0:0:
256,192,113015,1,8,0:0:0:0:
216,152,113169,1,0,0:0:0:0:
256,192,113331,1,8,0:0:0:0:
216,152,113485,1,0,0:0:0:0:
256,192,113647,1,8,0:0:0:0:
256,192,113805,1,0,0:0:0:0:
256,192,113884,1,0,0:0:0:0:
256,192,113963,1,8,0:0:0:0:
256,192,114120,1,0,0:0:0:0:
256,192,114199,1,0,0:0:0:0:
256,192,114278,1,8,0:0:0:0:
216,148,114432,1,0,0:0:0:0:
256,192,114594,5,0,0:0:0:0:
256,192,114752,1,8,0:0:0:0:
216,148,114906,1,0,0:0:0:0:
256,192,115068,1,0,0:0:0:0:
256,192,115226,1,8,0:0:0:0:
256,192,115541,1,0,0:0:0:0:
256,192,115699,1,8,0:0:0:0:
216,148,115853,1,0,0:0:0:0:
256,192,116015,1,0,0:0:0:0:
256,192,116173,1,8,0:0:0:0:
256,192,116489,1,0,0:0:0:0:
256,192,116647,1,8,0:0:0:0:
216,148,116801,1,0,0:0:0:0:
256,192,116963,1,0,0:0:0:0:
256,192,117120,1,8,0:0:0:0:
256,192,117436,1,0,0:0:0:0:
216,148,117590,1,0,0:0:0:0:
256,192,117752,1,8,0:0:0:0:
216,148,117906,1,0,0:0:0:0:
256,192,118068,1,8,0:0:0:0:
216,148,118222,1,0,0:0:0:0:
256,192,118384,1,0,0:0:0:0:
256,192,118541,1,8,0:0:0:0:
256,192,118695,1,8,0:0:0:0:
256,192,118857,1,0,0:0:0:0:
256,192,119015,1,8,0:0:0:0:
256,192,119173,1,0,0:0:0:0:
256,192,119331,1,2,0:0:0:0:
256,192,119489,1,8,0:0:0:0:
256,192,119647,1,8,0:0:0:0:
256,192,119805,1,0,0:0:0:0:
256,192,119963,1,2,0:0:0:0:
256,192,120120,1,8,0:0:0:0:
256,192,120278,1,0,0:0:0:0:
256,192,120436,1,8,0:0:0:0:
256,192,120594,1,8,0:0:0:0:
256,192,120752,1,0,0:0:0:0:
256,192,120910,1,8,0:0:0:0:
256,192,121226,1,0,0:0:0:0:
256,192,121384,1,8,0:0:0:0:
256,192,121541,1,8,0:0:0:0:
256,192,121699,1,0,0:0:0:0:
256,192,121857,1,8,0:0:0:0:
256,192,122173,5,4,0:0:0:0:
256,192,122489,1,8,0:0:0:0:
256,192,122805,1,8,0:0:0:0:
236,160,122958,1,8,0:0:0:0:
236,160,123037,1,0,0:0:0:0:
236,160,123116,1,8,0:0:0:0:
308,156,123432,1,8,0:0:0:0:
308,156,123537,1,0,0:0:0:0:
308,156,123643,1,0,0:0:0:0:
308,156,123748,1,8,0:0:0:0:
244,168,123853,1,0,0:0:0:0:
244,168,123958,1,0,0:0:0:0:
244,168,124064,1,8,0:0:0:0:
236,144,124380,1,8,0:0:0:0:
236,144,124485,1,0,0:0:0:0:
232,144,124590,1,0,0:0:0:0:
256,192,124699,1,8,0:0:0:0:
256,192,125015,1,0,0:0:0:0:
256,192,125331,1,8,0:0:0:0:
244,160,125564,1,8,0:0:0:0:
256,192,125647,1,0,0:0:0:0:
256,192,125963,5,4,0:0:0:0:
256,192,126278,1,8,0:0:0:0:
256,192,126594,1,0,0:0:0:0:
256,192,126910,1,8,0:0:0:0:
256,192,127226,1,0,0:0:0:0:
256,192,127384,1,8,0:0:0:0:
256,192,127541,1,0,0:0:0:0:
256,192,127857,1,4,0:0:0:0:
256,192,128173,1,4,0:0:0:0:
256,192,128489,1,8,0:0:0:0:
256,192,128647,1,0,0:0:0:0:
256,192,128726,1,0,0:0:0:0:
256,192,128805,1,0,0:0:0:0:
256,192,129120,2,0,L|488:188,1,210,0|0,0:0|0:0,0:0:0:0:
256,192,129752,5,4,0:0:0:0:
256,192,129910,1,0,0:0:0:0:
256,192,130068,1,8,0:0:0:0:
256,192,130226,1,8,0:0:0:0:
256,192,130541,1,0,0:0:0:0:
256,192,130699,1,8,0:0:0:0:
256,192,130857,1,0,0:0:0:0:
256,192,130936,1,0,0:0:0:0:
256,192,131015,1,8,0:0:0:0:
256,192,131173,1,8,0:0:0:0:
256,192,131331,1,0,0:0:0:0:
256,192,131489,1,4,0:0:0:0:
256,192,131805,1,4,0:0:0:0:
256,192,132120,1,8,0:0:0:0:
176,164,132274,1,0,0:0:0:0:
160,136,132432,1,0,0:0:0:0:
160,144,132511,1,0,0:0:0:0:
256,192,132594,1,8,0:0:0:0:
256,192,132752,1,0,0:0:0:0:
256,192,132910,5,4,0:0:0:0:
256,192,133068,1,0,0:0:0:0:
256,192,133226,1,8,0:0:0:0:
256,192,133384,1,8,0:0:0:0:
256,192,133699,1,0,0:0:0:0:
256,192,133857,1,8,0:0:0:0:
256,192,134015,1,0,0:0:0:0:
256,192,134094,1,0,0:0:0:0:
256,192,134173,1,8,0:0:0:0:
256,192,134331,1,0,0:0:0:0:
256,192,134489,1,12,0:0:0:0:
256,192,134647,1,12,0:0:0:0:
256,192,134963,1,4,0:0:0:0:
256,192,135278,1,0,0:0:0:0:
256,192,135357,1,0,0:0:0:0:
256,192,135436,1,8,0:0:0:0:
256,192,135594,1,0,0:0:0:0:
256,192,135673,1,0,0:0:0:0:
256,192,135752,1,8,0:0:0:0:
160,140,135906,1,0,0:0:0:0:
256,192,136068,5,4,0:0:0:0:
256,192,136226,1,0,0:0:0:0:
256,192,136384,1,8,0:0:0:0:
256,192,136541,1,8,0:0:0:0:
256,192,136857,1,0,0:0:0:0:
256,192,137015,1,8,0:0:0:0:
256,192,137173,1,0,0:0:0:0:
256,192,137252,1,0,0:0:0:0:
256,192,137331,1,8,0:0:0:0:
256,192,137489,1,8,0:0:0:0:
256,192,137647,1,0,0:0:0:0:
256,192,137805,1,4,0:0:0:0:
256,192,138120,1,4,0:0:0:0:
256,192,138436,1,8,0:0:0:0:
116,256,138590,1,0,0:0:0:0:
256,192,138752,1,0,0:0:0:0:
256,192,138831,1,0,0:0:0:0:
256,192,138910,1,8,0:0:0:0:
200,136,139064,1,0,0:0:0:0:
256,192,139226,5,4,0:0:0:0:
256,192,139384,1,0,0:0:0:0:
256,192,139541,1,8,0:0:0:0:
256,192,139699,1,8,0:0:0:0:
256,192,140015,1,0,0:0:0:0:
256,192,140173,1,8,0:0:0:0:
256,192,140331,1,0,0:0:0:0:
256,192,140410,1,0,0:0:0:0:
256,192,140489,1,8,0:0:0:0:
256,192,140647,1,0,0:0:0:0:
256,192,140805,1,12,0:0:0:0:
256,192,140963,1,0,0:0:0:0:
256,192,141120,1,12,0:0:0:0:
256,192,141278,1,0,0:0:0:0:
256,192,141357,1,0,0:0:0:0:
256,192,141436,1,8,0:0:0:0:
256,192,141594,1,0,0:0:0:0:
256,192,141673,1,0,0:0:0:0:
256,192,141752,1,8,0:0:0:0:
256,192,141910,1,0,0:0:0:0:
256,192,141989,1,0,0:0:0:0:
256,192,142068,1,8,0:0:0:0:
256,192,142147,1,8,0:0:0:0:
256,192,142226,1,8,0:0:0:0:
256,192,142305,1,8,0:0:0:0:
256,192,142384,5,0,0:0:0:0:
224,84,142853,1,0,0:0:0:0:
256,192,143015,1,0,0:0:0:0:
256,192,143173,1,0,0:0:0:0:
256,192,143331,1,8,0:0:0:0:
256,192,143489,1,8,0:0:0:0:
256,192,143647,1,0,0:0:0:0:
256,192,143805,1,8,0:0:0:0:
256,192,143884,1,8,0:0:0:0:
256,192,143963,1,0,0:0:0:0:
256,192,144120,1,0,0:0:0:0:
256,192,144278,1,8,0:0:0:0:
256,192,144436,1,0,0:0:0:0:
256,192,144594,1,8,0:0:0:0:
256,192,144910,1,0,0:0:0:0:
256,192,145068,1,0,0:0:0:0:
256,192,145226,1,8,0:0:0:0:
256,192,145384,1,0,0:0:0:0:
256,192,145541,5,4,0:0:0:0:
240,164,146011,1,0,0:0:0:0:
256,192,146173,1,0,0:0:0:0:
256,192,146331,1,0,0:0:0:0:
256,192,146489,1,8,0:0:0:0:
256,192,146647,1,8,0:0:0:0:
256,192,146805,1,4,0:0:0:0:
256,192,146963,1,0,0:0:0:0:
256,192,147041,1,0,0:0:0:0:
256,192,147120,1,8,0:0:0:0:
256,192,147278,1,8,0:0:0:0:
256,192,147436,1,0,0:0:0:0:
256,192,147594,1,8,0:0:0:0:
256,192,147752,1,8,0:0:0:0:
256,192,147910,1,0,0:0:0:0:
256,192,147989,1,0,0:0:0:0:
256,192,148068,1,8,0:0:0:0:
256,192,148147,1,0,0:0:0:0:
256,192,148226,1,0,0:0:0:0:
256,192,148305,1,0,0:0:0:0:
256,192,148384,1,8,0:0:0:0:
256,192,148541,1,8,0:0:0:0:
256,192,148699,5,0,0:0:0:0:
256,144,149169,1,0,0:0:0:0:
256,192,149331,1,0,0:0:0:0:
256,192,149489,1,0,0:0:0:0:
256,192,149647,1,8,0:0:0:0:
256,192,149805,1,8,0:0:0:0:
256,192,149963,1,0,0:0:0:0:
256,192,150278,1,0,0:0:0:0:
256,192,150436,1,0,0:0:0:0:
256,192,150594,1,8,0:0:0:0:
256,192,150752,1,0,0:0:0:0:
256,192,150910,1,8,0:0:0:0:
256,192,151226,1,0,0:0:0:0:
256,192,151384,1,0,0:0:0:0:
256,192,151541,1,8,0:0:0:0:
256,192,151857,5,4,0:0:0:0:
232,152,152327,1,0,0:0:0:0:
256,192,152489,1,0,0:0:0:0:
256,192,152647,1,0,0:0:0:0:
256,192,152805,1,8,0:0:0:0:
256,192,152963,1,8,0:0:0:0:
256,192,153120,1,4,0:0:0:0:
256,192,153278,1,0,0:0:0:0:
256,192,153357,1,0,0:0:0:0:
256,192,153436,1,8,0:0:0:0:
256,192,153594,1,8,0:0:0:0:
256,192,153752,1,0,0:0:0:0:
256,192,153910,1,8,0:0:0:0:
256,192,154068,1,8,0:0:0:0:
256,192,154226,1,0,0:0:0:0:
256,192,154305,1,0,0:0:0:0:
256,192,154384,1,8,0:0:0:0:
256,192,154463,1,8,0:0:0:0:
256,192,154541,1,0,0:0:0:0:
256,192,154620,1,0,0:0:0:0:
256,192,154699,1,0,0:0:0:0:
256,192,154778,1,0,0:0:0:0:
256,192,154857,1,8,0:0:0:0:
256,192,154936,1,8,0:0:0:0:
256,192,155015,5,8,0:0:0:0:
256,192,155173,1,0,0:0:0:0:
232,172,155327,1,0,0:0:0:0:
256,192,155489,1,8,0:0:0:0:
232,172,155643,1,0,0:0:0:0:
256,192,155805,1,0,0:0:0:0:
232,172,155959,1,8,0:0:0:0:
256,192,156120,1,0,0:0:0:0:
232,172,156274,1,0,0:0:0:0:
256,192,156436,1,8,0:0:0:0:
232,172,156590,1,0,0:0:0:0:
256,192,156752,1,0,0:0:0:0:
232,172,156906,1,8,0:0:0:0:
256,192,157068,1,0,0:0:0:0:
228,172,157222,1,0,0:0:0:0:
256,192,157384,1,8,0:0:0:0:
224,172,157537,1,0,0:0:0:0:
256,192,157699,1,0,0:0:0:0:
232,192,157853,1,8,0:0:0:0:
256,192,158015,1,0,0:0:0:0:
224,184,158169,1,0,0:0:0:0:
256,192,158331,1,8,0:0:0:0:
224,184,158485,1,0,0:0:0:0:
256,192,158643,1,0,0:0:0:0:
224,184,158801,1,8,0:0:0:0:
256,192,158963,1,0,0:0:0:0:
224,184,159116,1,0,0:0:0:0:
256,192,159278,1,8,0:0:0:0:
220,172,159432,1,0,0:0:0:0:
256,192,159594,1,8,0:0:0:0:
204,164,159748,1,0,0:0:0:0:
256,192,159910,1,8,0:0:0:0:
256,192,160226,1,0,0:0:0:0:
204,164,160537,1,0,0:0:0:0:
256,192,160699,1,0,0:0:0:0:
256,192,160857,1,0,0:0:0:0:
256,192,161015,1,8,0:0:0:0:
256,192,161173,1,0,0:0:0:0:
256,192,161331,1,8,0:0:0:0:
256,192,161647,1,0,0:0:0:0:
256,192,161805,1,0,0:0:0:0:
256,192,161963,1,8,0:0:0:0:
204,164,162116,1,0,0:0:0:0:
256,192,162278,1,8,0:0:0:0:
204,164,162432,1,0,0:0:0:0:
204,164,162590,1,0,0:0:0:0:
256,192,162752,1,0,0:0:0:0:
256,192,162910,1,12,0:0:0:0:
256,192,163226,5,0,0:0:0:0:
256,192,163384,1,0,0:0:0:0:
256,192,163541,1,8,0:0:0:0:
256,192,163699,1,0,0:0:0:0:
256,192,163857,1,8,0:0:0:0:
256,192,164015,1,0,0:0:0:0:
256,192,164173,1,0,0:0:0:0:
204,164,164327,1,0,0:0:0:0:
256,192,164489,1,0,0:0:0:0:
204,164,164643,1,0,0:0:0:0:
256,192,164805,1,8,0:0:0:0:
184,88,165116,1,0,0:0:0:0:
256,192,165278,1,0,0:0:0:0:
256,192,165436,1,8,0:0:0:0:
256,192,165594,1,8,0:0:0:0:
184,88,165748,1,0,0:0:0:0:
256,192,165910,1,0,0:0:0:0:
256,192,166068,1,0,0:0:0:0:
256,192,166384,1,8,0:0:0:0:
256,192,166541,1,8,0:0:0:0:
256,192,166699,5,4,0:0:0:0:
256,192,166857,1,0,0:0:0:0:
256,192,167015,1,8,0:0:0:0:
256,192,167173,1,0,0:0:0:0:
256,192,167331,1,8,0:0:0:0:
172,116,167485,1,0,0:0:0:0:
256,192,167647,1,0,0:0:0:0:
256,192,167963,1,8,0:0:0:0:
256,192,168120,1,0,0:0:0:0:
256,192,168278,1,8,0:0:0:0:
256,192,168594,1,0,0:0:0:0:
256,192,168752,1,0,0:0:0:0:
256,192,168910,1,8,0:0:0:0:
168,52,169064,1,0,0:0:0:0:
184,64,169380,1,0,0:0:0:0:
256,192,169541,1,0,0:0:0:0:
256,192,169699,1,0,0:0:0:0:
180,64,169853,1,0,0:0:0:0:
256,192,170173,5,0,0:0:0:0:
256,192,170331,1,0,0:0:0:0:
256,192,170647,1,8,0:0:0:0:
256,192,170963,1,0,0:0:0:0:
256,192,171120,1,8,0:0:0:0:
256,192,171436,1,0,0:0:0:0:
256,192,171752,1,8,0:0:0:0:
256,192,172068,1,0,0:0:0:0:
256,192,172226,1,0,0:0:0:0:
256,192,172384,1,8,0:0:0:0:
256,192,172699,1,8,0:0:0:0:
256,192,172857,1,0,0:0:0:0:
256,192,173015,1,8,0:0:0:0:
256,192,173173,1,0,0:0:0:0:
256,192,173252,1,0,0:0:0:0:
256,192,173331,1,8,0:0:0:0:
256,192,173489,1,0,0:0:0:0:
256,192,173647,1,8,0:0:0:0:
256,192,173805,1,8,0:0:0:0:
256,192,173963,5,4,0:0:0:0:
256,192,174120,1,0,0:0:0:0:
256,192,174436,1,0,0:0:0:0:
256,192,174752,1,0,0:0:0:0:
180,64,174827,1,0,0:0:0:0:
256,192,174910,1,8,0:0:0:0:
204,112,175222,1,8,0:0:0:0:
204,112,175380,1,0,0:0:0:0:
204,112,175537,1,8,0:0:0:0:
208,144,175695,1,8,0:0:0:0:
256,192,175857,5,4,0:0:0:0:
256,192,176015,1,0,0:0:0:0:
256,192,176331,1,0,0:0:0:0:
256,192,176647,1,0,0:0:0:0:
256,192,176805,1,8,0:0:0:0:
256,192,177120,1,0,0:0:0:0:
204,136,177274,1,8,0:0:0:0:
256,192,177436,1,0,0:0:0:0:
204,128,177590,1,8,0:0:0:0:
256,192,177752,5,4,0:0:0:0:
256,192,177910,1,0,0:0:0:0:
256,192,178226,1,0,0:0:0:0:
256,192,178541,1,0,0:0:0:0:
256,192,178699,1,8,0:0:0:0:
208,144,179011,1,8,0:0:0:0:
220,144,179169,1,0,0:0:0:0:
212,144,179327,1,0,0:0:0:0:
60,256,179485,1,8,0:0:0:0:
256,192,179647,5,4,0:0:0:0:
256,192,179805,1,0,0:0:0:0:
256,192,180120,1,0,0:0:0:0:
256,192,180436,1,0,0:0:0:0:
256,192,180594,1,8,0:0:0:0:
256,192,180910,1,8,0:0:0:0:
256,192,180989,1,0,0:0:0:0:
256,192,181068,1,0,0:0:0:0:
256,192,181147,1,0,0:0:0:0:
256,192,181226,1,8,0:0:0:0:
256,192,181305,1,0,0:0:0:0:
256,192,181384,1,0,0:0:0:0:
256,192,181463,1,0,0:0:0:0:
256,192,181541,5,0,0:0:0:0:
256,192,181699,1,0,0:0:0:0:
256,192,182015,1,0,0:0:0:0:
256,192,182331,1,0,0:0:0:0:
256,192,182489,1,8,0:0:0:0:
232,144,182801,1,8,0:0:0:0:
228,144,182959,1,8,0:0:0:0:
224,144,183116,1,8,0:0:0:0:
216,140,183274,1,8,0:0:0:0:
256,192,183436,5,4,0:0:0:0:
256,192,183594,1,0,0:0:0:0:
256,192,183910,1,0,0:0:0:0:
256,192,184226,1,0,0:0:0:0:
256,192,184384,1,8,0:0:0:0:
256,192,184699,1,0,0:0:0:0:
256,192,185015,1,0,0:0:0:0:
256,192,185331,5,4,0:0:0:0:
256,192,185647,1,0,0:0:0:0:
256,192,185963,1,0,0:0:0:0:
256,192,186278,1,8,0:0:0:0:
256,192,186594,1,4,0:0:0:0:
256,192,186910,1,0,0:0:0:0:
256,192,187226,1,8,0:0:0:0:
256,192,187541,1,0,0:0:0:0:
256,192,187699,1,8,0:0:0:0:
256,192,188015,1,0,0:0:0:0:
256,192,188094,1,0,0:0:0:0:
256,192,188173,1,8,0:0:0:0:
256,192,188331,1,0,0:0:0:0:
256,192,188489,1,8,0:0:0:0:
256,192,188647,1,0,0:0:0:0:
256,192,188726,1,0,0:0:0:0:
256,192,188805,1,8,0:0:0:0:
256,192,188884,1,8,0:0:0:0:
256,192,188963,1,8,0:0:0:0:
256,192,189041,1,8,0:0:0:0:
256,192,189120,5,0,0:0:0:0:
256,192,189278,1,0,0:0:0:0:
256,192,189436,1,0,0:0:0:0:
256,192,189594,1,8,0:0:0:0:
256,192,189910,1,0,0:0:0:0:
256,192,190068,1,0,0:0:0:0:
256,192,190384,1,0,0:0:0:0:
256,192,190699,1,8,0:0:0:0:
256,192,191015,5,4,0:0:0:0:
256,192,191173,1,0,0:0:0:0:
256,192,191331,1,0,0:0:0:0:
256,192,191489,1,8,0:0:0:0:
256,192,191805,1,0,0:0:0:0:
256,192,191963,1,0,0:0:0:0:
256,192,192278,1,8,0:0:0:0:
256,192,192436,1,0,0:0:0:0:
256,192,192594,1,8,0:0:0:0:
212,88,192748,1,0,0:0:0:0:
256,192,192910,5,0,0:0:0:0:
256,192,193068,1,0,0:0:0:0:
256,192,193226,1,0,0:0:0:0:
256,192,193384,1,8,0:0:0:0:
256,192,193699,1,0,0:0:0:0:
256,192,193857,1,0,0:0:0:0:
256,192,194173,1,0,0:0:0:0:
256,192,194489,1,8,0:0:0:0:
256,192,194805,5,4,0:0:0:0:
256,192,194963,1,0,0:0:0:0:
256,192,195120,1,0,0:0:0:0:
256,192,195278,1,8,0:0:0:0:
256,192,195594,1,0,0:0:0:0:
256,192,195673,1,0,0:0:0:0:
256,192,195752,1,8,0:0:0:0:
256,192,195910,1,0,0:0:0:0:
256,192,196068,1,8,0:0:0:0:
256,192,196147,1,0,0:0:0:0:
256,192,196226,1,0,0:0:0:0:
256,192,196305,1,0,0:0:0:0:
256,192,196384,1,8,0:0:0:0:
256,192,196699,5,4,0:0:0:0:
256,192,196857,1,0,0:0:0:0:
256,192,197173,1,8,0:0:0:0:
256,192,197489,1,0,0:0:0:0:
256,192,197647,1,0,0:0:0:0:
256,192,197963,1,0,0:0:0:0:
256,192,198278,1,8,0:0:0:0:
256,192,198594,5,4,0:0:0:0:
256,192,198752,1,0,0:0:0:0:
256,192,199068,1,8,0:0:0:0:
256,192,199384,1,0,0:0:0:0:
256,192,199541,1,0,0:0:0:0:
256,192,199857,1,8,0:0:0:0:
256,192,200015,1,0,0:0:0:0:
256,192,200173,1,8,0:0:0:0:
256,192,200489,5,4,0:0:0:0:
256,192,200647,1,0,0:0:0:0:
256,192,200963,1,8,0:0:0:0:
256,192,201278,1,0,0:0:0:0:
256,192,201436,1,0,0:0:0:0:
256,192,201752,1,0,0:0:0:0:
256,192,202068,1,8,0:0:0:0:
256,192,202384,5,4,0:0:0:0:
256,192,202541,1,0,0:0:0:0:
256,192,202857,1,8,0:0:0:0:
256,192,203173,1,0,0:0:0:0:
256,192,203252,1,0,0:0:0:0:
256,192,203331,1,8,0:0:0:0:
256,192,203489,1,0,0:0:0:0:
256,192,203647,1,8,0:0:0:0:
256,192,203726,1,0,0:0:0:0:
256,192,203805,1,0,0:0:0:0:
256,192,203884,1,0,0:0:0:0:
256,192,203963,1,8,0:0:0:0:
256,192,204120,1,8,0:0:0:0:
256,192,204278,5,0,0:0:0:0:
256,192,204436,1,8,0:0:0:0:
256,192,204594,1,0,0:0:0:0:
256,192,204752,1,8,0:0:0:0:
256,192,205068,1,0,0:0:0:0:
256,192,205226,1,0,0:0:0:0:
256,192,205541,1,0,0:0:0:0:
256,192,205857,1,8,0:0:0:0:
256,192,206173,5,4,0:0:0:0:
256,192,206331,1,8,0:0:0:0:
256,192,206489,1,0,0:0:0:0:
256,192,206647,1,8,0:0:0:0:
256,192,206963,1,0,0:0:0:0:
256,192,207120,1,0,0:0:0:0:
256,192,207436,1,8,0:0:0:0:
256,192,207594,1,0,0:0:0:0:
256,192,207752,1,8,0:0:0:0:
256,192,207910,1,0,0:0:0:0:
256,192,208068,5,4,0:0:0:0:
256,192,208226,1,0,0:0:0:0:
256,192,208541,1,8,0:0:0:0:
256,192,208857,1,0,0:0:0:0:
256,192,209015,1,0,0:0:0:0:
256,192,209173,1,8,0:0:0:0:
256,192,209331,1,0,0:0:0:0:
256,192,209647,1,8,0:0:0:0:
256,192,209963,5,0,0:0:0:0:
256,192,210120,1,8,0:0:0:0:
256,192,210278,1,0,0:0:0:0:
256,192,210436,1,8,0:0:0:0:
256,192,210752,1,0,0:0:0:0:
256,192,210831,1,0,0:0:0:0:
256,192,210910,1,8,0:0:0:0:
256,192,211068,1,0,0:0:0:0:
256,192,211226,1,8,0:0:0:0:
256,192,211305,1,0,0:0:0:0:
256,192,211384,1,0,0:0:0:0:
256,192,211463,1,0,0:0:0:0:
256,192,211541,1,8,0:0:0:0:
256,192,211857,5,0,0:0:0:0:
256,192,212015,1,8,0:0:0:0:
256,192,212173,1,0,0:0:0:0:
256,192,212331,1,8,0:0:0:0:
256,192,212805,1,0,0:0:0:0:
256,192,213120,1,0,0:0:0:0:
256,192,213436,1,8,0:0:0:0:
256,192,213752,5,4,0:0:0:0:
256,192,213910,1,8,0:0:0:0:
256,192,214068,1,0,0:0:0:0:
256,192,214226,1,8,0:0:0:0:
256,192,214699,1,0,0:0:0:0:
256,192,215015,1,8,0:0:0:0:
256,192,215173,1,0,0:0:0:0:
256,192,215331,1,8,0:0:0:0:
256,192,215489,1,0,0:0:0:0:
256,192,215647,5,4,0:0:0:0:
256,192,215805,1,0,0:0:0:0:
224,164,215959,1,0,0:0:0:0:
224,164,216274,1,0,0:0:0:0:
256,192,216436,1,0,0:0:0:0:
256,192,216594,1,0,0:0:0:0:
256,192,216752,1,8,0:0:0:0:
256,192,216910,1,0,0:0:0:0:
256,192,217226,1,8,0:0:0:0:
256,192,217384,1,0,0:0:0:0:
256,192,217463,1,0,0:0:0:0:
256,192,217541,1,8,0:0:0:0:
256,192,217620,1,8,0:0:0:0:
256,192,217699,1,0,0:0:0:0:
256,192,217778,1,0,0:0:0:0:
256,192,217857,1,0,0:0:0:0:
256,192,217936,1,0,0:0:0:0:
256,192,218015,1,0,0:0:0:0:
256,192,218094,1,0,0:0:0:0:
256,192,218173,5,8,0:0:0:0:
256,192,218252,1,0,0:0:0:0:
256,192,218331,1,0,0:0:0:0:
256,192,218410,1,0,0:0:0:0:
256,192,218489,5,8,0:0:0:0:
256,192,218647,1,0,0:0:0:0:
256,192,218726,1,0,0:0:0:0:
256,192,218805,1,8,0:0:0:0:
256,192,218963,1,0,0:0:0:0:
256,192,219041,1,0,0:0:0:0:
256,192,219120,1,8,0:0:0:0:
256,192,219199,1,8,0:0:0:0:
256,192,219278,1,8,0:0:0:0:
256,192,219357,1,8,0:0:0:0:
256,192,219436,1,0,0:0:0:0:
256,192,231436,5,8,0:0:0:0:
256,192,231594,1,0,0:0:0:0:
256,192,231752,1,8,0:0:0:0:
256,192,231910,1,8,0:0:0:0:
256,192,232068,5,0,0:0:0:0:
256,192,232226,1,8,0:0:0:0:
256,192,232541,1,8,0:0:0:0:
256,192,232857,1,0,0:0:0:0:
256,192,233015,1,8,0:0:0:0:
256,192,233331,1,8,0:0:0:0:
256,192,233489,1,0,0:0:0:0:
256,192,233647,1,0,0:0:0:0:
256,192,233805,1,8,0:0:0:0:
256,192,234120,1,8,0:0:0:0:
256,192,234436,1,0,0:0:0:0:
256,192,234594,1,8,0:0:0:0:
256,192,234752,1,0,0:0:0:0:
256,192,234910,1,8,0:0:0:0:
256,192,235068,1,8,0:0:0:0:
256,192,235226,5,0,0:0:0:0:
256,192,235384,1,8,0:0:0:0:
256,192,235699,1,8,0:0:0:0:
256,192,236015,1,0,0:0:0:0:
256,192,236173,1,8,0:0:0:0:
256,192,236489,1,8,0:0:0:0:
256,192,236647,1,0,0:0:0:0:
256,192,236805,1,0,0:0:0:0:
256,192,236963,1,8,0:0:0:0:
256,192,237278,1,8,0:0:0:0:
256,192,237594,1,0,0:0:0:0:
256,192,237752,1,8,0:0:0:0:
256,192,237910,1,0,0:0:0:0:
256,192,238068,1,8,0:0:0:0:
256,192,238226,1,8,0:0:0:0:
256,192,238384,5,0,0:0:0:0:
256,192,238541,1,8,0:0:0:0:
256,192,238857,1,8,0:0:0:0:
256,192,239173,1,0,0:0:0:0:
256,192,239331,1,8,0:0:0:0:
256,192,239647,1,8,0:0:0:0:
256,192,239805,1,0,0:0:0:0:
256,192,239963,1,0,0:0:0:0:
256,192,240120,1,8,0:0:0:0:
256,192,240436,1,8,0:0:0:0:
256,192,240752,1,0,0:0:0:0:
256,192,240910,5,8,0:0:0:0:
256,192,241226,1,0,0:0:0:0:
256,192,241541,1,8,0:0:0:0:
256,192,242015,1,0,0:0:0:0:
256,192,242489,1,0,0:0:0:0:
256,192,242805,1,8,0:0:0:0:
256,192,243120,1,0,0:0:0:0:
256,192,243594,1,8,0:0:0:0:
256,192,244068,5,8,0:0:0:0:
256,192,244226,1,0,0:0:0:0:
256,192,244305,1,0,0:0:0:0:
256,192,244384,1,8,0:0:0:0:
256,192,244541,1,0,0:0:0:0:
256,192,244699,5,12,0:0:0:0:
256,192,244857,1,8,0:0:0:0:
256,192,245015,1,0,0:0:0:0:
256,192,245173,1,8,0:0:0:0:
256,192,245489,1,0,0:0:0:0:
256,192,245647,1,8,0:0:0:0:
256,192,245805,1,0,0:0:0:0:
256,192,245884,1,0,0:0:0:0:
256,192,245963,1,8,0:0:0:0:
256,192,246120,1,0,0:0:0:0:
256,192,246278,1,8,0:0:0:0:
256,192,246436,1,0,0:0:0:0:
256,192,246752,1,12,0:0:0:0:
256,192,247068,1,8,0:0:0:0:
256,192,247226,1,0,0:0:0:0:
256,192,247384,1,0,0:0:0:0:
256,192,247463,1,0,0:0:0:0:
256,192,247541,1,8,0:0:0:0:
256,192,247699,1,0,0:0:0:0:
256,192,247857,5,12,0:0:0:0:
256,192,248015,1,0,0:0:0:0:
256,192,248331,1,8,0:0:0:0:
256,192,248489,1,0,0:0:0:0:
256,192,248647,1,0,0:0:0:0:
256,192,248805,1,8,0:0:0:0:
256,192,248963,1,0,0:0:0:0:
256,192,249041,1,0,0:0:0:0:
256,192,249120,1,8,0:0:0:0:
256,192,249278,1,0,0:0:0:0:
256,192,249436,1,12,0:0:0:0:
256,192,249594,1,12,0:0:0:0:
256,192,249910,1,0,0:0:0:0:
256,192,250226,1,0,0:0:0:0:
256,192,250305,1,0,0:0:0:0:
256,192,250384,1,8,0:0:0:0:
256,192,250541,1,0,0:0:0:0:
256,192,250620,1,0,0:0:0:0:
256,192,250699,1,8,0:0:0:0:
256,192,250857,1,0,0:0:0:0:
256,192,251015,5,12,0:0:0:0:
256,192,251173,1,8,0:0:0:0:
256,192,251331,1,0,0:0:0:0:
256,192,251489,1,8,0:0:0:0:
256,192,251805,1,0,0:0:0:0:
256,192,251963,1,8,0:0:0:0:
256,192,252120,1,0,0:0:0:0:
256,192,252199,1,0,0:0:0:0:
256,192,252278,1,8,0:0:0:0:
256,192,252436,1,0,0:0:0:0:
256,192,252594,1,0,0:0:0:0:
256,192,252752,1,8,0:0:0:0:
256,192,253068,1,12,0:0:0:0:
256,192,253384,1,8,0:0:0:0:
256,192,253541,1,0,0:0:0:0:
256,192,253699,1,0,0:0:0:0:
256,192,253778,1,0,0:0:0:0:
256,192,253857,1,8,0:0:0:0:
256,192,254173,5,4,0:0:0:0:
256,192,254331,1,8,0:0:0:0:
256,192,254647,1,8,0:0:0:0:
256,192,254805,1,0,0:0:0:0:
256,192,254963,1,0,0:0:0:0:
256,192,255120,1,8,0:0:0:0:
256,192,255278,1,0,0:0:0:0:
256,192,255357,1,0,0:0:0:0:
256,192,255436,1,8,0:0:0:0:
256,192,255594,1,0,0:0:0:0:
256,192,255752,1,8,0:0:0:0:
256,192,255910,1,0,0:0:0:0:
256,192,256068,1,8,0:0:0:0:
256,192,256226,1,0,0:0:0:0:
256,192,256305,1,0,0:0:0:0:
256,192,256384,1,8,0:0:0:0:
256,192,256541,1,0,0:0:0:0:
256,192,256620,1,0,0:0:0:0:
256,192,256699,1,8,0:0:0:0:
256,192,256778,1,0,0:0:0:0:
256,192,256857,1,0,0:0:0:0:
256,192,256936,1,0,0:0:0:0:
256,192,257015,1,8,0:0:0:0:
256,192,257331,5,4,0:0:0:0:
256,192,257647,1,8,0:0:0:0:
256,192,257805,1,0,0:0:0:0:
256,192,257963,1,0,0:0:0:0:
256,192,258120,1,0,0:0:0:0:
256,192,258278,1,8,0:0:0:0:
256,192,258594,1,0,0:0:0:0:
256,192,258752,1,8,0:0:0:0:
256,192,258831,1,8,0:0:0:0:
256,192,258910,1,0,0:0:0:0:
256,192,259068,1,0,0:0:0:0:
256,192,259226,1,8,0:0:0:0:
256,192,259384,1,0,0:0:0:0:
256,192,259541,1,8,0:0:0:0:
256,192,259699,1,0,0:0:0:0:
256,192,259857,1,0,0:0:0:0:
256,192,260015,1,0,0:0:0:0:
256,192,260173,1,8,0:0:0:0:
256,192,260331,1,0,0:0:0:0:
256,192,260489,5,4,0:0:0:0:
256,192,260805,1,8,0:0:0:0:
256,192,261120,1,0,0:0:0:0:
256,192,261278,1,0,0:0:0:0:
256,192,261436,1,8,0:0:0:0:
256,192,261752,1,4,0:0:0:0:
256,192,261910,1,0,0:0:0:0:
256,192,261989,1,0,0:0:0:0:
256,192,262068,1,8,0:0:0:0:
256,192,262226,1,8,0:0:0:0:
256,192,262384,1,0,0:0:0:0:
256,192,262541,1,8,0:0:0:0:
256,192,262699,1,8,0:0:0:0:
256,192,262857,1,0,0:0:0:0:
256,192,262936,1,0,0:0:0:0:
256,192,263015,1,8,0:0:0:0:
256,192,263094,1,0,0:0:0:0:
256,192,263173,1,0,0:0:0:0:
256,192,263252,1,0,0:0:0:0:
256,192,263331,1,8,0:0:0:0:
256,192,263489,1,8,0:0:0:0:
256,192,263647,5,4,0:0:0:0:
256,192,263963,1,8,0:0:0:0:
256,192,264120,1,0,0:0:0:0:
256,192,264278,1,0,0:0:0:0:
256,192,264436,1,0,0:0:0:0:
256,192,264594,1,8,0:0:0:0:
256,192,264910,1,0,0:0:0:0:
256,192,265068,1,8,0:0:0:0:
256,192,265147,1,8,0:0:0:0:
256,192,265226,1,0,0:0:0:0:
256,192,265384,1,0,0:0:0:0:
256,192,265541,1,8,0:0:0:0:
256,192,265699,1,0,0:0:0:0:
256,192,265857,1,8,0:0:0:0:
256,192,266015,1,0,0:0:0:0:
256,192,266173,1,0,0:0:0:0:
256,192,266331,1,0,0:0:0:0:
256,192,266489,1,8,0:0:0:0:
256,192,266805,5,4,0:0:0:0:
256,192,267120,1,8,0:0:0:0:
256,192,267436,1,0,0:0:0:0:
256,192,267594,1,0,0:0:0:0:
256,192,267752,1,8,0:0:0:0:
256,192,268068,1,4,0:0:0:0:
256,192,268226,1,0,0:0:0:0:
256,192,268305,1,0,0:0:0:0:
256,192,268384,1,8,0:0:0:0:
256,192,268541,1,8,0:0:0:0:
256,192,268699,1,0,0:0:0:0:
256,192,268857,1,8,0:0:0:0:
256,192,269015,1,8,0:0:0:0:
256,192,269173,1,0,0:0:0:0:
256,192,269252,1,0,0:0:0:0:
256,192,269331,1,8,0:0:0:0:
256,192,269410,1,8,0:0:0:0:
256,192,269489,1,0,0:0:0:0:
256,192,269568,1,0,0:0:0:0:
256,192,269647,1,0,0:0:0:0:
256,192,269726,1,0,0:0:0:0:
256,192,269805,1,8,0:0:0:0:
256,192,269884,1,8,0:0:0:0:
256,192,269963,5,0,0:0:0:0:
244,180,270116,1,0,0:0:0:0:
256,192,270278,1,12,0:0:0:0:
244,180,270432,1,0,0:0:0:0:
256,192,270594,1,8,0:0:0:0:
248,204,270748,1,8,0:0:0:0:
256,192,270910,1,8,0:0:0:0:
248,200,271064,1,0,0:0:0:0:
256,192,271226,1,12,0:0:0:0:
248,196,271380,1,0,0:0:0:0:
256,192,271541,1,4,0:0:0:0:
248,196,271695,1,0,0:0:0:0:
256,192,271857,1,8,0:0:0:0:
248,196,272011,1,0,0:0:0:0:
256,192,272173,1,8,0:0:0:0:
248,196,272327,1,0,0:0:0:0:
256,192,272489,1,8,0:0:0:0:
256,192,272647,1,0,0:0:0:0:
256,192,272805,1,8,0:0:0:0:
256,180,272959,1,0,0:0:0:0:
256,192,273120,5,0,0:0:0:0:
252,224,273274,1,8,0:0:0:0:
256,192,273436,1,4,0:0:0:0:
248,200,273590,1,8,0:0:0:0:
256,192,273752,1,8,0:0:0:0:
256,180,273906,1,0,0:0:0:0:
256,192,274068,1,8,0:0:0:0:
256,180,274222,1,0,0:0:0:0:
256,192,274384,1,4,0:0:0:0:
252,176,274537,1,8,0:0:0:0:
256,192,274699,1,4,0:0:0:0:
252,176,274853,1,8,0:0:0:0:
256,192,275015,1,8,0:0:0:0:
252,180,275169,1,0,0:0:0:0:
256,192,275331,1,8,0:0:0:0:
256,192,275647,1,8,0:0:0:0:
256,192,275805,1,0,0:0:0:0:
256,192,275884,1,0,0:0:0:0:
256,192,275963,1,8,0:0:0:0:
256,192,276120,1,8,0:0:0:0:
256,192,276278,5,0,0:0:0:0:
200,88,276432,1,8,0:0:0:0:
200,88,276511,1,0,0:0:0:0:
256,192,276594,1,12,0:0:0:0:
200,88,276748,1,0,0:0:0:0:
256,192,276910,1,8,0:0:0:0:
200,88,277064,1,8,0:0:0:0:
256,192,277226,1,8,0:0:0:0:
200,88,277380,1,8,0:0:0:0:
200,88,277459,1,0,0:0:0:0:
256,192,277541,1,12,0:0:0:0:
196,96,277695,1,0,0:0:0:0:
196,96,277774,1,0,0:0:0:0:
256,192,277857,1,8,0:0:0:0:
196,96,278011,1,0,0:0:0:0:
256,192,278173,1,12,0:0:0:0:
196,96,278327,1,0,0:0:0:0:
256,192,278489,1,8,0:0:0:0:
184,88,278643,1,0,0:0:0:0:
184,84,278722,1,0,0:0:0:0:
256,192,278805,1,8,0:0:0:0:
256,192,278963,1,0,0:0:0:0:
256,192,279120,1,8,0:0:0:0:
184,80,279195,1,0,0:0:0:0:
184,80,279274,1,0,0:0:0:0:
180,60,279353,1,0,0:0:0:0:
184,80,279432,1,8,0:0:0:0:
256,192,279436,5,0,0:0:0:0:
180,60,279590,1,0,0:0:0:0:
256,192,279748,1,12,0:0:0:0:
180,60,279906,1,8,0:0:0:0:
256,192,280068,1,0,0:0:0:0:
180,60,280222,1,0,0:0:0:0:
180,60,280301,1,0,0:0:0:0:
256,192,280384,1,8,0:0:0:0:
184,60,280537,1,8,0:0:0:0:
184,60,280616,1,0,0:0:0:0:
256,192,280699,1,4,0:0:0:0:
184,60,280853,1,0,0:0:0:0:
184,60,280932,1,0,0:0:0:0:
256,192,281015,1,8,0:0:0:0:
180,60,281169,1,0,0:0:0:0:
256,192,281331,1,12,0:0:0:0:
180,60,281485,1,0,0:0:0:0:
256,192,281647,1,8,0:0:0:0:
256,192,281805,1,0,0:0:0:0:
256,192,281884,1,0,0:0:0:0:
256,192,281963,1,8,0:0:0:0:
256,192,282041,1,0,0:0:0:0:
256,192,282120,1,0,0:0:0:0:
256,192,282199,1,0,0:0:0:0:
256,192,282278,1,8,0:0:0:0:
184,60,282432,1,0,0:0:0:0:
256,192,282594,5,12,0:0:0:0:
184,64,282906,1,0,0:0:0:0:
184,64,283064,1,0,0:0:0:0:
256,192,283226,1,8,0:0:0:0:
256,192,283541,5,4,0:0:0:0:
256,192,283857,1,8,0:0:0:0:
256,192,284015,1,8,0:0:0:0:
184,60,284169,1,0,0:0:0:0:
256,192,284331,1,8,0:0:0:0:
256,192,284489,5,4,0:0:0:0:
256,192,284805,1,8,0:0:0:0:
256,192,284963,1,0,0:0:0:0:
256,192,285120,1,8,0:0:0:0:
256,192,285278,1,0,0:0:0:0:
256,192,285357,1,0,0:0:0:0:
256,192,285436,1,8,0:0:0:0:
256,192,285594,1,0,0:0:0:0:
256,192,285752,1,8,0:0:0:0:
256,192,285910,1,0,0:0:0:0:
256,192,285989,1,0,0:0:0:0:
256,192,286068,1,8,0:0:0:0:
256,192,286226,1,8,0:0:0:0:
256,192,286384,5,12,0:0:0:0:
184,64,286459,1,0,0:0:0:0:
184,64,286537,1,8,0:0:0:0:
184,64,286616,1,0,0:0:0:0:
256,192,286699,1,8,0:0:0:0:
184,64,286853,1,0,0:0:0:0:
184,64,287011,1,8,0:0:0:0:
184,64,287090,1,8,0:0:0:0:
184,64,287169,1,0,0:0:0:0:
184,64,287248,1,0,0:0:0:0:
256,192,287331,5,4,0:0:0:0:
184,64,287485,1,0,0:0:0:0:
184,64,287564,1,0,0:0:0:0:
256,192,287647,1,8,0:0:0:0:
184,64,287801,1,0,0:0:0:0:
184,64,287959,1,8,0:0:0:0:
184,64,288116,1,0,0:0:0:0:
256,192,288278,5,12,0:0:0:0:
184,64,288432,1,8,0:0:0:0:
197,104,288511,1,0,0:0:0:0:
256,192,288594,1,8,0:0:0:0:
197,104,288748,1,8,0:0:0:0:
196,96,288906,1,0,0:0:0:0:
256,192,289068,1,0,0:0:0:0:
256,192,289147,1,0,0:0:0:0:
256,192,289226,1,8,0:0:0:0:
256,192,289384,1,0,0:0:0:0:
256,192,289541,1,8,0:0:0:0:
200,92,289616,1,0,0:0:0:0:
256,192,289699,1,0,0:0:0:0:
256,192,289778,1,0,0:0:0:0:
256,192,289857,1,8,0:0:0:0:
200,92,289932,1,0,0:0:0:0:
256,192,290015,1,8,0:0:0:0:
