osu file format v14

[General]
AudioFilename: De.mp3
AudioLeadIn: 0
PreviewTime: 170070
Countdown: 0
SampleSet: Normal
StackLeniency: 0.7
Mode: 0
LetterboxInBreaks: 0
WidescreenStoryboard: 0

[Editor]
Bookmarks: 16385,29926,43260,56593,66697,69926,83260,96593,106593,114926,137122,159319,181515,203712
DistanceSpacing: 1.1
BeatDivisor: 4
GridSize: 4
TimelineZoom: 1

[Metadata]
Title:Juu Mensou
TitleUnicode:
Artist:Nico Nico Chorus
ArtistUnicode:
Creator:Kuma-san
Version:Hard
Source:
Tags:Gumi Saten-san Hellzero Love terametis hackSL
BeatmapID:135103
BeatmapSetID:41622

[Difficulty]
HPDrainRate:6
CircleSize:4
OverallDifficulty:6
ApproachRate:8
SliderMultiplier:1.8
SliderTickRate:2

[Events]
//Background and Video events
0,0,"BG.jpg",0,0
//Break Periods
2,117900,119725
//Storyboard Layer 0 (Background)
//Storyboard Layer 1 (Fail)
//Storyboard Layer 2 (Pass)
//Storyboard Layer 3 (Foreground)
//Storyboard Sound Samples

[TimingPoints]
1593,416.666666666667,4,1,0,70,1,0
16385,-100,4,1,0,70,0,0
29926,-100,4,1,0,70,0,0
43259,-200,4,1,0,70,0,0
46593,-133.333333333333,4,1,0,70,0,0
48259,-100,4,1,0,70,0,0
56593,-100,4,1,0,70,0,0
69926,-100,4,1,0,70,0,0
79822,-100,4,1,0,5,0,0
80030,-100,4,1,0,70,0,0
83260,-100,4,1,0,70,0,0
96593,-100,4,1,0,70,0,0
106593,-100,4,1,0,70,0,0
114926,346.820809248555,4,1,0,70,1,0
114926,-100,4,1,0,70,0,0
137122,-100,4,1,0,70,0,0
159319,-100,4,1,0,70,0,0
170070,-100,4,1,0,70,0,1
181515,-100,4,1,0,70,0,1
203712,-100,4,1,0,48,0,0

[HitObjects]
256,192,1593,5,0,0:0:0:0:
256,192,2009,1,8,0:0:0:0:
256,192,2426,1,0,0:0:0:0:
256,192,2634,1,0,0:0:0:0:
256,192,2843,1,8,0:0:0:0:
120,312,3259,6,0,B|80:264|80:208,2,90,2|0|12,0:0|0:0|0:0,0:0:0:0:
188,252,3884,1,0,0:0:0:0:
276,268,4093,1,2,0:0:0:0:
364,244,4301,1,0,0:0:0:0:
452,264,4509,1,8,0:0:0:0:
452,84,4926,6,0,B|372:80,4,45,2|0|0|0|8,0:0|0:0|0:0|0:0|0:0,0:0:0:0:
396,156,5551,1,0,0:0:0:0:
308,176,5759,1,2,0:0:0:0:
216,180,5968,1,0,0:0:0:0:
128,200,6176,1,8,0:0:0:0:
216,44,6593,6,0,B|296:72|296:108|316:112,2,90,2|0|8,0:0|0:0|0:0,0:0:0:0:
200,132,7218,1,0,0:0:0:0:
128,200,7426,2,0,B|140:256|188:284,1,90,2|0,0:0|0:0,0:0:0:0:
260,292,7843,2,0,B|316:304|376:276,1,90,8|0,0:0|0:0,0:0:0:0:
400,212,8259,5,2,0:0:0:0:
400,212,8468,2,0,B|444:156|444:156,2,45,0|0|8,0:0|0:0|0:0,0:0:0:0:
316,240,8884,1,0,0:0:0:0:
228,252,9093,1,2,0:0:0:0:
140,232,9301,1,0,0:0:0:0:
60,192,9509,2,0,B|60:136|108:112,1,90,8|0,0:0|0:0,0:0:0:0:
188,96,9926,5,2,0:0:0:0:
188,96,10134,2,0,B|260:96,2,45,0|0|8,0:0|0:0|0:0,0:0:0:0:
232,176,10551,1,0,0:0:0:0:
232,176,10759,2,0,B|164:176,2,45,2|0|0,0:0|0:0|0:0,0:0:0:0:
324,176,11176,1,8,0:0:0:0:
412,180,11384,1,0,0:0:0:0:
452,260,11592,1,2,0:0:0:0:
368,288,11801,2,0,B|324:320|240:300,1,90,0|8,0:0|0:0,0:0:0:0:
192,292,12217,2,0,B|132:276|104:208,1,90,0|2,0:0|0:0,0:0:0:0:
124,148,12634,5,0,0:0:0:0:
212,124,12842,1,8,0:0:0:0:
300,140,13051,1,0,0:0:0:0:
380,180,13259,2,0,B|396:276|280:368,1,180,2|8,0:0|0:0,0:0:0:0:
228,312,13884,2,0,B|228:364,2,45,0|0|2,0:0|0:0|0:0,0:0:0:0:
136,312,14301,2,0,B|136:360|136:364,2,45
72,248,14717,2,0,B|76:192|144:168,2,90,0|2|0,0:0|0:0|0:0,0:0:0:0:
160,236,15342,5,8,0:0:0:0:
248,216,15551,1,0,0:0:0:0:
332,252,15759,1,2,0:0:0:0:
416,220,15967,1,0,0:0:0:0:
416,220,16072,1,0,0:0:0:0:
416,220,16176,2,0,B|416:280,2,45,8|0|0,0:0|0:0|0:0,0:0:0:0:
368,140,16593,5,2,0:0:0:0:
368,140,16801,1,0,0:0:0:0:
280,140,17009,1,8,0:0:0:0:
188,140,17218,1,0,0:0:0:0:
100,140,17426,1,2,0:0:0:0:
100,140,17634,1,0,0:0:0:0:
100,232,17843,1,8,0:0:0:0:
168,292,18051,2,0,B|212:320|256:304,2,90,0|2|0,0:0|0:0|0:0,0:0:0:0:
240,236,18676,1,8,0:0:0:0:
328,236,18884,2,0,B|368:200|360:140,2,90,0|2|0,0:0|0:0|0:0,0:0:0:0:
292,152,19509,1,8,0:0:0:0:
112,180,19926,6,0,B|112:116|164:60|232:60,1,180,2|8,0:0|0:0,0:0:0:0:
312,72,20551,2,0,B|364:92|360:92,1,45
392,112,20759,2,0,B|432:196|376:292,1,180,2|8,0:0|0:0,0:0:0:0:
288,284,21384,2,0,B|232:284,1,45
196,280,21593,2,0,B|124:224|116:108,1,180,2|8,0:0|0:0,0:0:0:0:
200,84,22218,1,0,0:0:0:0:
284,88,22426,1,2,0:0:0:0:
284,88,22530,1,0,0:0:0:0:
284,88,22634,1,0,0:0:0:0:
284,88,22738,1,0,0:0:0:0:
284,88,22843,1,8,0:0:0:0:
444,168,23259,5,2,0:0:0:0:
376,228,23468,1,0,0:0:0:0:
300,176,23676,1,8,0:0:0:0:
228,228,23884,1,0,0:0:0:0:
160,168,24093,1,2,0:0:0:0:
160,168,24301,1,0,0:0:0:0:
288,40,24718,5,0,0:0:0:0:
340,116,24926,1,2,0:0:0:0:
288,188,25134,1,0,0:0:0:0:
120,120,25551,1,0,0:0:0:0:
72,196,25759,1,2,0:0:0:0:
120,272,25968,2,0,B|204:332|304:312,1,180
272,224,26593,6,0,B|376:232|440:312,1,180,2|8,0:0|0:0,0:0:0:0:
464,216,27218,2,0,B|480:168,2,45,0|0|2,0:0|0:0|0:0,0:0:0:0:
380,180,27634,2,0,B|400:128,2,45,0|0|8,0:0|0:0|0:0,0:0:0:0:
288,172,28051,1,0,0:0:0:0:
200,184,28259,2,0,B|208:360|12:372,1,270,2|0,0:0|0:0,0:0:0:0:
40,280,29093,1,2,0:0:0:0:
40,280,29197,1,0,0:0:0:0:
40,280,29301,1,0,0:0:0:0:
40,280,29405,1,0,0:0:0:0:
40,280,29509,1,0,0:0:0:0:
92,108,29926,5,2,0:0:0:0:
160,48,30134,1,0,0:0:0:0:
224,108,30343,1,8,0:0:0:0:
160,172,30551,1,0,0:0:0:0:
160,172,30655,1,0,0:0:0:0:
160,172,30759,2,0,B|160:216,4,45,2|0|0|0|8,0:0|0:0|0:0|0:0|0:0,0:0:0:0:
228,232,31384,1,0,0:0:0:0:
396,292,31801,5,0,0:0:0:0:
452,220,32009,1,8,0:0:0:0:
444,132,32218,1,0,0:0:0:0:
376,76,32426,2,0,B|324:48|256:60,2,90,2|0|8,0:0|0:0|0:0,0:0:0:0:
336,156,33051,1,0,0:0:0:0:
248,160,33259,6,0,B|192:68|92:64,2,180,2|8|2,0:0|0:0|0:0,0:0:0:0:
216,192,34197,1,0,0:0:0:0:
136,236,34405,1,0,0:0:0:0:
220,340,34718,2,0,B|340:340|340:340|412:280,1,180
440,220,35343,1,8,0:0:0:0:
396,140,35551,1,0,0:0:0:0:
312,104,35759,2,0,B|260:92|260:92|192:92,2,90,2|0|8,0:0|0:0|0:0,0:0:0:0:
312,104,36384,1,0,0:0:0:0:
300,192,36593,6,0,B|292:260|264:296|240:312|240:312|180:304,2,180,2|8|2,0:0|0:0|0:0,0:0:0:0:
256,184,37530,1,0,0:0:0:0:
168,164,37738,1,0,0:0:0:0:
40,208,38051,6,0,B|48:276|76:312|100:328|100:328|160:320,1,180
200,252,38676,1,8,0:0:0:0:
280,212,38884,1,0,0:0:0:0:
320,292,39093,2,0,B|384:288|432:252,1,90,2|0,0:0|0:0,0:0:0:0:
456,192,39509,2,0,B|464:140|452:100,1,90,8|0,0:0|0:0,0:0:0:0:
364,108,39926,6,0,B|276:56|164:76,2,180,2|8|2,0:0|0:0|0:0,0:0:0:0:
356,152,40863,1,0,0:0:0:0:
276,196,41072,1,0,0:0:0:0:
144,168,41384,6,0,B|112:228|116:304|164:360,1,180
240,324,42009,1,8,0:0:0:0:
328,300,42217,1,0,0:0:0:0:
396,244,42426,1,2,0:0:0:0:
424,160,42634,1,0,0:0:0:0:
424,72,42842,2,0,B|376:36|328:40,1,90,8|0,0:0|0:0,0:0:0:0:
260,80,43259,6,0,B|236:180|236:180|152:260|212:336,1,270,2|0,0:0|0:0,0:0:0:0:
296,328,44926,2,0,B|320:228|320:228|404:148|344:72,1,270,2|0,0:0|0:0,0:0:0:0:
232,144,46593,2,0,B|288:92|292:12,1,134.999995976687,4|8,0:0|0:0,0:0:0:0:
176,96,47426,2,8,B|104:60|24:72,1,134.999995976687,4|8,0:0|0:0,0:0:0:0:
180,188,48259,6,4,B|104:236|108:360,2,180,4|12|4,0:0|0:0|0:0,0:0:0:0:
228,112,49301,1,0,0:0:0:0:
284,184,49509,1,8,0:0:0:0:
208,232,49717,1,0,0:0:0:0:
256,308,49926,5,4,0:0:0:0:
372,192,50759,2,0,B|360:132|292:108,2,90,2|0|8,0:0|0:0|0:0,0:0:0:0:
284,212,51384,1,0,0:0:0:0:
196,232,51593,1,2,0:0:0:0:
164,156,51801,1,0,0:0:0:0:
164,156,51905,1,0,0:0:0:0:
44,216,52218,2,0,B|56:268|108:304,2,90,0|2|0,0:0|0:0|0:0,0:0:0:0:
48,124,52843,1,8,0:0:0:0:
128,84,53051,1,0,0:0:0:0:
216,100,53259,6,0,B|264:112|304:120|332:124|332:124|364:156|368:220,1,180,2|0,0:0|0:0,0:0:0:0:
120,300,54301,1,0,0:0:0:0:
208,276,54509,1,8,0:0:0:0:
208,276,54718,2,0,B|268:304|276:296,2,45,0|0|2,0:0|0:0|0:0,0:0:0:0:
232,188,55134,1,0,0:0:0:0:
232,188,55343,1,8,0:0:0:0:
232,188,55551,2,0,B|284:152|336:192,2,90,0|2|0,0:0|0:0|0:0,0:0:0:0:
144,180,56176,1,8,0:0:0:0:
296,80,56593,6,0,B|412:120|440:232,1,180,2|8,0:0|0:0,0:0:0:0:
364,260,57218,1,0,0:0:0:0:
276,280,57426,1,2,0:0:0:0:
188,264,57634,1,0,0:0:0:0:
112,216,57843,1,8,0:0:0:0:
76,132,58051,2,0,B|80:68|112:40,2,90,0|2|0,0:0|0:0|0:0,0:0:0:0:
76,176,58572,1,0,0:0:0:0:
212,168,58884,5,0,0:0:0:0:
296,196,59093,2,0,B|272:240|192:244,1,90,2|0,0:0|0:0,0:0:0:0:
132,232,59509,2,0,B|132:288|192:320,1,90,8|0,0:0|0:0,0:0:0:0:
264,300,59926,5,2,0:0:0:0:
300,216,60134,2,0,B|332:124,1,90,0|8,0:0|0:0,0:0:0:0:
336,40,60551,1,0,0:0:0:0:
336,40,60759,2,0,B|252:32|156:68,1,180,2|8,0:0|0:0,0:0:0:0:
168,156,61384,1,0,0:0:0:0:
80,180,61593,1,2,0:0:0:0:
92,268,61801,2,0,B|124:316|196:288,1,90,0|8,0:0|0:0,0:0:0:0:
260,292,62218,1,0,0:0:0:0:
344,260,62426,1,2,0:0:0:0:
384,180,62634,1,0,0:0:0:0:
348,96,62843,1,8,0:0:0:0:
276,44,63051,1,0,0:0:0:0:
192,76,63259,5,2,0:0:0:0:
192,76,63468,1,2,0:0:0:0:
132,140,63676,2,0,B|108:252,1,90
120,272,63988,1,0,0:0:0:0:
120,316,64093,2,0,B|160:356|228:348,1,90,2|0,0:0|0:0,0:0:0:0:
292,344,64509,1,8,0:0:0:0:
380,320,64718,1,0,0:0:0:0:
448,260,64926,2,0,B|500:196|464:64,2,180,2|0|2,0:0|0:0|0:0,0:0:0:0:
372,208,65968,1,0,0:0:0:0:
292,168,66176,1,8,0:0:0:0:
204,152,66384,1,0,0:0:0:0:
116,180,66593,6,0,B|176:316|376:312,1,270,2|0,0:0|0:0,0:0:0:0:
352,224,67426,1,2,0:0:0:0:
440,224,67634,1,0,0:0:0:0:
396,144,67843,1,8,0:0:0:0:
328,84,68051,2,0,B|288:40|208:36,1,90,0|2,0:0|0:0,0:0:0:0:
160,56,68468,2,0,B|120:96|120:148,1,90,0|8,0:0|0:0,0:0:0:0:
148,220,68884,1,0,0:0:0:0:
232,248,69093,1,2,0:0:0:0:
312,212,69301,1,0,0:0:0:0:
232,168,69509,1,8,0:0:0:0:
232,248,69718,1,0,0:0:0:0:
300,304,69926,6,0,B|408:288|456:200,1,180,2|8,0:0|0:0,0:0:0:0:
384,148,70551,1,0,0:0:0:0:
300,120,70759,1,2,0:0:0:0:
212,112,70968,2,0,B|164:140|164:192,2,90,0|8|0,0:0|0:0|0:0,0:0:0:0:
248,196,71593,2,0,B|292:236|356:224,2,90,2|0|8,0:0|0:0|0:0,0:0:0:0:
184,260,72218,2,0,B|212:296|260:312,2,90,0|2|0,0:0|0:0|0:0,0:0:0:0:
144,180,72843,1,8,0:0:0:0:
88,108,73051,1,0,0:0:0:0:
44,188,73259,6,0,B|88:280|212:276,1,180,2|0,0:0|0:0,0:0:0:0:
200,188,73884,1,0,0:0:0:0:
276,116,74093,1,2,0:0:0:0:
276,116,74197,1,0,0:0:0:0:
276,116,74301,1,0,0:0:0:0:
276,116,74405,1,0,0:0:0:0:
276,116,74509,2,0,B|320:80|392:104,2,90,8|0|2,0:0|0:0|0:0,0:0:0:0:
336,180,75134,1,0,0:0:0:0:
272,244,75343,1,8,0:0:0:0:
184,252,75551,1,0,0:0:0:0:
96,236,75759,1,2,0:0:0:0:
36,168,75968,2,0,B|8:120|32:56,1,90,0|8,0:0|0:0,0:0:0:0:
132,64,76384,2,0,B|192:44|240:48,1,90,0|2,0:0|0:0,0:0:0:0:
256,192,76801,12,0,79926,0:0:0:0:
160,56,80343,6,0,B|132:156|216:240,1,180,0|2,0:0|0:0,0:0:0:0:
296,236,80968,1,0,0:0:0:0:
372,188,81176,1,0,0:0:0:0:
336,104,81384,1,0,0:0:0:0:
248,80,81593,5,2,0:0:0:0:
248,80,81801,2,0,B|208:132,2,45,0|0|8,0:0|0:0|0:0,0:0:0:0:
300,152,82218,2,0,B|268:196,1,45
252,192,82426,1,2,0:0:0:0:
228,192,82530,1,0,0:0:0:0:
204,188,82634,1,0,0:0:0:0:
184,184,82738,1,0,0:0:0:0:
164,176,82843,5,8,0:0:0:0:
160,264,83051,1,0,0:0:0:0:
248,276,83259,2,0,B|344:296|448:264,2,180,4|8|4,0:0|0:0|0:0,0:0:0:0:
208,192,84301,1,0,0:0:0:0:
136,244,84509,1,0,0:0:0:0:
48,224,84718,1,0,0:0:0:0:
64,136,84926,6,0,B|132:84|248:88,1,180,2|8,0:0|0:0,0:0:0:0:
308,140,85551,1,0,0:0:0:0:
388,184,85759,2,0,B|324:232|212:240,1,180,2|8,0:0|0:0,0:0:0:0:
132,260,86384,1,0,0:0:0:0:
40,256,86593,6,0,B|64:164,1,90,2|0,0:0|0:0,0:0:0:0:
148,136,87009,1,8,0:0:0:0:
212,200,87218,1,0,0:0:0:0:
196,288,87426,2,0,B|288:300,1,90,2|0,0:0|0:0,0:0:0:0:
376,300,87843,1,8,0:0:0:0:
376,300,88051,1,0,0:0:0:0:
376,300,88259,2,0,B|408:256|416:184,1,90,2|0,0:0|0:0,0:0:0:0:
408,124,88676,2,0,B|352:68|328:56,1,90,8|0,0:0|0:0,0:0:0:0:
252,64,89093,1,2,0:0:0:0:
88,140,89509,5,8,0:0:0:0:
148,208,89718,1,0,0:0:0:0:
236,208,89926,2,0,B|316:140|292:28,2,180,2|8|2,0:0|0:0|0:0,0:0:0:0:
216,120,90968,1,0,0:0:0:0:
128,96,91176,2,0,B|96:48|40:72,1,90,8|0,0:0|0:0,0:0:0:0:
64,156,91593,1,2,0:0:0:0:
100,240,91801,1,0,0:0:0:0:
164,304,92009,2,0,B|252:356|356:300,2,180,8|2|8,0:0|0:0|0:0,0:0:0:0:
44,152,93259,6,0,B|28:96|60:64,1,90,2|0,0:0|0:0,0:0:0:0:
148,56,93676,2,0,B|208:48|272:48,1,90,8|0,0:0|0:0,0:0:0:0:
336,52,94093,2,0,B|336:152,1,90,2|0,0:0|0:0,0:0:0:0:
316,228,94509,2,0,B|232:292,1,90,8|0,0:0|0:0,0:0:0:0:
156,324,94926,6,0,B|116:284|104:232,1,90,2|0,0:0|0:0,0:0:0:0:
84,152,95343,2,0,B|96:104|144:72,1,90,8|0,0:0|0:0,0:0:0:0:
232,60,95759,2,0,B|280:40|360:68,1,90,2|0,0:0|0:0,0:0:0:0:
408,104,96176,2,0,B|500:156|492:268,2,180,8|2|8,0:0|0:0|0:0,0:0:0:0:
308,112,97218,5,0,0:0:0:0:
240,184,97426,1,2,0:0:0:0:
140,172,97634,2,0,B|132:220|184:272,1,90,0|8,0:0|0:0,0:0:0:0:
224,324,98051,2,0,B|280:348|320:332,2,90,0|2|0,0:0|0:0|0:0,0:0:0:0:
140,292,98676,2,0,B|100:236|112:180,1,90,8|0,0:0|0:0,0:0:0:0:
112,120,99093,2,0,B|144:72|196:60,1,90,2|0,0:0|0:0,0:0:0:0:
268,80,99509,6,0,B|340:144|328:248,2,180,8|2|8,0:0|0:0|0:0,0:0:0:0:
228,160,100551,1,0,0:0:0:0:
172,232,100759,1,2,0:0:0:0:
80,232,100968,1,0,0:0:0:0:
96,144,101176,1,8,0:0:0:0:
188,144,101384,1,0,0:0:0:0:
256,92,101593,5,2,0:0:0:0:
292,228,101801,1,0,0:0:0:0:
188,144,102009,1,8,0:0:0:0:
324,148,102218,1,0,0:0:0:0:
216,228,102426,1,2,0:0:0:0:
68,328,102843,6,0,B|148:376|260:344,2,180,8|2|8,0:0|0:0|0:0,0:0:0:0:
76,236,103884,1,0,0:0:0:0:
100,148,104093,1,2,0:0:0:0:
172,96,104301,2,0,B|212:56|288:64,1,90,0|8,0:0|0:0,0:0:0:0:
336,104,104718,1,0,0:0:0:0:
380,184,104926,2,0,B|332:264|208:272,2,180,2|8|2,0:0|0:0|0:0,0:0:0:0:
252,56,106176,6,0,B|160:64|80:160,2,180,8|2|8,0:0|0:0|0:0,0:0:0:0:
228,224,107426,1,2,0:0:0:0:
48,244,107843,1,8,0:0:0:0:
256,192,108259,12,0,109509,0:0:0:0:
436,52,109926,6,0,B|436:160|336:208,2,180,2|8|2,0:0|0:0|0:0,0:0:0:0:
260,84,111176,1,8,0:0:0:0:
260,264,111593,2,0,B|256:320|200:340,1,90,2|0,0:0|0:0,0:0:0:0:
260,264,112009,2,0,B|280:324|312:340,1,90,8|0,0:0|0:0,0:0:0:0:
260,264,112426,2,0,B|260:380,1,90,2|0,0:0|0:0,0:0:0:0:
260,264,112843,2,0,B|260:176,1,90,8|0,0:0|0:0,0:0:0:0:
172,152,113259,5,4,0:0:0:0:
68,300,113676,1,8,0:0:0:0:
248,300,114093,1,4,0:0:0:0:
392,192,114509,1,8,0:0:0:0:
256,192,114926,12,0,117700,0:0:0:0:
116,96,120475,5,2,0:0:0:0:
196,124,120648,2,0,B|236:160|288:136,1,90,0|8,0:0|0:0,0:0:0:0:
364,176,120995,2,0,B|400:212|456:200,1,90,0|2,0:0|0:0,0:0:0:0:
416,288,121342,2,0,B|372:308|320:280,1,90,0|8,0:0|0:0,0:0:0:0:
252,240,121689,1,0,0:0:0:0:
164,260,121862,5,2,0:0:0:0:
164,260,122035,2,0,B|148:300,2,45
84,216,122382,2,0,B|60:264,2,45,0|0|2,0:0|0:0|0:0,0:0:0:0:
48,132,122729,2,0,B|20:172,2,45,0|0|8,0:0|0:0|0:0,0:0:0:0:
48,132,123076,1,0,0:0:0:0:
132,96,123249,6,0,B|172:60|252:68,1,90,2|0,0:0|0:0,0:0:0:0:
308,60,123596,2,0,B|360:40|420:80,1,90,8|0,0:0|0:0,0:0:0:0:
448,140,123943,2,0,B|464:196|404:256,1,90,2|0,0:0|0:0,0:0:0:0:
372,292,124290,2,0,B|320:320|264:296,1,90,8|0,0:0|0:0,0:0:0:0:
260,216,124636,5,2,0:0:0:0:
80,216,124983,1,8,0:0:0:0:
204,84,125330,1,2,0:0:0:0:
284,124,125504,1,0,0:0:0:0:
336,196,125677,1,8,0:0:0:0:
304,280,125850,1,0,0:0:0:0:
216,304,126024,6,0,B|168:284|152:224,2,90,2|0|8,0:0|0:0|0:0,0:0:0:0:
240,232,126544,1,0,0:0:0:0:
188,160,126717,1,2,0:0:0:0:
96,152,126891,1,0,0:0:0:0:
148,80,127064,1,8,0:0:0:0:
236,68,127238,6,0,B|284:52|340:76,2,90,0|2|0,0:0|0:0|0:0,0:0:0:0:
292,136,127758,1,8,0:0:0:0:
352,204,127931,2,0,B|296:216|256:200,2,90,0|2|0,0:0|0:0|0:0,0:0:0:0:
312,284,128452,2,0,B|252:312|212:312,1,90,8|0,0:0|0:0,0:0:0:0:
136,308,128798,2,0,B|40:248|56:144,1,180,2|8,0:0|0:0,0:0:0:0:
112,88,129319,1,0,0:0:0:0:
156,104,129405,1,0,0:0:0:0:
196,124,129492,2,0,B|184:232|316:280,1,180,2|8,0:0|0:0,0:0:0:0:
364,224,130012,5,0,0:0:0:0:
408,212,130099,1,0,0:0:0:0:
448,192,130186,2,0,B|448:80|344:36,1,180,2|8,0:0|0:0,0:0:0:0:
276,76,130706,1,0,0:0:0:0:
188,92,130879,2,0,B|160:148,4,45,2|0|0|0|8,0:0|0:0|0:0|0:0|0:0,0:0:0:0:
320,168,131573,5,2,0:0:0:0:
396,312,131746,1,0,0:0:0:0:
292,240,131920,1,8,0:0:0:0:
440,240,132093,1,0,0:0:0:0:
324,312,132267,1,2,0:0:0:0:
396,168,132440,1,0,0:0:0:0:
216,184,132787,6,0,B|192:136|232:84,1,90,0|2,0:0|0:0,0:0:0:0:
222,98,133134,1,0,0:0:0:0:
136,120,133307,1,8,0:0:0:0:
44,120,133480,1,0,0:0:0:0:
8,204,133654,1,2,0:0:0:0:
64,276,133827,1,0,0:0:0:0:
148,300,134001,2,0,B|196:328|256:308,1,90,8|0,0:0|0:0,0:0:0:0:
324,308,134347,6,0,B|420:264|428:148,1,180,2|8,0:0|0:0,0:0:0:0:
392,84,134868,1,0,0:0:0:0:
352,60,134954,1,0,0:0:0:0:
308,60,135041,1,2,0:0:0:0:
216,56,135215,1,0,0:0:0:0:
172,72,135301,1,0,0:0:0:0:
148,112,135388,1,8,0:0:0:0:
128,200,135561,1,0,0:0:0:0:
256,192,135735,12,0,137122,0:0:0:0:
68,192,137469,6,0,B|84:236,2,45,8|0|0,0:0|0:0|0:0,0:0:0:0:
144,244,137816,2,0,B|184:272|248:248,2,90,2|0|8,0:0|0:0|0:0,0:0:0:0:
164,148,138336,1,0,0:0:0:0:
252,128,138509,1,2,0:0:0:0:
328,176,138683,1,0,0:0:0:0:
340,264,138856,2,0,B|404:256|440:208,2,90,8|0|2,0:0|0:0|0:0,0:0:0:0:
328,176,139376,1,0,0:0:0:0:
252,128,139550,1,8,0:0:0:0:
76,96,139897,6,0,B|36:168|68:284,2,180,2|8|2,0:0|0:0|0:0,0:0:0:0:
120,100,140677,1,0,0:0:0:0:
192,152,140850,1,0,0:0:0:0:
292,240,141110,1,0,0:0:0:0:
380,224,141284,1,2,0:0:0:0:
388,136,141457,1,0,0:0:0:0:
332,64,141631,2,0,B|260:52|212:72,2,90,8|0|2,0:0|0:0|0:0,0:0:0:0:
316,156,142151,1,0,0:0:0:0:
232,188,142324,1,8,0:0:0:0:
68,120,142671,6,0,B|56:172|80:228,1,90,2|0,0:0|0:0,0:0:0:0:
108,292,143018,2,0,B|176:308|232:292,1,90,8|0,0:0|0:0,0:0:0:0:
288,304,143365,2,0,B|340:296|368:284,1,45,2|0,0:0|0:0,0:0:0:0:
376,280,143538,2,0,B|444:240|448:196,2,90,0|8|0,0:0|0:0|0:0,0:0:0:0:
364,192,144058,1,2,0:0:0:0:
272,184,144232,1,0,0:0:0:0:
192,224,144405,2,0,B|144:176|144:108,1,90,8|0,0:0|0:0,0:0:0:0:
212,96,144752,2,0,B|280:48|336:60,2,90,2|0|8,0:0|0:0|0:0,0:0:0:0:
144,136,145272,1,0,0:0:0:0:
80,212,145446,1,2,0:0:0:0:
240,296,145793,5,8,0:0:0:0:
420,280,146139,1,2,0:0:0:0:
416,144,146399,1,0,0:0:0:0:
280,128,146660,1,0,0:0:0:0:
192,132,146833,1,2,0:0:0:0:
128,196,147006,1,0,0:0:0:0:
128,288,147180,2,0,B|184:308|232:288,2,90,8|0|2,0:0|0:0|0:0,0:0:0:0:
228,196,147787,1,0,0:0:0:0:
228,196,147873,1,8,0:0:0:0:
316,216,148047,1,0,0:0:0:0:
376,148,148220,6,0,B|440:228|404:340,2,180,2|8|2,0:0|0:0|0:0,0:0:0:0:
332,144,149001,1,0,0:0:0:0:
244,132,149174,1,0,0:0:0:0:
108,144,149434,1,0,0:0:0:0:
80,228,149608,1,2,0:0:0:0:
148,288,149781,1,0,0:0:0:0:
148,288,149954,2,0,B|196:316|240:296,2,90,8|0|2,0:0|0:0|0:0,0:0:0:0:
320,296,150475,2,0,B|368:320|424:296,2,90,0|8|0,0:0|0:0|0:0,0:0:0:0:
320,204,150995,6,0,B|272:116|268:92,1,90,2|0,0:0|0:0,0:0:0:0:
196,92,151342,2,0,B|88:88,1,90,8|0,0:0|0:0,0:0:0:0:
100,132,151602,1,0,0:0:0:0:
88,176,151689,1,2,0:0:0:0:
72,264,151862,2,0,B|112:288|168:292,1,90,0|8,0:0|0:0,0:0:0:0:
248,296,152209,1,0,0:0:0:0:
320,240,152382,1,2,0:0:0:0:
248,188,152556,1,0,0:0:0:0:
176,240,152729,1,8,0:0:0:0:
176,240,152902,2,0,B|128:284|72:252,1,90,0|2,0:0|0:0,0:0:0:0:
80,172,153249,2,0,B|120:144|176:144,1,90,0|8,0:0|0:0,0:0:0:0:
252,132,153596,5,0,0:0:0:0:
316,196,153769,2,0,B|320:264|260:276,1,90,2|0,0:0|0:0,0:0:0:0:
192,300,154116,2,0,B|84:320|20:224,1,180,8|2,0:0|0:0,0:0:0:0:
68,212,154550,1,0,0:0:0:0:
156,216,154723,1,0,0:0:0:0:
292,204,154983,5,0,0:0:0:0:
368,252,155157,1,2,0:0:0:0:
424,184,155330,1,0,0:0:0:0:
360,120,155504,2,0,B|324:92|260:92,1,90,8|0,0:0|0:0,0:0:0:0:
184,92,155850,2,0,B|132:84|76:108,1,90,2|0,0:0|0:0,0:0:0:0:
60,184,156197,2,0,B|52:252|104:284,1,90,8|0,0:0|0:0,0:0:0:0:
172,264,156544,5,2,0:0:0:0:
348,304,156891,2,0,B|408:236|416:104,1,180,8|2,0:0|0:0,0:0:0:0:
320,140,157411,1,0,0:0:0:0:
232,152,157584,1,8,0:0:0:0:
156,104,157758,2,0,B|136:152|192:224,2,90,0|2|0,0:0|0:0|0:0,0:0:0:0:
72,140,158278,1,8,0:0:0:0:
56,228,158452,1,0,0:0:0:0:
128,280,158625,1,2,0:0:0:0:
216,304,158798,2,0,B|268:308|312:272,1,90,0|8,0:0|0:0,0:0:0:0:
380,240,159145,1,0,0:0:0:0:
256,192,159319,12,0,162093,0:0:0:0:
100,96,162440,6,0,B|104:148|64:176,1,90,8|0,0:0|0:0,0:0:0:0:
172,200,162787,2,0,B|160:144|192:104,1,90,2|0,0:0|0:0,0:0:0:0:
276,128,163134,2,0,B|248:176|264:220,1,90,8|0,0:0|0:0,0:0:0:0:
352,228,163480,2,0,B|376:192|360:132,1,90,2|0,0:0|0:0,0:0:0:0:
276,128,163827,2,0,B|180:148|128:268,2,180,8|2|8,0:0|0:0|0:0,0:0:0:0:
256,192,164868,12,0,167642,0:0:0:0:
80,60,167989,5,8,0:0:0:0:
64,148,168162,2,0,B|56:200|92:268,2,90,0|2|0,0:0|0:0|0:0,0:0:0:0:
152,176,168683,1,8,0:0:0:0:
236,208,168856,1,0,0:0:0:0:
324,192,169030,1,2,0:0:0:0:
412,168,169203,2,0,B|456:192|440:248,1,90,0|8,0:0|0:0,0:0:0:0:
356,272,169550,1,0,0:0:0:0:
268,296,169723,1,2,0:0:0:0:
256,104,170070,5,8,0:0:0:0:
176,144,170243,1,0,0:0:0:0:
152,232,170417,2,0,B|96:212|52:164,1,90,4|0,0:0|0:0,0:0:0:0:
80,96,170764,2,0,B|148:64|204:56,1,90,8|0,0:0|0:0,0:0:0:0:
252,64,171110,2,0,B|316:72|348:88,2,90,2|0|8,0:0|0:0|0:0,0:0:0:0:
288,148,171631,1,0,0:0:0:0:
276,236,171804,2,0,B|228:264|180:252,1,90,2|0,0:0|0:0,0:0:0:0:
124,192,172151,1,8,0:0:0:0:
176,120,172324,1,0,0:0:0:0:
256,76,172498,2,0,B|308:60|376:64,1,90,2|0,0:0|0:0,0:0:0:0:
412,116,172845,5,8,0:0:0:0:
432,204,173018,1,0,0:0:0:0:
360,256,173191,2,0,B|288:304|160:292,1,180,2|8,0:0|0:0,0:0:0:0:
108,252,173712,1,0,0:0:0:0:
84,164,173885,2,0,B|128:192|196:180,1,90,2|0,0:0|0:0,0:0:0:0:
240,124,174232,1,8,0:0:0:0:
328,140,174405,1,0,0:0:0:0:
260,200,174579,1,2,0:0:0:0:
344,236,174752,1,0,0:0:0:0:
268,284,174926,1,8,0:0:0:0:
184,284,175099,2,0,B|124:276|88:224,1,90,0|2,0:0|0:0,0:0:0:0:
192,80,175619,6,0,B|264:56|404:76,1,180,8|2,0:0|0:0,0:0:0:0:
316,144,176139,1,0,0:0:0:0:
236,184,176313,1,8,0:0:0:0:
168,244,176486,1,0,0:0:0:0:
104,308,176660,2,0,B|200:332|308:316,1,180,2|8,0:0|0:0,0:0:0:0:
356,264,177180,1,0,0:0:0:0:
308,188,177353,1,2,0:0:0:0:
224,216,177527,2,0,B|196:152|212:104,2,90,0|8|0,0:0|0:0|0:0,0:0:0:0:
136,204,178047,1,2,0:0:0:0:
296,124,178394,6,0,B|348:108|408:148,1,90,8|0,0:0|0:0,0:0:0:0:
416,216,178741,2,0,B|412:288|364:308,1,90,2|0,0:0|0:0,0:0:0:0:
296,320,179087,2,0,B|228:336|88:312,2,180,8|2|8,0:0|0:0|0:0,0:0:0:0:
132,236,180128,2,0,B|136:144,1,90,2|0,0:0|0:0,0:0:0:0:
220,144,180475,2,0,B|216:240,1,90,8|0,0:0|0:0,0:0:0:0:
304,244,180821,2,0,B|308:148,1,90,2|0,0:0|0:0,0:0:0:0:
400,152,181168,2,0,B|392:340,2,180,8|2|8,0:0|0:0|0:0,0:0:0:0:
244,60,182209,5,2,0:0:0:0:
188,128,182382,1,0,0:0:0:0:
160,216,182556,2,0,B|204:256|272:240,1,90,8|0,0:0|0:0,0:0:0:0:
332,248,182902,2,0,B|440:232|472:112,2,180,2|8|2,0:0|0:0|0:0,0:0:0:0:
280,176,183769,1,0,0:0:0:0:
192,164,183943,1,8,0:0:0:0:
120,216,184116,1,0,0:0:0:0:
56,280,184290,5,2,0:0:0:0:
40,188,184463,2,0,B|28:140|64:88,1,90,0|8,0:0|0:0,0:0:0:0:
144,84,184810,1,0,0:0:0:0:
232,72,184983,2,0,B|332:56|436:64,1,180,2|8,0:0|0:0,0:0:0:0:
416,152,185504,1,0,0:0:0:0:
352,216,185677,2,0,B|308:248|240:240,1,90,2|0,0:0|0:0,0:0:0:0:
188,236,186024,2,0,B|124:228|88:188,1,90,8|0,0:0|0:0,0:0:0:0:
52,132,186371,1,2,0:0:0:0:
232,108,186717,5,8,0:0:0:0:
228,288,187064,1,2,0:0:0:0:
392,216,187411,2,0,B|380:328|276:360,2,180,8|2|0,0:0|0:0|0:0,0:0:0:0:
304,192,188278,1,0,0:0:0:0:
212,192,188452,1,2,0:0:0:0:
124,192,188625,2,0,B|88:160|92:92,1,90,0|8,0:0|0:0,0:0:0:0:
180,92,188972,2,0,B|232:56|304:72,1,90,0|2,0:0|0:0,0:0:0:0:
416,168,189492,5,8,0:0:0:0:
276,280,189839,1,2,0:0:0:0:
116,204,190186,1,8,0:0:0:0:
236,72,190532,2,0,B|324:136|348:244,1,180,2|8,0:0|0:0,0:0:0:0:
256,192,191226,12,0,192267,0:0:0:0:
256,188,192613,5,2,0:0:0:0:
76,272,192960,1,8,0:0:0:0:
92,92,193307,1,2,0:0:0:0:
256,188,193654,1,8,0:0:0:0:
256,188,194001,2,0,B|264:248|312:252,1,90,2|0,0:0|0:0,0:0:0:0:
400,252,194347,2,0,B|436:224|436:168,1,90,8|0,0:0|0:0,0:0:0:0:
428,84,194694,2,0,B|368:60|312:76,1,90,2|0,0:0|0:0,0:0:0:0:
248,76,195041,2,0,B|196:84|140:116,1,90,8|0,0:0|0:0,0:0:0:0:
108,196,195388,5,2,0:0:0:0:
256,296,195735,1,8,0:0:0:0:
404,192,196082,1,2,0:0:0:0:
404,192,196255,1,0,0:0:0:0:
136,192,196775,5,2,0:0:0:0:
256,56,197122,1,8,0:0:0:0:
368,196,197469,1,2,0:0:0:0:
368,196,197642,1,0,0:0:0:0:
104,144,198162,6,0,B|208:340|416:336,2,360,2|2|2,0:0|0:0|0:0,0:0:0:0:
280,108,199897,1,8,0:0:0:0:
400,240,200243,1,2,0:0:0:0:
220,268,200590,2,0,B|144:240|76:136,2,180,8|2|8,0:0|0:0|0:0,0:0:0:0:
396,224,201631,1,2,0:0:0:0:
236,140,201978,1,8,0:0:0:0:
68,204,202324,6,0,B|68:268,2,45,2|0|0,0:0|0:0|0:0,0:0:0:0:
156,232,202671,2,0,B|156:280,2,45
240,264,203018,2,0,B|240:320,2,45,2|0|0,0:0|0:0|0:0,0:0:0:0:
328,284,203365,1,0,0:0:0:0:
256,192,203712,12,0,209261,0:0:0:0:
