osu file format v14

[General]
AudioFilename: De.mp3
AudioLeadIn: 0
PreviewTime: 170070
Countdown: 0
SampleSet: Normal
StackLeniency: 0.7
Mode: 0
LetterboxInBreaks: 0
EpilepsyWarning: 1
WidescreenStoryboard: 0

[Editor]
Bookmarks: 16385,29926,43260,56593,69926,83260,96593,106593,114926,159319,181515,203712
DistanceSpacing: 1
BeatDivisor: 4
GridSize: 4
TimelineZoom: 1

[Metadata]
Title:Juu Mensou
TitleUnicode:Juu Mensou
Artist:Nico Nico Chorus
ArtistUnicode:Nico Nico Chorus
Creator:Kuma-san
Version:Collab
Source:
Tags:Gumi Saten-san Hellzero Love terametis hackSL
BeatmapID:131400
BeatmapSetID:41622

[Difficulty]
HPDrainRate:6
CircleSize:4
OverallDifficulty:7
ApproachRate:8
SliderMultiplier:1.8
SliderTickRate:2

[Events]
//Background and Video events
0,0,"BG.jpg",0,0
//Break Periods
2,117900,119725
//Storyboard Layer 0 (Background)
//Storyboard Layer 1 (Fail)
//Storyboard Layer 2 (Pass)
//Storyboard Layer 3 (Foreground)
Sprite,Foreground,Centre,"sb/Kuma-san.png",320,240 M,0,16280,,174,394 F,0,16280,16593,0,1 F,0,16593,29681,1,0.8338658 F,0,29681,29926,0.8338658,0 F,0,29926,43051,0 F,0,43051,43259,0,1 F,0,43259,,0 F,0,43259,56359,1,0.9567308 F,0,56359,,0.9567308 F,0,56359,,0.9567308 F,0,56359,,0.9567308 F,0,56359,56593,0.9567308,0 F,0,56593,69718,0,0.03679736 F,0,69718,70030,0.03679736,1 F,0,70030,83051,1,0.9814768 F,0,83051,83259,0.9814768,0 F,0,83259,96488,0,0.02359317 F,0,96488,96801,0.02359317,1 F,0,96801,106384,1 F,0,106384,106697,1,0 F,0,106697,117700,0,0.009584665 F,0,117700,118741,0.009584665,0.5830249 F,0,118741,118827,0.5830249,0.02484232 F,0,118827,120128,0.02484232,0.5813724 F,0,120128,120215,0.5813724,0 F,0,120215,121515,0,0.8420646 F,0,121515,121602,0.8420646,0 F,0,121602,122902,0,0.7475199 F,0,122902,122989,0.7475199,0 F,0,122989,124290,0,0.6195199 F,0,124290,124376,0.6195199,0 F,0,124376,126024,0,1 F,0,126024,137035,1 F,0,137035,137209,1,0 F,0,137209,159232,0 F,0,159232,159492,0,1 F,0,159492,181266,1,0.9653846 F,0,181266,181515,0.9653846,0
Sprite,Foreground,Centre,"sb/Hellzero.png",320,240 M,0,2843,2848,318,96,320,240 F,0,2843,3259,0,1 M,0,2848,2853,320,240,318,96 M,0,2853,2863,318,96 M,0,2863,2873,318,96 M,0,2873,2884,318,96 M,0,2884,2894,318,96 F,0,3259,15968,1 F,0,15968,16488,1,0
Sprite,Foreground,Centre,"sb/2.png",320,240 F,0,29718,30030,0,1 M,0,29822,,460,395 F,0,30030,43051,1,0.9935898 F,0,43051,43259,0.9935898,0 F,0,43259,56404,0 F,0,56404,56697,0,1 F,0,56697,69709,1 F,0,69709,70030,1,0 F,0,70030,83051,0,0.00934577 F,0,83051,83363,0.00934577,1 F,0,83363,96399,1,0.9777738 F,0,96399,96697,0.9777738,0 F,0,96697,106384,0,0.02296786 F,0,106384,106697,0.02296786,1 F,0,106697,114718,1,0.9937569 F,0,114718,115012,0.9937569,0 F,0,115012,136949,0,0.01014037 F,0,136949,137295,0.01014037,1 F,0,137295,158972,1,0.9856957 F,0,158972,159405,0.9856957,0 F,0,159405,181352,0,0.02048789 F,0,181352,181689,0.02048789,1 F,0,181689,203538,1 F,0,203538,203885,1,0
//Storyboard Sound Samples

[TimingPoints]
1593,416.666666666667,4,1,0,70,1,0
16385,-100,4,1,0,70,0,0
29926,-100,4,1,0,70,0,0
43260,-100,4,1,0,70,0,0
56593,-100,4,1,0,70,0,0
69926,-100,4,1,0,70,0,0
79822,-100,4,1,0,5,0,0
80030,-100,4,1,0,70,0,0
83260,-100,4,1,0,70,0,0
96593,-100,4,1,0,70,0,0
106593,-100,4,1,0,70,0,0
114926,346.820809248555,4,1,0,70,1,0
114926,-100,4,1,0,70,0,0
137122,-100,4,1,0,70,0,0
159319,-100,4,1,0,70,0,0
170417,-100,4,1,0,70,0,1
181515,-100,4,1,0,70,0,1
203712,-100,4,1,0,70,0,0
214810,-100,4,1,0,70,0,0

[HitObjects]
76,152,3260,6,0,B|128:148|164:96,1,90,4|0,0:0|0:0,0:0:0:0:
212,44,3676,1,8,0:0:0:0:
256,124,3885,1,0,0:0:0:0:
300,44,4093,1,2,0:0:0:0:
358,110,4301,2,0,B|384:148|436:152,2,90,0|8|0,0:0|0:0|0:0,0:0:0:0:
316,232,4926,5,2,0:0:0:0:
288,248,5030,1,0,0:0:0:0:
256,256,5135,1,0,0:0:0:0:
216,248,5239,1,0,0:0:0:0:
188,232,5343,1,8,0:0:0:0:
112,192,5551,2,0,B|22:192,1,90,0|2,0:0|0:0,0:0:0:0:
92,100,5968,2,0,B|144:96|184:136,2,90,0|8|0,0:0|0:0|0:0,0:0:0:0:
200,40,6593,5,2,0:0:0:0:
256,108,6801,1,0,0:0:0:0:
312,40,7010,1,8,0:0:0:0:
312,40,7114,1,0,0:0:0:0:
312,40,7218,1,0,0:0:0:0:
344,124,7426,2,0,B|368:168|416:168,1,90,2|0,0:0|0:0,0:0:0:0:
376,272,7843,2,0,B|351:314|301:313,1,90,8|0,0:0|0:0,0:0:0:0:
208,232,8260,6,0,B|116:232,1,90,2|0,0:0|0:0,0:0:0:0:
31,233,8676,2,0,B|28:192|72:156,2,90,8|0|2,0:0|0:0|0:0,0:0:0:0:
160,144,9301,1,0,0:0:0:0:
212,72,9510,2,0,B|164:48|124:68,1,90,8|0,0:0|0:0,0:0:0:0:
300,72,9926,6,0,B|352:72,2,45,2|0|0,0:0|0:0|0:0,0:0:0:0:
256,148,10343,1,8,0:0:0:0:
256,236,10551,1,0,0:0:0:0:
212,308,10760,2,0,B|160:308,2,45,2|0|0,0:0|0:0|0:0,0:0:0:0:
300,304,11176,2,0,B|340:280|392:284,1,90,8|0,0:0|0:0,0:0:0:0:
472,192,11593,6,0,B|368:192,1,90,2|0,0:0|0:0,0:0:0:0:
300,80,12009,2,0,B|340:104|392:100,1,90,8|0,0:0|0:0,0:0:0:0:
256,152,12426,2,0,B|209:152|166:182,1,90,2|0,0:0|0:0,0:0:0:0:
240,236,12843,1,8,0:0:0:0:
324,204,13051,1,0,0:0:0:0:
212,80,13259,6,0,B|164:76|136:32,1,90,2|0,0:0|0:0,0:0:0:0:
128,148,13676,2,0,B|80:148|40:124,1,90,8|0,0:0|0:0,0:0:0:0:
128,236,14093,2,0,B|80:236|40:260,1,90,2|0,0:0|0:0,0:0:0:0:
212,304,14509,2,0,B|164:308|136:352,1,90,8|0,0:0|0:0,0:0:0:0:
304,272,14926,6,0,B|376:192|304:112,1,180,2|8,0:0|0:0,0:0:0:0:
256,192,15551,1,0,0:0:0:0:
164,192,15759,1,2,0:0:0:0:
140,192,15864,1,0,0:0:0:0:
116,192,15968,1,0,0:0:0:0:
92,192,16072,1,0,0:0:0:0:
68,192,16176,1,8,0:0:0:0:
256,192,16593,6,0,B|284:244|248:276,1,90,2|0,0:0|0:0,0:0:0:0:
256,192,17009,2,0,B|204:220|172:184,1,90,8|0,0:0|0:0,0:0:0:0:
256,192,17426,2,0,B|228:140|264:108,1,90,2|0,0:0|0:0,0:0:0:0:
256,192,17843,2,0,B|308:164|340:200,1,90,8|0,0:0|0:0,0:0:0:0:
388,272,18259,1,2,0:0:0:0:
300,288,18468,1,0,0:0:0:0:
212,288,18676,1,8,0:0:0:0:
124,264,18885,2,0,B|84:228|84:168,2,90,0|2|0,0:0|0:0|0:0,0:0:0:0:
156,180,19510,1,8,0:0:0:0:
216,112,19718,1,0,0:0:0:0:
296,72,19926,6,0,B|372:136|336:240,1,180,2|8,0:0|0:0,0:0:0:0:
252,208,20551,2,0,B|216:244|228:320,2,90,0|2|0,0:0|0:0|0:0,0:0:0:0:
168,172,21176,1,8,0:0:0:0:
80,192,21385,1,0,0:0:0:0:
88,104,21593,2,0,B|128:72|184:84,2,90,2|0|8,0:0|0:0|0:0,0:0:0:0:
112,192,22218,2,0,B|120:240|168:264,2,90,0|2|0,0:0|0:0|0:0,0:0:0:0:
200,200,22843,2,0,B|264:180|284:152,1,90,8|0,0:0|0:0,0:0:0:0:
344,96,23260,5,2,0:0:0:0:
348,184,23468,1,0,0:0:0:0:
424,136,23676,1,8,0:0:0:0:
344,96,23885,1,0,0:0:0:0:
424,136,24093,2,0,B|456:184|420:232,1,90,2|0,0:0|0:0,0:0:0:0:
340,240,24510,1,8,0:0:0:0:
252,236,24718,1,0,0:0:0:0:
176,188,24926,2,0,B|176:136|232:116,1,90,2|0,0:0|0:0,0:0:0:0:
228,28,25343,5,8,0:0:0:0:
312,56,25551,2,0,B|328:104|284:156,2,90,0|2|0,0:0|0:0|0:0,0:0:0:0:
232,100,26176,1,8,0:0:0:0:
188,180,26385,1,0,0:0:0:0:
104,216,26593,2,0,B|140:316|280:304,1,180,2|8,0:0|0:0,0:0:0:0:
336,296,27218,6,0,B|408:288|448:256,1,90,0|2,0:0|0:0,0:0:0:0:
476,200,27635,1,0,0:0:0:0:
480,156,27739,1,0,0:0:0:0:
460,120,27843,2,0,B|376:88|336:120,2,90,8|0|2,0:0|0:0|0:0,0:0:0:0:
388,176,28468,2,0,B|336:228|204:244,1,180
140,208,29093,1,2,0:0:0:0:
100,128,29301,1,0,0:0:0:0:
176,80,29510,6,0,B|232:56|276:80,2,90,8|0|0,0:0|0:0|0:0,0:0:0:0:
256,356,30343,1,8,0:0:0:0:
340,328,30551,1,0,0:0:0:0:
360,308,30655,1,0,0:0:0:0:
380,288,30760,1,0,0:0:0:0:
400,268,30864,1,0,0:0:0:0:
420,248,30968,1,0,0:0:0:0:
440,228,31072,1,0,0:0:0:0:
460,208,31176,2,0,B|460:84,1,90,8|0,0:0|0:0,0:0:0:0:
384,68,31593,1,0,0:0:0:0:
384,68,31801,5,0,0:0:0:0:
304,112,32010,2,0,B|304:204,1,90,8|0,0:0|0:0,0:0:0:0:
284,220,32322,1,0,0:0:0:0:
264,240,32426,1,0,0:0:0:0:
244,260,32530,1,0,0:0:0:0:
224,276,32635,2,0,B|136:276,2,90,0|8|0,0:0|0:0|0:0,0:0:0:0:
256,360,33260,5,0,0:0:0:0:
424,192,33676,1,8,0:0:0:0:
332,192,33885,1,0,0:0:0:0:
256,140,34093,1,0,0:0:0:0:
256,140,34197,1,0,0:0:0:0:
184,192,34405,2,0,B|96:164,1,90
104,120,34718,6,0,B|188:84,1,90
256,140,35134,1,0,0:0:0:0:
344,170,35343,1,8,0:0:0:0:
376,256,35551,1,0,0:0:0:0:
340,340,35760,2,0,B|256:372,1,90
256,284,36176,2,0,B|256:196,1,90,8|0,0:0|0:0,0:0:0:0:
256,104,36593,6,0,B|276:60|332:48|376:68|396:120,1,180,0|8,0:0|0:0,0:0:0:0:
128,192,37426,1,0,0:0:0:0:
128,192,37530,1,0,0:0:0:0:
36,192,37739,2,0,B|-4:112,1,90
20,92,38051,6,0,B|108:92,1,90
184,144,38468,1,0,0:0:0:0:
256,88,38676,1,8,0:0:0:0:
184,36,38885,1,0,0:0:0:0:
112,92,39093,2,0,B|112:184,1,90
400,182,39510,2,0,B|400:92,1,90,8|0,0:0|0:0,0:0:0:0:
311,102,39926,6,0,B|311:282,1,180,0|8,0:0|0:0,0:0:0:0:
200,360,40655,1,0,0:0:0:0:
176,348,40760,1,0,0:0:0:0:
152,336,40864,1,0,0:0:0:0:
100,260,41072,2,0,B|100:172,1,90
108,140,41385,6,0,B|144:108|192:112|236:148|224:208,1,180,0|0,0:0|0:0,0:0:0:0:
160,272,42010,1,0,0:0:0:0:
72,260,42218,1,0,0:0:0:0:
24,184,42426,1,8,0:0:0:0:
48,96,42635,5,0,0:0:0:0:
136,76,42843,1,8,0:0:0:0:
216,120,43051,1,0,0:0:0:0:
256,192,43260,12,0,44510,0:0:0:0:
464,48,44926,6,0,B|332:84|320:272|464:324,1,360,0|4,0:0|0:0,0:0:0:0:
320,56,46593,2,0,B|244:112|264:252,1,180,0|12,0:0|0:0,0:0:0:0:
216,44,47426,2,0,B|136:116|172:232,1,180,0|12,0:0|0:0,0:0:0:0:
336,264,48259,2,0,B|312:320|236:324,1,90,0|4,0:0|0:0,0:0:0:0:
180,324,48676,2,0,B|124:332|92:276,1,90,8|4,0:0|0:0,0:0:0:0:
108,200,49093,2,0,B|140:152|208:164,2,90,0|0|12,0:0|0:0|0:0,0:0:0:0:
28,244,49718,1,4,0:0:0:0:
104,296,49926,6,0,B|156:276|188:204,2,90,2|0|8,0:0|0:0|0:0,0:0:0:0:
92,208,50551,1,0,0:0:0:0:
148,140,50759,1,0,0:0:0:0:
188,116,50863,1,0,0:0:0:0:
224,92,50968,1,0,0:0:0:0:
264,76,51072,1,0,0:0:0:0:
296,60,51176,2,0,B|348:36|400:68,2,90,8|0|0,0:0|0:0|0:0,0:0:0:0:
288,148,51801,1,0,0:0:0:0:
236,224,52009,1,8,0:0:0:0:
152,228,52218,2,0,B|108:256|116:312,2,90
168,140,52843,1,8,0:0:0:0:
256,136,53051,1,0,0:0:0:0:
344,160,53259,6,0,B|340:228|428:228,1,90
352,308,53676,2,0,B|276:320|240:296,2,90,8|0|0,0:0|0:0|0:0,0:0:0:0:
340,216,54301,1,0,0:0:0:0:
340,216,54405,1,0,0:0:0:0:
340,216,54509,2,0,B|416:168|412:136,2,90,8|0|0,0:0|0:0|0:0,0:0:0:0:
328,128,55135,2,0,B|268:44,1,90,0|8,0:0|0:0,0:0:0:0:
216,124,55551,1,0,0:0:0:0:
140,172,55759,1,0,0:0:0:0:
52,160,55968,2,0,B|52:228|120:256,1,90,0|8,0:0|0:0,0:0:0:0:
260,288,56593,6,0,B|308:320|376:284,2,90
488,32,57426,1,0,0:0:0:0:
488,124,57635,1,0,0:0:0:0:
256,192,58051,1,0,0:0:0:0:
256,100,58260,1,0,0:0:0:0:
176,56,58468,1,0,0:0:0:0:
148,56,58572,1,0,0:0:0:0:
120,56,58676,1,8,0:0:0:0:
44,104,58885,1,0,0:0:0:0:
32,192,59093,6,0,B|64:276,1,90
256,280,59510,2,0,B|256:192,1,90,8|0,0:0|0:0,0:0:0:0:
256,100,59926,6,0,B|208:92|164:108|120:128|84:192|120:256|164:276|208:292|256:280,1,360
356,192,61072,1,0,0:0:0:0:
256,100,61385,1,0,0:0:0:0:
168,100,61593,6,0,B|92:148,1,90
91,235,62010,2,0,B|168:284,1,90,8|0,0:0|0:0,0:0:0:0:
256,300,62426,1,0,0:0:0:0:
312,200,62635,1,0,0:0:0:0:
208,156,62843,1,8,0:0:0:0:
312,112,63051,1,0,0:0:0:0:
208,68,63260,6,0,B|120:68,2,90,2|2|8,0:0|0:0|0:0,0:0:0:0:
312,112,63885,1,0,0:0:0:0:
324,132,63989,1,0,0:0:0:0:
336,152,64093,1,0,0:0:0:0:
348,172,64197,1,0,0:0:0:0:
360,192,64301,1,0,0:0:0:0:
372,212,64405,1,0,0:0:0:0:
384,232,64510,2,0,B|384:320,1,90,8|0,0:0|0:0,0:0:0:0:
300,352,64926,6,0,B|264:328|256:276,1,90
208,352,65343,2,0,B|178:320|183:267,1,90,8|0,0:0|0:0,0:0:0:0:
120,332,65760,2,0,B|98:294|113:244,1,90
32,288,66176,2,0,B|22:245|53:202,1,90,8|0,0:0|0:0,0:0:0:0:
112,136,66593,6,0,B|160:88|216:64|288:96|344:136|352:228|256:276|160:228|168:136|224:96|296:64|352:88|400:136,1,540,0|8,0:0|0:0,0:0:0:0:
256,192,68260,12,0,69510,0:0:0:0:
148,56,69926,6,0,B|64:112|80:220,1,180,0|8,0:0|0:0,0:0:0:0:
168,200,70551,1,0,0:0:0:0:
252,164,70759,1,0,0:0:0:0:
328,116,70968,1,0,0:0:0:0:
376,192,71176,1,8,0:0:0:0:
296,236,71384,1,0,0:0:0:0:
252,164,71593,1,0,0:0:0:0:
328,116,71801,5,0,0:0:0:0:
376,192,72009,1,8,0:0:0:0:
296,236,72218,1,0,0:0:0:0:
252,164,72426,2,0,B|152:152,2,90,0|0|8,0:0|0:0|0:0,0:0:0:0:
340,176,73051,1,0,0:0:0:0:
428,184,73259,6,0,B|456:236|392:284,2,90,0|0|8,0:0|0:0|0:0,0:0:0:0:
380,108,73884,1,0,0:0:0:0:
292,96,74093,2,0,B|216:156|224:272,1,180,0|8,0:0|0:0,0:0:0:0:
144,292,74718,2,0,B|88:276|80:228,1,90
80,140,75134,2,0,B|84:92|156:84,1,90,0|8,0:0|0:0,0:0:0:0:
232,80,75551,2,0,B|296:72|340:136,1,90
316,196,75968,1,0,0:0:0:0:
272,276,76176,1,8,0:0:0:0:
196,320,76384,2,0,B|132:292|120:224,1,90,0|4,0:0|0:0,0:0:0:0:
256,192,76801,12,0,79926,0:0:0:0:
108,36,80134,6,0,B|16:36,1,90
36,124,80551,2,0,B|96:124,1,45
64,212,80863,1,0,0:0:0:0:
148,244,81072,2,0,B|184:188,1,45
200,120,81384,1,0,0:0:0:0:
200,120,81593,5,0,0:0:0:0:
276,168,81801,1,0,0:0:0:0:
196,212,82010,1,8,0:0:0:0:
272,260,82218,2,0,B|248:320,4,45
184,284,82843,2,0,B|128:300|120:340,2,90,8|0|4,0:0|0:0|0:0,0:0:0:0:
456,332,83676,5,8,0:0:0:0:
456,52,84093,2,0,B|368:68,1,90
256,312,84718,1,0,0:0:0:0:
256,312,84926,2,0,B|204:308|160:280|148:236|152:192,2,180,0|8|0,0:0|0:0|0:0,0:0:0:0:
256,40,86176,1,8,0:0:0:0:
32,192,86593,6,0,B|44:240|72:272|120:284|172:272,1,180,0|8,0:0|0:0,0:0:0:0:
256,248,87218,1,0,0:0:0:0:
341,272,87426,2,0,B|392:284|440:272|468:240|480:192,1,180,0|8,0:0|0:0,0:0:0:0:
440,112,88051,1,0,0:0:0:0:
352,92,88260,2,0,B|288:164,1,90
256,76,88676,2,0,B|176:124,1,90,8|0,0:0|0:0,0:0:0:0:
176,32,89093,6,0,B|128:32|84:56|56:92|56:140,1,180,0|8,0:0|0:0,0:0:0:0:
132,192,89718,1,0,0:0:0:0:
55,243,89926,2,0,B|56:292|84:328|128:352|176:352,2,180,0|8|0,0:0|0:0|0:0,0:0:0:0:
132,192,90968,1,0,0:0:0:0:
380,192,91385,1,0,0:0:0:0:
380,192,91593,2,0,B|392:144|376:104|320:80|272:116,2,180,0|8|0,0:0|0:0|0:0,0:0:0:0:
256,324,92843,1,8,0:0:0:0:
436,344,93260,6,0,B|504:288,1,90
420,264,93676,2,0,B|352:208,1,90,8|0,0:0|0:0,0:0:0:0:
440,188,94093,2,0,B|508:132,1,90
420,112,94510,2,0,B|352:56,1,90,8|0,0:0|0:0,0:0:0:0:
256,24,94926,6,0,B|204:40|176:76|180:120|224:160,1,180,0|8,0:0|0:0,0:0:0:0:
256,360,95760,2,0,B|308:344|336:308|332:264|288:224,1,180,0|8,0:0|0:0,0:0:0:0:
152,56,96593,6,0,B|72:84|76:148,1,90
168,156,97010,1,8,0:0:0:0:
240,212,97218,1,0,0:0:0:0:
264,300,97426,2,0,B|320:320|380:276,1,90
412,228,97843,1,8,0:0:0:0:
412,228,98051,2,0,B|444:184|428:120,1,90
384,64,98468,2,0,B|348:36|280:40,1,90,0|8,0:0|0:0,0:0:0:0:
212,56,98885,2,0,B|164:80|164:128,1,90
96,292,99509,6,0,B|172:288|212:304|212:304|288:272,1,180,8|0,0:0|0:0,0:0:0:0:
448,292,100343,2,0,B|372:288|332:304|332:304|256:272,1,180,8|0,0:0|0:0,0:0:0:0:
260,192,100968,1,0,0:0:0:0:
252,104,101176,1,8,0:0:0:0:
168,76,101385,1,0,0:0:0:0:
136,160,101593,5,0,0:0:0:0:
80,296,101801,1,0,0:0:0:0:
208,228,102010,1,8,0:0:0:0:
56,216,102218,1,0,0:0:0:0:
160,304,102426,1,0,0:0:0:0:
348,284,102843,6,0,B|456:256|452:128,1,180,8|0,0:0|0:0,0:0:0:0:
296,64,103676,2,0,B|212:8|96:44,1,180,8|0,0:0|0:0,0:0:0:0:
40,76,104301,1,0,0:0:0:0:
72,160,104510,1,8,0:0:0:0:
80,248,104718,1,0,0:0:0:0:
156,296,104926,2,0,B|224:272|256:252,1,90
280,180,105343,2,0,B|376:136,1,90,8|0,0:0|0:0,0:0:0:0:
392,228,105760,2,0,B|300:268,1,90
212,228,106176,6,0,B|128:144|164:48,2,180,8|0|8,0:0|0:0|0:0,0:0:0:0:
353,65,107426,2,0,B|384:144|300:228,2,180,0|8|0,0:0|0:0|0:0,0:0:0:0:
156,64,108676,1,8,0:0:0:0:
256,236,109093,1,0,0:0:0:0:
356,64,109510,1,0,0:0:0:0:
332,60,109614,1,0,0:0:0:0:
308,56,109718,1,0,0:0:0:0:
284,52,109822,1,0,0:0:0:0:
256,52,109926,6,0,B|208:64|184:108|192:160|236:192,1,180,0|8,0:0|0:0,0:0:0:0:
256,332,110760,2,0,B|304:320|328:276|320:224|276:192,1,180,0|8,0:0|0:0,0:0:0:0:
96,192,111593,5,0,0:0:0:0:
416,192,112010,1,8,0:0:0:0:
256,32,112426,1,0,0:0:0:0:
256,192,112843,1,8,0:0:0:0:
236,204,112947,1,0,0:0:0:0:
216,216,113051,1,0,0:0:0:0:
196,228,113155,1,0,0:0:0:0:
180,240,113260,6,0,B|136:236|100:204|88:152|120:104,1,180,0|8,0:0|0:0,0:0:0:0:
332,240,114093,2,0,B|376:236|412:204|424:152|392:104,1,180,0|8,0:0|0:0,0:0:0:0:
256,192,114926,12,4,117700,0:0:0:0:
72,48,120475,6,0,B|56:112,2,45
156,80,120821,2,0,B|148:128,2,45,8|0|0,0:0|0:0|0:0,0:0:0:0:
244,104,121168,2,0,B|232:180,2,45
328,140,121515,2,0,B|312:200,2,45,8|0|0,0:0|0:0|0:0,0:0:0:0:
388,208,121862,6,0,B|408:152,2,45
312,256,122209,2,0,B|300:320,2,45,8|0|0,0:0|0:0|0:0,0:0:0:0:
224,272,122556,2,0,B|208:332,2,45
156,216,122902,2,0,B|140:260,2,45,8|0|0,0:0|0:0|0:0,0:0:0:0:
192,132,123249,6,0,B|212:192|264:216,1,90
212,288,123596,2,0,B|260:304|336:264,1,90,8|0,0:0|0:0,0:0:0:0:
376,328,123943,2,0,B|440:288|448:248,1,90
488,192,124290,2,0,B|428:160|368:160,1,90,8|0,0:0|0:0,0:0:0:0:
316,136,124636,5,0,0:0:0:0:
272,124,124723,1,0,0:0:0:0:
232,140,124810,1,0,0:0:0:0:
148,172,124983,1,8,0:0:0:0:
112,196,125070,1,0,0:0:0:0:
84,232,125157,2,0,B|32:284|76:352,1,90
144,348,125504,2,0,B|264:348,2,90,0|8|0,0:0|0:0|0:0,0:0:0:0:
80,284,126024,6,0,B|64:216|84:156,1,90,2|0,0:0|0:0,0:0:0:0:
116,116,126371,2,0,B|192:188|216:196,1,90,8|0,0:0|0:0,0:0:0:0:
260,224,126717,1,2,0:0:0:0:
348,236,126891,1,0,0:0:0:0:
404,164,127064,1,8,0:0:0:0:
380,76,127238,6,0,B|296:108,1,90,0|2,0:0|0:0,0:0:0:0:
212,144,127584,1,0,0:0:0:0:
124,172,127758,1,8,0:0:0:0:
112,260,127931,2,0,B|120:316|204:328,1,90,0|2,0:0|0:0,0:0:0:0:
264,312,128278,1,0,0:0:0:0:
344,268,128452,1,8,0:0:0:0:
424,228,128625,1,0,0:0:0:0:
432,140,128798,6,0,B|332:112|228:176,1,180,2|8,0:0|0:0,0:0:0:0:
168,172,129319,1,0,0:0:0:0:
124,188,129405,1,0,0:0:0:0:
88,216,129492,1,2,0:0:0:0:
64,304,129665,2,0,B|188:304,1,90,0|8,0:0|0:0,0:0:0:0:
244,312,130012,1,0,0:0:0:0:
288,320,130099,1,0,0:0:0:0:
328,300,130186,1,2,0:0:0:0:
396,240,130359,2,0,B|472:208|500:136|496:56|492:64,1,180
404,100,130879,1,2,0:0:0:0:
404,100,130966,1,0,0:0:0:0:
404,100,131053,1,0,0:0:0:0:
404,100,131139,1,0,0:0:0:0:
404,100,131226,1,8,0:0:0:0:
224,64,131573,6,0,B|148:100|148:160,1,90,2|0,0:0|0:0,0:0:0:0:
240,156,131920,1,8,0:0:0:0:
188,228,132093,2,0,B|260:244|304:228,1,90,0|2,0:0|0:0,0:0:0:0:
277,234,132440,1,0,0:0:0:0:
368,236,132613,2,0,B|404:200|392:140,2,90,8|0|2,0:0|0:0|0:0,0:0:0:0:
312,164,133134,1,0,0:0:0:0:
244,108,133307,1,8,0:0:0:0:
180,172,133480,1,0,0:0:0:0:
196,260,133654,1,2,0:0:0:0:
140,324,133827,2,0,B|104:280|100:240,1,90,0|8,0:0|0:0,0:0:0:0:
80,168,134174,5,0,0:0:0:0:
80,168,134347,2,0,B|96:116|140:76|140:76|208:56,1,180,2|0,0:0|0:0,0:0:0:0:
264,128,134868,2,0,B|248:180|204:220|204:220|136:240,2,180
340,176,135735,1,2,0:0:0:0:
256,192,135908,12,0,136949,0:0:0:0:
320,192,137122,6,0,B|332:240|320:288|256:328|192:288|180:240|192:192,1,270
200,172,137729,1,0,0:0:0:0:
208,152,137816,1,0,0:0:0:0:
216,132,137902,1,0,0:0:0:0:
224,112,137989,1,0,0:0:0:0:
232,88,138076,2,0,B|256:44|296:24|352:44,1,135
388,120,138509,6,0,B|388:208,1,90
256,300,138856,2,0,B|256:210,1,90,8|0,0:0|0:0,0:0:0:0:
124,120,139203,2,0,B|124:208,1,90
256,300,139550,6,0,B|296:328|344:320|380:288|376:224,1,180,8|0,0:0|0:0,0:0:0:0:
256,300,140243,2,0,B|216:328|168:320|132:288|136:224,1,180,8|0,0:0|0:0,0:0:0:0:
135,226,140677,1,0,0:0:0:0:
152,140,140850,2,0,B|232:100,1,90
260,136,141110,6,0,B|260:224,1,90
204,296,141457,1,0,0:0:0:0:
116,312,141631,1,8,0:0:0:0:
36,272,141804,1,0,0:0:0:0:
16,184,141978,2,0,B|56:100,1,90
140,80,142324,1,8,0:0:0:0:
372,80,142671,5,0,0:0:0:0:
256,364,143018,1,8,0:0:0:0:
54,102,143365,2,0,B|56:56,1,45
144,36,143625,2,0,B|256:108,1,135
180,152,144058,5,0,0:0:0:0:
100,112,144232,1,0,0:0:0:0:
144,36,144405,2,0,B|220:84,1,90,8|0,0:0|0:0,0:0:0:0:
368,36,144752,2,0,B|292:84,1,90
256,168,145099,1,8,0:0:0:0:
280,256,145272,1,0,0:0:0:0:
360,296,145446,6,0,B|428:232,2,90,0|0|8,0:0|0:0|0:0,0:0:0:0:
152,296,146139,1,0,0:0:0:0:
32,240,146399,2,0,B|32:148,1,90
64,140,146660,2,0,B|116:216,1,90
152,296,147006,1,0,0:0:0:0:
240,280,147180,1,8,0:0:0:0:
256,192,147353,1,0,0:0:0:0:
212,112,147527,2,0,B|192:72|152:48|108:40|56:52,1,180,0|8,0:0|0:0,0:0:0:0:
64,140,148047,1,0,0:0:0:0:
112,216,148220,6,0,B|160:220|200:192|212:144,1,135
212,112,148567,2,0,B|224:68|268:44|320:52,1,135,8|0,0:0|0:0,0:0:0:0:
340,76,148914,2,0,B|340:124,1,45
336,212,149174,2,0,B|328:260|292:296|240:284,1,135
156,236,149608,6,0,B|120:152,1,90
56,216,149954,2,0,B|92:300,1,90,8|0,0:0|0:0,0:0:0:0:
168,348,150301,1,0,0:0:0:0:
256,360,150475,1,0,0:0:0:0:
344,348,150648,1,8,0:0:0:0:
420,300,150821,1,0,0:0:0:0:
456,216,150995,6,0,B|460:168|440:128|392:104|340:120,1,180,0|8,0:0|0:0,0:0:0:0:
256,156,151515,1,0,0:0:0:0:
256,248,151689,2,0,B|256:296,1,45
188,356,151949,2,0,B|144:352|104:324|92:272,1,135
132,192,152382,6,0,B|192:124,1,90
380,192,152729,2,0,B|320:124,1,90,8|0,0:0|0:0,0:0:0:0:
256,192,153076,1,0,0:0:0:0:
296,272,153249,1,0,0:0:0:0:
380,308,153423,1,8,0:0:0:0:
464,272,153596,1,0,0:0:0:0:
500,192,153769,6,0,B|500:144|480:104|440:76|388:76,2,180,0|8|0,0:0|0:0|0:0,0:0:0:0:
500,192,154550,1,0,0:0:0:0:
412,192,154723,2,0,B|276:192,1,135
188,192,155157,6,0,B|144:172|132:124,1,90
224,132,155504,2,0,B|268:112|280:64,1,90,8|0,0:0|0:0,0:0:0:0:
188,64,155850,2,0,B|100:64,1,90
16,104,156197,1,8,0:0:0:0:
8,192,156371,1,0,0:0:0:0:
68,256,156544,6,0,B|116:248|160:216|160:168|132:124,2,180,0|8|0,0:0|0:0|0:0,0:0:0:0:
60,236,157324,1,0,0:0:0:0:
52,216,157411,1,0,0:0:0:0:
44,196,157498,1,0,0:0:0:0:
36,176,157584,1,8,0:0:0:0:
64,88,157758,1,0,0:0:0:0:
152,100,157931,6,0,B|152:192,1,90
256,192,158278,2,0,B|256:100,1,90,8|0,0:0|0:0,0:0:0:0:
360,100,158625,2,0,B|360:192,1,90
332,276,158972,1,8,0:0:0:0:
256,324,159145,1,0,0:0:0:0:
256,192,159319,12,0,162093,0:0:0:0:
64,200,162440,6,0,B|32:88,1,90,8|0,0:0|0:0,0:0:0:0:
128,96,162787,2,0,B|152:184,1,90
332,180,163134,2,0,B|344:88,1,90,8|0,0:0|0:0,0:0:0:0:
432,104,163480,2,0,B|420:204,1,90
272,288,163827,2,0,B|216:324|128:328|88:312,2,180,8|0|8,0:0|0:0|0:0,0:0:0:0:
256,192,164868,12,0,166949,0:0:0:0:
184,64,167642,5,4,0:0:0:0:
184,64,167989,2,0,B|144:132|140:144,2,90,8|0|0,0:0|0:0|0:0,0:0:0:0:
264,108,168509,1,0,0:0:0:0:
344,68,168683,2,0,B|360:128|312:184,1,90,8|0,0:0|0:0,0:0:0:0:
404,208,169030,2,0,B|356:240|280:240,1,90
232,240,169376,2,0,B|168:272|128:260,2,90,8|0|0,0:0|0:0|0:0,0:0:0:0:
124,96,170070,5,8,0:0:0:0:
124,96,170157,1,0,0:0:0:0:
124,96,170243,1,0,0:0:0:0:
124,96,170330,1,0,0:0:0:0:
124,96,170417,2,0,B|72:148|108:192,1,90
116,264,170764,2,0,B|220:280|236:272,1,90,8|0,0:0|0:0,0:0:0:0:
296,264,171110,1,0,0:0:0:0:
384,248,171284,1,0,0:0:0:0:
424,160,171457,2,0,B|348:96|320:96,1,90,8|0,0:0|0:0,0:0:0:0:
280,160,171804,2,0,B|216:88|232:64,1,90
280,160,172151,2,0,B|176:180|176:148,1,90,8|0,0:0|0:0,0:0:0:0:
280,160,172498,2,0,B|264:212|208:236,1,90
136,232,172845,6,0,B|108:276|140:344,2,90,8|0|0,0:0|0:0|0:0,0:0:0:0:
228,236,173365,2,0,B|304:236|340:224,1,90,0|8,0:0|0:0,0:0:0:0:
268,304,173712,2,0,B|340:320|376:312,2,90
224,216,174232,1,8,0:0:0:0:
224,216,174405,1,0,0:0:0:0:
136,196,174579,5,0,0:0:0:0:
80,60,174752,1,0,0:0:0:0:
208,128,174926,1,8,0:0:0:0:
56,140,175099,1,0,0:0:0:0:
160,52,175272,1,0,0:0:0:0:
296,168,175619,6,0,B|392:124|432:28,1,180,8|0,0:0|0:0,0:0:0:0:
332,52,176139,1,0,0:0:0:0:
240,56,176313,1,8,0:0:0:0:
152,52,176486,2,0,B|120:96|136:156,1,90
64,196,176833,2,0,B|60:252|92:292,1,90,0|8,0:0|0:0,0:0:0:0:
172,264,177180,1,0,0:0:0:0:
260,264,177353,2,0,B|368:216|344:84,2,180,0|8|0,0:0|0:0|0:0,0:0:0:0:
268,84,178394,6,0,B|172:100,1,90,8|0,0:0|0:0,0:0:0:0:
148,184,178741,2,0,B|244:192,1,90
216,280,179087,2,0,B|116:288,1,90,8|0,0:0|0:0,0:0:0:0:
68,216,179434,2,0,B|0:124|92:28,2,180,0|8|0,0:0|0:0|0:0,0:0:0:0:
156,188,180301,2,0,B|260:188,1,90,0|8,0:0|0:0,0:0:0:0:
336,188,180648,2,0,B|336:280,1,90
244,272,180995,1,0,0:0:0:0:
156,296,181168,2,0,B|40:324|0:232,1,180,8|0,0:0|0:0,0:0:0:0:
256,100,181862,1,8,0:0:0:0:
128,360,182209,5,0,0:0:0:0:
128,360,182382,2,0,B|88:340|60:304|64:252|92:208,1,180
156,272,182902,2,0,B|196:252|224:216|220:164|192:120,2,180,0|8|0,0:0|0:0|0:0,0:0:0:0:
20,152,183943,1,8,0:0:0:0:
68,76,184116,1,0,0:0:0:0:
156,48,184290,6,0,B|248:84|248:40|332:80,1,180,0|8,0:0|0:0,0:0:0:0:
356,336,184983,2,0,B|264:300|264:344|180:304,1,180,0|8,0:0|0:0,0:0:0:0:
116,240,185504,1,0,0:0:0:0:
140,152,185677,2,0,B|188:72,1,90
256,132,186024,2,0,B|256:220,1,90,8|0,0:0|0:0,0:0:0:0:
320,288,186371,6,0,B|364:312|408:312|452:288|468:240,2,180,0|8|0,0:0|0:0|0:0,0:0:0:0:
256,24,187411,1,8,0:0:0:0:
192,288,187758,1,0,0:0:0:0:
192,288,187931,2,0,B|144:296|104:264|92:216|104:164,1,180
192,192,188452,2,0,B|200:144|184:96|140:72|92:76,1,180,0|8,0:0|0:0,0:0:0:0:
320,192,189145,2,0,B|312:144|328:96|372:72|420:76,1,180,0|8,0:0|0:0,0:0:0:0:
392,344,189839,5,0,0:0:0:0:
120,344,190186,1,8,0:0:0:0:
456,192,190532,1,0,0:0:0:0:
56,192,190879,1,8,0:0:0:0:
256,192,191226,12,8,192267,0:0:0:0:
256,192,192613,6,0,B|256:240|232:280|184:304|140:304,1,180,4|8,0:0|0:0,0:0:0:0:
256,192,193307,2,0,B|256:144|280:104|328:80|372:80,1,180,0|8,0:0|0:0,0:0:0:0:
388,260,194001,1,0,0:0:0:0:
124,260,194347,1,8,0:0:0:0:
424,84,194694,1,0,0:0:0:0:
88,84,195041,1,8,0:0:0:0:
256,380,195388,6,0,B|304:372|332:336|336:280|304:240,2,180,4|8|0,0:0|0:0|0:0,0:0:0:0:
256,380,196255,1,0,0:0:0:0:
256,4,196775,6,0,B|208:12|180:48|176:104|208:144,2,180,4|8|0,0:0|0:0|0:0,0:0:0:0:
256,4,197642,1,0,0:0:0:0:
116,316,198162,6,0,B|76:284|80:228|112:160|176:128|256:136|256:248|336:256|400:224|432:156|436:104|396:68,1,540,4|8,0:0|0:0,0:0:0:0:
116,67,199550,6,0,B|76:104|80:156|112:224|176:256|256:248|256:136|336:128|400:160|432:228|436:284|396:316,1,540,4|8,0:0|0:0,0:0:0:0:
220,280,200937,6,0,B|180:256|160:208|164:160|192:120,1,180,4|8,0:0|0:0,0:0:0:0:
292,280,201631,2,0,B|332:256|352:208|348:160|320:120,1,180,0|8,0:0|0:0,0:0:0:0:
148,64,202324,5,0,0:0:0:0:
132,80,202411,1,0,0:0:0:0:
116,96,202498,1,0,0:0:0:0:
100,112,202584,1,0,0:0:0:0:
84,128,202671,1,8,0:0:0:0:
68,144,202758,1,0,0:0:0:0:
52,160,202845,1,0,0:0:0:0:
36,176,202931,1,0,0:0:0:0:
20,192,203018,2,0,B|20:240|40:280|80:308|132:308,1,180,0|8,0:0|0:0,0:0:0:0:
256,192,203712,12,0,209261,0:0:0:0:
