osu file format v9

[General]
AudioFilename: Happy Synthesizer - Nico Nico Chorus.mp3
AudioLeadIn: 1985
PreviewTime: 56043
Countdown: 0
SampleSet: Soft
StackLeniency: 0.7
Mode: 0
LetterboxInBreaks: 1

[Editor]
Bookmarks: 119587,135650
DistanceSpacing: 0.8
BeatDivisor: 4
GridSize: 8

[Metadata]
Title:Happy Synthesizer
Artist:Nico Nico Chorus
Creator:Gio96b
Version:Happy Synthesizer
Source:Nico Nico Douga
Tags:vocaloid megpoid gumi megurine luka hakunokaemi ozzyozrock

[Difficulty]
HPDrainRate:5
CircleSize:5
OverallDifficulty:6
ApproachRate:6
SliderMultiplier:1.6
SliderTickRate:1

[Events]
//Background and Video events
0,0,"BGHS.png"
Video,0,"happy=D.avi"
//Break Periods
2,150968,166726
//Storyboard Layer 0 (Background)
//Storyboard Layer 1 (Fail)
//Storyboard Layer 2 (Pass)
//Storyboard Layer 3 (Foreground)
//Storyboard Sound Samples
//Background Colour Transformations
3,100,0,255,0

[TimingPoints]
1477,472.44094488189,4,2,0,100,1,0
56279,-100,4,2,0,100,0,1
86516,-100,4,2,0,100,0,0
120532,-100,4,2,0,100,0,1
149823,-100,4,2,0,100,0,0
167776,-100,4,2,0,100,0,1
228248,-100,4,2,0,100,0,0

[Colours]
Combo1 : 138,138,255
Combo2 : 128,255,0
Combo3 : 255,128,192
Combo4 : 255,255,179

[HitObjects]
216,192,1477,6,2,B|272:192,6,53.3333333333333
64,96,3366,5,8
176,96,3839,2,0,B|336:96|512:96,1,320,0|8
496,224,5256,1,0
368,224,5728,1,0
240,224,6201,1,10
240,224,6437,1,8
240,224,6673,1,8
144,144,7146,5,0
272,144,7618,2,0,B|432:144,1,160,0|8
200,256,9036,5,0
328,256,9508,1,8
328,256,9744,1,8
72,64,10925,6,2,B|392:64,1,320
392,192,12343,1,0
392,320,12815,1,0
264,320,13288,2,2,B|104:320,1,160,8|0
104,64,14705,6,2,B|424:64,1,320
424,192,16122,1,0
424,320,16595,1,8
424,320,16831,1,8
360,320,17067,2,2,B|40:320,1,320
40,192,18484,6,2,B|360:88,1,320
472,96,19902,1,0
472,224,20374,2,0,B|312:224,1,160
184,224,21319,1,8
184,224,21555,1,8
184,224,21791,1,8
312,224,22264,6,2,B|472:224,1,160
480,96,23209,2,2,B|320:96,1,160
192,88,24154,1,8
192,88,24390,1,8
128,72,24626,2,0,B|0:200|176:352,1,320,0|4
240,248,26043,5,8
360,192,26516,2,0,B|360:312|360:312|296:312,1,160
192,312,27461,1,8
64,312,27933,2,0,B|64:192|64:192|128:192,1,160
232,192,28878,1,8
232,192,29114,1,8
232,192,29351,1,4
344,136,29823,5,0
216,136,30295,1,0
216,264,30768,2,0,B|144:232|56:264,1,160
56,136,31713,1,8
56,136,31949,1,8
56,136,32185,1,8
184,136,32658,1,4
120,208,33602,5,8
120,80,34075,2,0,B|176:96|208:56|248:80|288:80,1,160
280,208,35020,1,0
408,208,35492,1,8
408,208,35728,1,8
408,208,35965,1,8
408,272,36201,2,2,B|320:328,1,80
216,312,36910,1,4
128,224,37382,5,0
136,96,37854,1,0
264,96,38327,2,0,B|328:96|448:136,1,160
424,256,39272,1,8
424,256,39508,1,8
360,256,39744,2,2,B|192:256,1,160,2|4
104,64,41162,5,0
232,64,41634,2,2,B|392:64,1,160
392,192,42579,1,8
264,192,43051,1,0
264,192,43288,1,0
264,192,43524,1,0
264,320,43996,1,0
136,320,44469,1,4
136,192,44941,6,2,B|136:264,4,40
264,184,45886,1,8
264,312,46358,2,2,B|440:312,1,160
424,184,47303,1,0
424,312,47776,1,4
344,72,48721,5,8
344,200,49193,1,2
216,200,49665,1,2
88,200,50138,2,2,B|88:152,4,40
208,160,51083,1,0
328,112,51555,2,0,B|360:168|280:208|328:264,1,160
456,272,52500,5,8
456,144,52973,1,8
328,144,53445,1,8
200,144,53917,1,8
72,144,54390,1,8
72,144,54626,1,8
72,208,54862,2,2,B|224:304|392:264,1,320,2|4
376,136,56280,5,8
248,136,56752,2,2,B|56:136,1,160
88,264,57697,1,0
216,264,58169,1,0
344,264,58642,1,0
472,264,59114,1,0
472,136,59587,1,4
344,136,60059,6,2,B|248:136|248:136|192:192,1,160
200,312,61004,1,8
200,312,61240,1,8
264,312,61476,1,0
392,312,61949,1,0
456,312,62185,1,0
424,256,62421,2,0,B|512:256|512:112,1,160,0|4
496,80,63839,5,0
368,80,64311,1,0
240,80,64784,1,8
240,80,65020,1,8
176,80,65256,1,8
48,80,65728,1,0
48,208,66201,2,2,B|160:208|160:320,1,160
288,296,67146,1,4
416,288,67618,5,8
416,168,68091,2,2,B|416:72|296:72,1,160
184,72,69036,1,0
56,72,69508,1,0
56,200,69980,1,8
56,200,70217,1,4
376,192,71398,5,0
376,320,71870,1,0
248,320,72343,1,0
120,320,72815,1,8
120,320,73051,1,0
120,256,73288,6,0,B|120:72,2,160,0|0|8
248,256,74705,1,0
248,256,74941,1,4
248,256,75177,1,0
344,168,75650,6,2,B|160:168,2,160,2|2|10
472,168,77067,1,0
472,296,77539,1,8
472,296,77776,1,4
152,296,78957,5,0
152,168,79429,1,0
152,40,79902,1,8
152,40,80138,1,0
216,40,80374,2,2,B|312:16|320:88|384:40,2,160,0|0|8
88,40,81791,1,8
88,168,82264,1,8
88,168,82500,1,0
88,168,82736,1,0
208,216,83209,6,2,B|256:48,2,160,4|0|8
336,216,84626,1,0
336,88,85099,1,8
320,152,85335,1,4
256,192,86516,12,8,89351
64,64,90295,5,0
192,64,90768,1,0
320,64,91240,1,8
320,64,91477,1,8
320,64,91713,1,8
320,192,92185,2,2,B|144:192,3,160,2|4|2|4
40,232,94075,5,0
136,320,94547,1,0
264,320,95020,2,2,B|448:320,1,160
424,192,95965,1,8
296,192,96437,1,8
296,192,96673,1,4
8,336,97854,5,0
136,336,98327,1,0
224,248,98799,1,0
352,248,99272,1,8
352,120,99744,1,0
224,120,100217,1,0
96,120,100689,2,2,B|16:120,2,80
96,248,101634,5,0
224,248,102106,1,0
160,360,102579,2,0,B|160:184,1,160
280,168,103524,1,0
408,168,103996,1,8
408,168,104232,1,8
408,168,104469,1,4
200,320,105414,5,0
328,320,105886,1,0
328,192,106358,1,0
200,192,106831,2,2,B|128:192,4,40
200,64,107776,1,0
328,64,108248,2,2,B|384:64,4,40
408,168,109193,5,0
408,296,109665,1,0
280,296,110138,2,2,B|200:296,1,80
200,296,110610,1,8
200,168,111083,1,0
328,168,111555,1,0
456,168,112028,2,0,B|456:336,1,160,0|4
344,264,112973,5,0
216,264,113445,1,0
88,264,113917,2,2,B|88:176|192:112,1,160
296,128,114862,1,8
424,128,115335,2,2,B|424:176,4,40
424,256,116280,1,8
296,256,116752,6,0,B|136:256,1,160
136,128,117697,1,0
264,128,118169,1,0
264,256,118642,1,8
264,256,118878,1,8
200,256,119114,2,2,B|120:256|136:120,1,160,2|6
384,80,120532,5,8
280,152,121004,1,0
176,224,121476,2,2,B|64:296|216:312,1,160
328,312,122421,1,0
328,184,122894,1,0
200,184,123366,2,0,B|136:104|56:192,1,160,0|4
48,56,124311,5,0
48,184,124784,1,0
176,184,125256,1,8
176,184,125492,1,8
176,184,125728,1,4
256,288,126201,1,8
384,288,126673,2,2,B|464:280|456:128,1,160,2|10
328,160,127618,5,0
200,160,128091,1,0
192,288,128563,2,2,B|24:288,1,160
32,160,129508,1,8
160,160,129980,1,0
288,160,130453,1,8
288,160,130689,1,8
288,160,130925,1,4
400,96,131398,5,8
400,224,131870,1,0
400,352,132343,1,0
296,272,132815,1,0
192,192,133288,1,0
104,104,133760,1,0
232,104,134232,2,2,B|344:136|352:32,1,160,2|4
296,296,135650,5,0
168,296,136122,1,0
168,168,136595,1,0
296,168,137067,2,2,B|392:168|424:80,1,160,2|6
488,200,138012,1,0
488,328,138484,1,0
360,328,138957,2,2,B|264:328|232:240,1,160,2|6
320,152,139902,5,0
192,152,140374,1,0
64,152,140847,1,0
64,280,141319,2,2,B|144:376|208:264,3,160,2|4|2|4
232,32,143681,5,0
360,32,144154,1,0
360,160,144626,1,0
232,160,145099,2,2,B|136:160|104:248,1,160,2|4
32,136,146043,1,0
128,48,146516,1,0
256,48,146988,2,2,B|352:48|384:136,1,160,2|4
272,200,147933,5,0
400,200,148406,1,0
400,328,148878,1,0
272,328,149351,2,2,B|208:240|128:344,3,160,2|0|2|4
136,240,167776,5,8
264,240,168248,2,2,B|456:240,1,160
424,112,169193,1,0
296,112,169665,1,0
168,112,170138,1,0
40,112,170610,1,0
40,240,171083,1,4
168,240,171555,6,2,B|264:240|264:240|320:184,1,160
304,64,172500,1,8
304,64,172736,1,8
240,64,172973,1,0
112,64,173445,1,0
48,64,173681,1,0
88,120,173917,2,0,B|0:120|0:264,1,160,0|4
16,304,175335,5,0
144,304,175807,1,0
272,304,176280,1,8
272,304,176516,1,8
336,304,176752,1,8
464,304,177225,1,0
464,176,177697,2,2,B|352:176|352:64,1,160
224,88,178642,1,4
96,96,179114,5,8
96,216,179587,2,2,B|96:312|216:312,1,160
328,312,180532,1,0
456,312,181004,1,0
456,184,181476,1,8
456,184,181713,1,4
136,192,182894,5,0
136,80,183366,1,0
272,80,183839,1,0
400,80,184311,1,8
392,208,184784,2,0,B|392:392,2,160,0|0|8
264,208,186201,1,0
136,208,186673,1,4
136,336,187146,6,2,B|320:336,2,160,2|2|10
136,208,188563,1,0
136,80,189036,1,8
136,80,189272,1,4
456,80,190453,5,0
456,208,190925,1,0
352,288,191398,1,8
224,288,191870,2,2,B|128:296|96:208|64:280,2,160,0|0|8
352,288,193288,1,8
352,160,193760,1,8
352,32,194232,1,4
224,56,194705,6,2,B|224:240,2,160,4|0|8
80,56,196122,1,0
80,184,196595,1,8
80,184,196831,1,4
96,320,198012,5,8
200,248,198484,1,0
304,176,198957,2,2,B|416:104|264:88,1,160
152,88,199902,1,0
152,216,200374,1,0
280,216,200847,2,0,B|320:296|424:208,1,160,0|4
464,336,201791,5,0
464,208,202264,1,0
336,208,202736,1,8
336,208,202973,1,8
336,208,203209,1,4
264,104,203681,1,8
136,104,204154,2,2,B|56:112|64:264,1,160,2|10
192,208,205099,5,0
320,208,205571,1,0
320,80,206043,2,2,B|488:80,1,160
480,208,206988,1,8
352,208,207461,1,0
224,208,207933,1,8
224,208,208169,1,8
224,208,208406,1,4
88,296,208878,5,8
88,168,209351,1,0
88,40,209823,1,0
200,96,210295,1,0
304,176,210768,1,0
392,264,211240,1,0
264,264,211713,2,2,B|176:216|144:336,1,160,2|4
224,80,213130,5,0
352,80,213602,1,0
352,208,214075,1,0
224,208,214547,2,2,B|128:208|96:296,1,160,2|6
32,176,215492,1,0
32,48,215965,1,0
160,48,216437,2,2,B|256:48|288:136,1,160,2|6
208,232,217382,5,0
336,232,217854,1,0
464,232,218327,1,0
472,104,218799,2,2,B|392:8|328:120,3,160,2|4|2|4
328,352,221162,5,0
200,320,221634,1,0
200,192,222106,1,0
328,192,222579,2,2,B|424:192|456:104,1,160,2|4
496,232,223524,1,0
416,328,223996,1,0
288,328,224469,2,2,B|192:328|160:240,1,160,2|4
272,176,225414,5,0
144,176,225886,1,0
16,176,226358,1,0
112,264,226831,2,2,B|200:368|256:248,3,160,2|0|2|4
256,192,228721,12,4,231555
