osu file format v9

[General]
AudioFilename: Happy Synthesizer - Nico Nico Chorus.mp3
AudioLeadIn: 2007
PreviewTime: 56042
Countdown: 0
SampleSet: Soft
StackLeniency: 0.7
Mode: 0
LetterboxInBreaks: 1

[Editor]
DistanceSpacing: 0.8
BeatDivisor: 4
GridSize: 4

[Metadata]
Title:Happy Synthesizer
Artist:Nico Nico Chorus
Creator:Gio96b
Version:Calm Synthesizer
Source:Nico Nico Douga
Tags:vocaloid megpoid gumi megurine luka hakunokaemi ozzyozrock

[Difficulty]
HPDrainRate:2
CircleSize:3
OverallDifficulty:2
ApproachRate:3
SliderMultiplier:1.4
SliderTickRate:1

[Events]
//Background and Video events
0,0,"BGHS.png"
Video,1,"happy=D.avi"
//Break Periods
2,11125,24602
2,150021,166335
//Storyboard Layer 0 (Background)
//Storyboard Layer 1 (Fail)
//Storyboard Layer 2 (Pass)
//Storyboard Layer 3 (Foreground)
//Storyboard Sound Samples
//Background Colour Transformations
3,100,0,255,0

[TimingPoints]
1476,472.44094488189,4,2,0,100,1,0
2893,-66.6666666666667,4,2,0,100,0,0
3365,-100,4,2,0,100,0,0
56279,-100,4,2,0,100,0,1
86515,-100,4,2,0,100,0,0
120531,-100,4,2,0,100,0,1
149822,-100,4,2,0,100,0,0
167775,-100,4,2,0,100,0,1
228247,-100,4,2,0,100,0,0

[Colours]
Combo1 : 138,138,255
Combo2 : 128,255,0
Combo3 : 255,128,192
Combo4 : 255,255,179

[HitObjects]
112,192,1476,2,2,B|400:192,1,280
392,80,2893,6,0,B|388:84|388:84|380:76|380:76|372:84|372:84|364:76|364:76|356:84|356:84|348:76|348:76|340:84|340:84|332:76|332:76|324:84|324:84|316:76|316:76|308:84|308:84|296:76|296:76|288:84|288:84|280:76|280:76|272:84|272:84|264:76|264:76|256:84|256:84|248:76|248:76|240:80|240:80,1,209.999993741512
168,80,3838,1,0
56,80,4310,2,0,B|16:160|80:240,1,140
152,144,5255,1,0
216,232,5727,1,0
240,184,5964,1,0
272,232,6200,1,0
384,232,6672,1,0
256,192,7145,12,4,10925
48,96,26042,6,0,B|240:-24|464:96,1,420,4|8
456,200,27932,2,0,B|264:320|40:200,1,420,0|8
248,96,30294,5,0
360,96,30767,1,2
360,208,31239,1,0
248,208,31712,1,2
248,208,31948,1,0
32,208,32657,1,4
184,40,33601,5,8
40,40,34074,2,0,B|160:192|72:296,1,280,0|8
184,296,35491,1,2
296,296,35964,2,0,B|176:144|264:40,1,280,8|8
176,248,37853,5,4
64,296,38326,1,8
64,184,38798,1,2
176,184,39271,1,0
168,296,39743,1,8
168,296,39979,2,0,B|280:336|392:296,1,210,4|0
328,200,41161,6,0,B|208:288|64:184,3,280,4|8|2|0
280,272,44940,1,8
200,344,45413,1,0
112,272,45885,1,0
112,160,46357,1,0
200,88,46830,1,0
280,160,47302,1,0
280,272,47775,1,8
264,48,48720,6,0,B|136:136|0:48,3,280
72,288,52499,5,0
160,360,52972,1,0
248,288,53444,1,0
248,176,53916,1,0
160,112,54389,1,0
72,176,54861,1,0
72,288,55334,1,8
104,72,56279,6,0,B|280:-48|496:128,1,420
448,224,58168,6,0,B|272:344|64:168,1,420
168,120,60058,5,0
64,168,60531,1,0
64,280,61003,1,8
272,192,61948,5,0
168,240,62420,1,8
152,192,62657,1,8
184,48,63838,6,2,B|40:180|184:304,1,280
328,48,65727,6,2,B|472:180|328:304,1,280
304,248,67617,5,0
224,168,68090,1,0
152,88,68562,1,8
376,48,69507,5,0
296,128,69979,1,8
296,128,70216,1,8
432,88,71397,6,2,B|56:328,1,420,2|8
0,120,73287,6,2,B|376:360,1,420,2|8
208,264,75413,5,0
208,264,75649,1,0
136,180,76121,2,0,B|212:140|276:192|276:192|272:192,1,140
252,76,77066,1,0
360,152,77538,1,8
360,152,77775,1,8
80,32,79428,6,2,B|-8:176|152:264,1,280,2|8
432,32,81318,6,2,B|520:176|360:264,1,280,2|8
200,216,82972,5,0
200,216,83208,1,0
312,216,83680,1,0
312,328,84153,1,0
200,328,84625,1,0
88,328,85098,2,0,B|88:40|88:40,1,280,8|8
256,192,86515,12,4,89350
160,192,90294,6,0,B|112:80|24:168|88:304|192:256,1,280,0|8
264,184,91712,1,0
376,192,92184,2,0,B|424:80|512:168|448:304|344:256,1,280,0|8
200,96,94074,5,0
312,96,94546,1,0
424,96,95019,1,0
424,208,95491,1,0
312,208,95964,1,0
200,208,96436,2,0,B|128:208|40:192,1,140,0|4
216,40,97853,6,0,B|328:80|424:0|512:48,1,280,0|8
472,144,99271,1,0
368,176,99743,2,0,B|256:216|160:136|72:184,1,280,0|8
344,256,101633,5,0
344,144,102105,1,0
344,32,102578,1,0
232,32,103050,1,0
120,32,103523,1,0
120,144,103995,2,0,B|120:216|128:288,1,140,0|4
216,80,105413,6,2,B|200:32|296:8|400:160|472:128,4,280
160,176,109664,5,0
160,288,110137,1,0
48,288,110609,1,0
48,176,111082,1,0
160,176,111554,1,0
272,176,112027,1,0
64,112,112972,6,2,B|48:64|144:40|248:192|320:160,4,280
112,216,117224,1,0
112,104,117696,1,0
224,104,118168,1,0
224,216,118641,1,0
224,328,119113,1,0
112,328,119586,1,0
104,192,120531,6,0,B|360:48,1,280
488,224,122420,6,0,B|232:368,1,280
72,216,124310,5,0
192,216,124783,1,0
304,216,125255,1,0
416,216,125727,1,0
416,104,126200,1,0
304,104,126672,1,0
304,104,126909,1,0
32,160,128090,6,0,B|200:160|200:352,1,280
400,248,129979,6,0,B|232:248|232:56,1,280
440,144,131869,5,0
328,144,132342,1,0
216,144,132814,1,0
104,144,133287,1,0
104,256,133759,1,0
216,256,134231,1,0
216,256,134468,1,0
248,48,135649,6,0,B|-8:184|296:248|-16:344,1,420
112,344,137538,6,0,B|368:208|64:144|376:48,1,420
200,88,139664,5,0
200,88,139901,1,0
200,200,140373,2,0,B|200:344|200:368|200:368,1,140
312,344,141318,1,0
424,344,141790,1,8
424,344,142027,1,8
224,152,143208,6,0,B|80:80|80:80|-8:176|-8:176|96:264|96:264|224:208|224:208,1,560
312,144,145570,6,0,B|456:72|456:72|544:168|544:168|440:256|440:256|312:200|312:200,1,560
176,304,147932,5,0
176,304,148168,1,0
176,304,148405,1,0
176,192,148877,2,0,B|176:32|176:32|312:32|312:32,1,280
104,72,167775,6,0,B|280:-48|496:128,1,420
448,224,169664,6,0,B|272:344|64:168,1,420
168,120,171554,5,0
64,168,172027,1,0
64,280,172499,1,8
272,192,173444,5,0
168,240,173916,1,8
152,192,174153,1,8
184,48,175334,6,2,B|40:180|184:304,1,280
328,48,177223,6,2,B|472:180|328:304,1,280
304,248,179113,5,0
224,168,179586,1,0
152,88,180058,1,8
376,48,181003,5,0
296,128,181475,1,8
296,128,181712,1,8
432,88,182893,6,2,B|56:328,1,420,2|8
0,120,184783,6,2,B|376:360,1,420,2|8
208,264,186909,5,0
208,264,187145,1,0
136,180,187617,2,0,B|212:140|276:192|276:192|272:192,1,140
252,76,188562,1,0
360,152,189034,1,8
360,152,189271,1,8
80,32,190924,6,2,B|-8:176|152:264,1,280,2|8
432,32,192814,6,2,B|520:176|360:264,1,280,2|8
200,216,194468,5,0
200,216,194704,1,0
312,216,195176,1,0
312,328,195649,1,0
200,328,196121,1,0
88,328,196594,2,0,B|88:40|88:40,1,280,8|8
408,192,198011,6,0,B|152:48,1,280
16,160,199900,6,0,B|272:304,1,280
440,216,201790,5,0
320,216,202263,1,0
208,216,202735,1,0
96,216,203207,1,0
96,104,203680,1,0
208,104,204152,1,0
208,104,204389,1,0
480,160,205570,6,0,B|312:160|312:352,1,280
112,248,207459,6,0,B|280:248|280:56,1,280
72,144,209349,5,0
184,144,209822,1,0
296,144,210294,1,0
408,144,210767,1,0
408,256,211239,1,0
296,256,211711,1,0
296,256,211948,1,0
264,48,213129,6,0,B|520:184|216:248|528:344,1,420
400,344,215018,6,0,B|144:208|448:144|136:48,1,420
312,88,217144,5,0
312,88,217381,1,0
312,200,217853,2,0,B|312:344|312:368|312:368,1,140
200,344,218798,1,0
88,344,219270,1,8
88,344,219507,1,8
288,152,220688,6,0,B|432:80|432:80|520:176|520:176|416:264|416:264|288:208|288:208,1,560
200,144,223050,6,0,B|56:72|56:72|-32:168|-32:168|72:256|72:256|200:200|200:200,1,560
336,304,225412,5,0
336,304,225648,1,0
336,304,225885,1,0
336,192,226357,2,0,B|336:32|336:32|200:32|200:32,1,280
