osu file format v13

[General]
AudioFilename: Connecting A Song for You.mp3
AudioLeadIn: 0
PreviewTime: 54436
Countdown: 0
SampleSet: Soft
StackLeniency: 0.7
Mode: 0
LetterboxInBreaks: 1
WidescreenStoryboard: 0

[Editor]
DistanceSpacing: 1.6
BeatDivisor: 6
GridSize: 4
TimelineZoom: 1

[Metadata]
Title:Connecting
TitleUnicode:Connecting*A song for you
Artist:Nico Nico Chorus
ArtistUnicode:Nico Nico Chorus
Creator:A i s h a
Version:Connecting
Source:
Tags:mes Da-little nero nqrse sona kokoru banaman EVO+ Aisha Rella
BeatmapID:573570
BeatmapSetID:249460

[Difficulty]
HPDrainRate:7
CircleSize:6
OverallDifficulty:7
ApproachRate:8
SliderMultiplier:3
SliderTickRate:1

[Events]
//Background and Video events
0,0,"Connecting.png",0,0
//Break Periods
2,12988,22038
//Storyboard Layer 0 (Background)
//Storyboard Layer 1 (Fail)
//Storyboard Layer 2 (Pass)
//Storyboard Layer 3 (Foreground)
//Storyboard Sound Samples

[TimingPoints]
1249,659.340659340659,4,2,0,100,1,0

[Colours]
Combo1 : 179,255,255
Combo2 : 254,156,200
Combo3 : 0,74,166
Combo4 : 253,255,162
Combo5 : 255,255,255

[HitObjects]
172,148,1909,5,0,0:0:0:0:
380,100,2348,2,0,P|424:176|400:236,1,150,2|0,0:0|0:0,0:0:0:0:
44,212,3117,2,0,P|108:284|264:256,1,250,2|2,0:0|0:0,0:0:0:0:
250,268,3777,1,0,0:0:0:0:
172,148,4216,1,2,0:0:0:0:
332,156,4546,5,0,0:0:0:0:
332,156,4656,2,0,P|416:148|480:184,1,150,2|2,0:0|0:0,0:0:0:0:
124,208,5314,1,2,0:0:0:0:
352,252,5645,2,0,P|280:288|236:268,1,100,2|2,0:0|0:0,0:0:0:0:
172,64,6194,1,2,0:0:0:0:
172,64,6304,2,0,B|256:48|288:56|328:88|376:136|396:176,1,250,2|0,0:0|0:0,0:0:0:0:
172,148,7293,5,2,0:0:0:0:
400,76,7623,2,0,B|460:120|476:164|472:216,1,150,2|2,0:0|0:0,0:0:0:0:
252,296,8282,2,0,P|308:324|352:308,1,100,2|0,0:0|0:0,0:0:0:0:
284,164,8832,1,0,0:0:0:0:
284,164,8941,2,0,B|276:96|220:72|160:64|120:84,1,200,2|0,0:0|0:0,0:0:0:0:
152,240,9601,2,0,B|80:252|64:224|40:228|24:152,1,150,2|0,0:0|0:0,0:0:0:0:
244,68,10260,6,0,B|300:56|344:84|364:148,1,150,2|0,0:0|0:0,0:0:0:0:
172,148,10919,1,2,0:0:0:0:
252,148,11029,1,0,0:0:0:0:
508,268,11469,1,2,0:0:0:0:
256,192,11579,12,2,12788,0:0:0:0:
184,96,22788,5,2,0:0:0:0:
344,272,23117,1,2,0:0:0:0:
464,64,23447,1,2,0:0:0:0:
184,96,23777,2,0,B|132:60|56:60|24:84,1,150,2|0,0:0|0:0,0:0:0:0:
88,256,24436,1,8,0:0:0:0:
344,272,24766,1,0,0:0:0:0:
272,44,25095,6,0,B|336:88|368:112|376:160,1,150,2|0,0:0|0:0,0:0:0:0:
512,72,25755,1,2,0:0:0:0:
468,252,25974,1,2,0:0:0:0:
468,252,26084,1,0,0:0:0:0:
56,128,26414,2,0,B|120:84|176:96|216:128|232:172|236:224,1,250,2|0,0:0|0:0,0:0:0:0:
235,216,27073,1,8,0:0:0:0:
344,96,27403,5,2,0:0:0:0:
416,60,27513,2,0,P|472:48|516:76,1,100,2|0,0:0|0:0,0:0:0:0:
184,96,28062,1,2,0:0:0:0:
92,244,28392,1,0,0:0:0:0:
184,96,28612,2,0,L|256:96,1,50,2|0,0:0|0:0,0:0:0:0:
356,196,28941,1,0,0:0:0:0:
356,196,29051,2,0,B|460:224|468:300|428:356|344:332,1,250,2|0,0:0|0:0,0:0:0:0:
288,296,29711,1,8,0:0:0:0:
184,96,30040,5,2,0:0:0:0:
336,96,30370,1,2,0:0:0:0:
184,96,30700,2,0,L|328:96|376:96,1,150,0|2,0:0|0:0,0:0:0:0:
192,288,31359,2,0,B|236:328|292:328|336:276,1,150,2|0,0:0|0:0,0:0:0:0:
508,128,32018,2,2,L|416:256,1,150
192,176,32678,2,2,P|248:200|288:200,1,100,2|2,0:0|0:0,0:0:0:0:
286,200,33007,1,8,0:0:0:0:
184,96,33337,5,2,0:0:0:0:
44,288,33667,1,2,0:0:0:0:
0,80,33996,1,8,0:0:0:0:
184,96,34326,2,2,B|264:72|296:88|332:120,1,150
304,272,34985,5,8,0:0:0:0:
432,80,35315,1,2,0:0:0:0:
184,96,35645,2,2,B|128:96|68:96|32:136|24:152,1,150
152,344,36304,1,2,0:0:0:0:
216,196,36524,1,2,0:0:0:0:
292,172,36634,1,2,0:0:0:0:
72,80,36963,2,0,B|140:48|204:40|256:48,1,150,8|0,0:0|0:0,0:0:0:0:
440,132,37623,5,8,0:0:0:0:
260,292,37952,2,2,L|304:248,1,50
136,244,38282,1,2,0:0:0:0:
184,96,38612,1,8,0:0:0:0:
0,48,38941,1,2,0:0:0:0:
36,164,39161,1,2,0:0:0:0:
36,164,39271,1,0,0:0:0:0:
184,96,39601,2,2,B|252:64|300:84|328:120,1,150
492,284,40260,1,8,0:0:0:0:
184,96,40590,5,0,0:0:0:0:
424,100,40919,2,2,P|472:148|440:224,1,150
224,304,41579,1,8,0:0:0:0:
12,188,41908,1,2,0:0:0:0:
228,84,42238,1,2,0:0:0:0:
468,56,42568,5,2,0:0:0:0:
412,292,42898,1,0,0:0:0:0:
412,292,43007,1,0,0:0:0:0:
264,200,43227,1,2,0:0:0:0:
104,200,43447,2,2,B|44:200|0:208|8:284|12:340|20:336,1,200
40,336,43996,2,0,B|92:316|120:352|152:380|184:336|200:324,1,150
272,204,44546,5,2,0:0:0:0:
392,96,44766,1,0,0:0:0:0:
432,164,44876,1,2,0:0:0:0:
184,96,45205,1,0,0:0:0:0:
8,264,45425,1,2,0:0:0:0:
328,264,45865,5,2,0:0:0:0:
316,48,46084,2,2,L|316:112,1,50
80,156,46524,2,2,P|128:128|168:164,1,100
480,156,47183,1,0,0:0:0:0:
328,264,47403,5,0,0:0:0:0:
384,320,47513,1,2,0:0:0:0:
504,112,47842,2,0,L|472:160,1,50
292,164,48392,5,0,0:0:0:0:
224,208,48502,1,2,0:0:0:0:
16,88,48832,2,2,P|72:60|164:84,1,150
340,60,49381,1,0,0:0:0:0:
340,60,49491,1,0,0:0:0:0:
344,300,49821,1,2,0:0:0:0:
104,304,50150,5,4,0:0:0:0:
216,44,50480,5,4,0:0:0:0:
392,220,50810,5,4,0:0:0:0:
512,44,51139,5,4,0:0:0:0:
392,220,51469,5,4,0:0:0:0:
236,40,51799,5,2,0:0:0:0:
132,160,52018,2,2,L|176:192,1,50
36,276,52458,1,2,0:0:0:0:
184,96,52678,1,0,0:0:0:0:
184,96,52788,1,2,0:0:0:0:
376,212,53337,5,4,0:0:0:0:
184,96,53777,1,2,0:0:0:0:
100,320,54106,1,4,0:0:0:0:
344,84,54765,6,0,B|412:56|436:68|476:120,1,150,0|6,0:0|0:0,0:0:0:0:
268,240,55424,2,0,B|180:280|168:176|64:192|24:256,1,250,2|0,0:0|0:0,0:0:0:0:
348,160,56414,1,2,0:0:0:0:
328,312,56853,2,0,P|400:328|444:308,1,100,2|0,0:0|0:0,0:0:0:0:
288,236,57402,5,2,0:0:0:0:
56,180,57732,1,2,0:0:0:0:
272,76,58062,1,2,0:0:0:0:
504,132,58391,2,2,P|504:192|468:200,1,100
240,140,58941,1,2,0:0:0:0:
304,188,59051,2,0,B|280:328|168:144|232:348|152:228|172:364|88:220,1,250
72,64,60040,5,0,0:0:0:0:
320,144,60369,1,0,0:0:0:0:
104,252,60699,2,0,P|164:224|256:264,1,150
400,252,61248,1,0,0:0:0:0:
504,128,61468,2,0,P|476:72|424:56,1,100
