osu file format v13

[General]
AudioFilename: Buriki no Dance (DEVILA REMIX Chorus).mp3
AudioLeadIn: 0
PreviewTime: -1
Countdown: 1
SampleSet: None
StackLeniency: 0.9
Mode: 0
LetterboxInBreaks: 1
WidescreenStoryboard: 1

[Editor]
DistanceSpacing: 1.1
BeatDivisor: 4
GridSize: 4
TimelineZoom: 2.899999

[Metadata]
Title:Buriki no Dance (DEVILA REMIX)
TitleUnicode:ブリキノダンス
Artist:Nico Nico Chorus
ArtistUnicode:合唱
Creator:userxblade
Version:Normal(UNFINISHED)
Source:
Tags:NicoNico Douga Buriki No Dance Techno Nico Chorus Remix Multiple Singers Hard Rock
BeatmapID:555811
BeatmapSetID:239623

[Difficulty]
HPDrainRate:4
CircleSize:3
OverallDifficulty:4
ApproachRate:5
SliderMultiplier:0.8
SliderTickRate:2

[Events]
//Background and Video events
0,0,"osu pic.png",0,0
//Break Periods
2,21283,25465
//Storyboard Layer 0 (Background)
//Storyboard Layer 1 (Fail)
//Storyboard Layer 2 (Pass)
//Storyboard Layer 3 (Foreground)
//Storyboard Sound Samples
//Background Colour Transformations
3,100,163,162,255

[TimingPoints]
5735.62726060826,348.837209302326,4,1,0,100,1,0
32419,-76.9230769230769,4,1,0,100,0,0
65733,-66.6666666666667,4,1,0,100,0,0
93640,-76.9230769230769,4,1,0,100,0,0
132710,-66.6666666666667,4,1,0,100,0,0
166113,-76.9230769230769,4,1,0,100,0,0
177363,-57.1428571428571,4,1,0,100,0,1
188526,-100,4,1,0,100,0,0

[HitObjects]
112,80,9921,5,0,0:0:0:0:
196,52,10270,2,0,P|252:48|288:56,1,80
272,140,10968,1,0,0:0:0:0:
276,228,11317,2,0,P|336:232|364:228,1,80
428,180,12014,1,0,0:0:0:0:
400,96,12363,1,0,0:0:0:0:
324,52,12712,6,0,L|232:52,1,80
276,136,13410,2,0,L|188:136,1,80
124,188,14107,1,0,0:0:0:0:
92,268,14456,1,0,0:0:0:0:
152,332,14805,2,0,P|208:336|240:332,1,80
316,308,15503,5,0,0:0:0:0:
264,236,15851,2,0,P|224:232|184:236,1,80
204,148,16549,2,0,P|164:144|124:148,1,80
156,232,17247,1,0,0:0:0:0:
212,300,17596,1,0,0:0:0:0:
300,308,17944,2,0,P|352:312|384:308,1,80
436,240,18642,5,0,0:0:0:0:
420,152,18991,1,0,0:0:0:0:
344,104,19340,2,0,P|352:160|344:196,1,80
284,240,20037,2,0,P|248:248|196:240,1,80
232,160,20735,2,0,P|192:156|144:164,1,80
224,64,26665,6,0,L|308:64,1,80,0|0,0:0|0:0,0:0:0:0:
268,144,27363,2,0,L|188:144,2,80,0|0|0,0:0|0:0|0:0,0:0:0:0:
344,188,28410,1,0,0:0:0:0:
344,276,28758,1,0,0:0:0:0:
260,308,29107,1,0,0:0:0:0:
176,280,29456,6,0,L|120:220,1,80
204,188,30154,2,0,L|260:248,1,80
324,184,30851,6,0,L|240:184,1,80
268,96,31549,2,0,L|188:96,1,80
80,148,32247,5,0,0:0:0:0:
56,260,32596,2,0,P|68:324|108:368,1,103.999995239258
204,360,33293,1,0,0:0:0:0:
320,360,33642,2,0,L|436:360,1,103.999995239258
364,264,34340,2,0,L|480:264,1,103.999995239258
412,144,35037,5,0,0:0:0:0:
320,76,35386,2,0,P|268:68|208:76,1,103.999995239258
132,148,36084,1,0,0:0:0:0:
212,232,36433,2,0,P|272:240|328:228,2,103.999995239258,0|0|0,0:0|0:0|0:0,0:0:0:0:
132,148,37479,2,0,P|96:208|88:256,1,103.999995239258
12,156,38177,6,0,P|28:112|72:60,1,103.999995239258
172,28,38875,1,0,0:0:0:0:
284,56,39223,2,0,P|316:76|336:100,4,51.999997619629,0|0|0|0|0,0:0|0:0|0:0|0:0|0:0,0:0:0:0:
168,44,40270,2,0,P|112:48|60:60,1,103.999995239258
12,160,40968,1,0,0:0:0:0:
76,256,41317,1,0,0:0:0:0:
188,276,41665,1,0,0:0:0:0:
276,200,42014,6,0,L|276:312,1,103.999995239258
360,224,42712,2,0,L|360:328,1,103.999995239258,0|0,0:0|0:0,0:0:0:0:
256,192,43410,12,0,45851,0:0:0:0:
256,172,46200,6,0,P|328:180|364:196,1,103.999995239258
252,240,46898,2,0,P|184:228|136:200,1,103.999995239258
92,116,47596,1,0,0:0:0:0:
152,20,47944,1,0,0:0:0:0:
268,16,48293,1,0,0:0:0:0:
328,116,48642,2,0,P|340:180|336:236,1,103.999995239258
252,292,49340,5,0,0:0:0:0:
164,216,49689,2,0,B|176:176|140:144|168:112,2,103.999995239258,0|0|0,0:0|0:0|0:0,0:0:0:0:
252,292,50735,1,0,0:0:0:0:
368,292,51084,1,0,0:0:0:0:
428,192,51433,2,0,P|364:180|312:192,1,103.999995239258
332,300,52130,6,0,P|280:304|212:292,1,103.999995239258
124,248,52828,1,0,0:0:0:0:
68,148,53177,2,0,P|112:164|164:204,1,103.999995239258
200,72,53875,2,0,P|244:88|296:124,1,103.999995239258
392,172,54572,5,0,0:0:0:0:
392,172,54921,1,0,0:0:0:0:
392,172,55270,1,0,0:0:0:0:
392,172,55619,1,0,0:0:0:0:
392,172,55968,1,0,0:0:0:0:
392,172,56317,1,0,0:0:0:0:
392,288,56665,2,0,P|312:308|272:300,2,103.999995239258,0|0|0,0:0|0:0|0:0,0:0:0:0:
392,288,57712,5,0,0:0:0:0:
392,288,58061,1,0,0:0:0:0:
392,288,58410,1,0,0:0:0:0:
392,288,58758,1,0,0:0:0:0:
392,288,59107,1,0,0:0:0:0:
472,208,59456,2,0,P|504:256|508:316,2,103.999995239258,0|0|0,0:0|0:0|0:0,0:0:0:0:
472,208,60503,5,0,0:0:0:0:
472,208,60851,1,0,0:0:0:0:
472,208,61200,1,0,0:0:0:0:
472,208,61549,1,0,0:0:0:0:
472,208,61898,1,0,0:0:0:0:
404,116,62247,2,0,P|344:108|296:120,2,103.999995239258,0|0|0,0:0|0:0|0:0,0:0:0:0:
492,188,63293,2,0,P|504:248|496:300,1,103.999995239258
396,340,63991,6,0,L|272:340,1,103.999995239258
328,232,64689,1,0,0:0:0:0:
272,132,65037,2,0,P|208:120|160:136,1,103.999995239258
172,304,65735,6,0,P|240:320|304:300,1,120.000004577637
392,192,66433,1,0,0:0:0:0:
300,64,66782,2,0,P|236:56|172:72,1,120.000004577637
88,192,67479,1,0,0:0:0:0:
184,316,67828,1,0,0:0:0:0:
292,204,68177,2,0,P|212:160|172:160,1,120.000004577637
184,316,68875,5,0,0:0:0:0:
292,204,69223,1,0,0:0:0:0:
208,72,69572,1,0,0:0:0:0:
68,136,69921,1,0,0:0:0:0:
44,292,70270,1,0,0:0:0:0:
196,320,70619,2,0,P|268:324|328:304,1,120.000004577637
264,164,71317,6,0,P|344:148|396:156,1,120.000004577637
372,308,72014,1,0,0:0:0:0:
220,336,72363,1,0,0:0:0:0:
88,252,72712,2,0,P|80:184|92:128,1,120.000004577637
208,40,73410,1,0,0:0:0:0:
328,140,73758,2,0,P|336:196|328:276,1,120.000004577637
184,304,74456,5,0,0:0:0:0:
180,148,74805,1,0,0:0:0:0:
336,140,75154,1,0,0:0:0:0:
232,256,75503,1,0,0:0:0:0:
88,192,75851,1,0,0:0:0:0:
196,80,76200,2,0,P|272:56|320:60,1,120.000004577637
428,164,76898,6,0,P|376:196|300:196,1,120.000004577637
280,48,77596,1,0,0:0:0:0:
392,156,77944,2,0,P|340:188|264:188,1,120.000004577637
140,128,78642,1,0,0:0:0:0:
280,48,78991,1,0,0:0:0:0:
288,204,79340,2,0,P|280:288|256:328,1,120.000004577637
108,292,80037,5,0,0:0:0:0:
64,144,80386,1,0,0:0:0:0:
220,164,80735,1,0,0:0:0:0:
320,284,81084,1,0,0:0:0:0:
220,164,81433,1,0,0:0:0:0:
312,36,81782,2,0,P|392:28|444:36,1,120.000004577637
352,168,82479,6,0,P|364:240|344:296,1,120.000004577637
200,240,83177,2,0,P|132:248|68:224,1,120.000004577637
164,100,83875,2,0,P|248:96|300:112,1,120.000004577637
196,236,84572,2,0,P|124:236|64:212,1,120.000004577637
96,64,85270,5,0,0:0:0:0:
252,40,85619,1,0,0:0:0:0:
364,148,85968,1,0,0:0:0:0:
336,300,86317,1,0,0:0:0:0:
188,348,86665,1,0,0:0:0:0:
88,228,87014,1,0,0:0:0:0:
124,76,87363,2,0,P|208:60|380:72,1,240.000009155274
