osu file format v12

[General]
AudioFilename: loginscreenintro.mp3
AudioLeadIn: 0
PreviewTime: 60800
Countdown: 0
SampleSet: None
StackLeniency: 0.7
Mode: 0
LetterboxInBreaks: 1

[Editor]
Bookmarks: 3200,8800,9600,10400,11200,12000,15200,28000,44800,48000,48400,50200,50600,54000,54700,57200,60000,61200,63200,63600,67600,70000,74600,86400,118800,121600
DistanceSpacing: 1
BeatDivisor: 1
GridSize: 8

[Metadata]
Title:Here Comes Vi
TitleUnicode:Here Comes Vi
Artist:Nicki Taylor
ArtistUnicode:Nicki Taylor
Creator:Jedi515
Version:Vault Breaker
Source:League of Legends
Tags:lol riot games hue piltover hextech demacia noxus
BeatmapID:265178
BeatmapSetID:83906

[Difficulty]
HPDrainRate:2
CircleSize:2
OverallDifficulty:2
ApproachRate:3
SliderMultiplier:0.800000005960464
SliderTickRate:1

[Events]
//Background and Video events
0,0,"Vi_Splash_1.jpg",0,0
//Break Periods
2,45000,46960
2,77400,84960
2,112199,122760
//Storyboard Layer 0 (Background)
//Storyboard Layer 1 (Fail)
//Storyboard Layer 2 (Pass)
//Storyboard Layer 3 (Foreground)
//Storyboard Sound Samples
//Background Colour Transformations
3,100,163,162,255

[TimingPoints]
3200,400,4,2,0,50,1,0
28600,-100,4,3,0,80,0,0
41600,-100,4,3,0,80,0,0
47600,-100,4,3,0,80,0,0
60800,-100,4,3,0,80,0,1
72800,-100,4,3,0,80,0,0
86400,-133.333333333333,4,3,0,80,0,0
102000,-100,4,3,0,80,0,0
125200,-100,4,3,0,80,0,1
137600,-133.333333333333,4,3,0,80,0,0
150000,-100,4,3,0,80,0,0

[Colours]
Combo1 : 255,192,0
Combo2 : 232,196,102
Combo3 : 164,53,0
Combo4 : 0,0,85

[HitObjects]
96,80,3200,2,0,B|64:120|128:200|96:248,1,160.000001192093
160,288,4400,1,0,0:0:0:0:
224,240,4800,2,0,B|250:204|186:124|218:84,1,160.000001192093
288,40,6000,1,0,0:0:0:0:
352,88,6400,2,0,B|320:128|384:208|352:256,1,160.000001192093
416,312,7600,5,0,0:0:0:0:
344,344,8000,2,0,P|264:360|176:336,2,160.000001192093
416,296,10000,2,0,P|424:256|416:216,2,80.0000005960464
336,248,11200,2,0,P|256:224|176:256,1,160.000001192093
136,312,12400,1,0,0:0:0:0:
72,264,12800,6,0,P|48:200|80:112,1,160.000001192093
144,64,14000,1,0,0:0:0:0:
224,64,14400,1,0,0:0:0:0:
304,64,14800,2,0,L|304:112,2,40.0000002980232
392,64,15600,5,0,0:0:0:0:
432,136,16000,2,0,P|456:232|416:304,1,160.000001192093
360,320,17200,1,0,0:0:0:0:
272,320,17600,1,0,0:0:0:0:
184,320,18000,1,0,0:0:0:0:
104,320,18400,6,0,B|56:224|56:264|112:168,1,160.000001192093
152,112,19600,1,0,0:0:0:0:
216,168,20000,2,0,B|280:216|280:216|344:168,1,160.000001192093
408,112,21200,1,0,0:0:0:0:
464,56,21600,1,0,0:0:0:0:
480,136,22000,6,0,P|488:232|456:304,1,160.000001192093
384,264,23200,1,0,0:0:0:0:
328,328,23600,2,0,B|248:280|248:280|216:336|216:336|136:288,1,240.000001788139
72,232,25200,1,0,0:0:0:0:
72,144,25600,1,0,0:0:0:0:
128,72,26000,2,0,B|192:120|192:120|256:72,1,160.000001192093
352,64,27200,5,0,0:0:0:0:
400,128,27600,2,0,P|432:104|488:112,2,80.0000005960464
408,208,28800,1,0,0:0:0:0:
400,288,29200,1,0,0:0:0:0:
320,296,29600,2,0,P|280:312|240:296,1,80.0000005960464
168,288,30400,2,0,P|128:272|112:232,1,80.0000005960464
104,160,31200,2,0,P|120:128|168:104,1,80.0000005960464
208,40,32000,5,0,0:0:0:0:
288,40,32400,1,0,0:0:0:0:
352,88,32800,2,0,P|328:192|384:256,1,160.000001192093
416,288,34000,1,0,0:0:0:0:
416,288,34400,1,0,0:0:0:0:
328,304,34800,6,0,P|256:320|152:288,1,160.000001192093
112,248,36000,1,0,0:0:0:0:
176,208,36400,2,0,P|264:224|344:200,1,160.000001192093
368,136,37600,1,0,0:0:0:0:
368,56,38000,6,0,L|248:56,2,80.0000005960464
448,56,39200,1,0,0:0:0:0:
448,136,39600,2,0,L|448:232,2,80.0000005960464
448,56,40800,1,0,0:0:0:0:
256,192,41600,12,0,44800,0:0:0:0:
80,48,48400,6,0,B|160:48|160:48|160:128|160:128|240:128,1,240.000001788139
320,128,50000,1,0,0:0:0:0:
320,48,50400,1,0,0:0:0:0:
400,48,50800,2,0,L|400:208,1,160.000001192093
400,288,52000,1,0,0:0:0:0:
320,288,52400,2,0,B|240:288|240:288|240:208|240:208|160:208,1,240.000001788139
160,288,54000,2,0,L|64:288,1,80.0000005960464
72,208,54800,6,0,P|64:136|80:40,1,160.000001192093
160,48,56000,1,0,0:0:0:0:
240,48,56400,2,0,P|248:112|240:216,1,160.000001192093
176,256,57600,1,0,0:0:0:0:
176,336,58000,2,0,P|248:344|336:336,1,160.000001192093
336,256,59200,1,0,0:0:0:0:
416,256,59600,2,0,P|424:216|416:176,1,80.0000005960464
400,96,60400,6,0,L|440:96,2,40.0000002980232
336,48,61200,1,0,0:0:0:0:
256,32,61600,1,0,0:0:0:0:
176,24,62000,2,0,B|96:48|96:48|64:120,1,160.000001192093
40,192,63200,1,0,0:0:0:0:
120,192,63600,6,0,L|120:248,2,40.0000002980232
200,192,64400,1,0,0:0:0:0:
200,192,64800,1,0,0:0:0:0:
200,192,65200,1,0,0:0:0:0:
200,192,65600,1,0,0:0:0:0:
200,272,66000,2,0,L|288:272,1,80.0000005960464
360,272,66800,5,0,0:0:0:0:
416,216,67200,1,0,0:0:0:0:
424,136,67600,2,0,B|424:96|424:96|384:72,1,80.0000005960464
312,72,68400,2,0,B|280:96|280:96|272:136,1,80.0000005960464
312,208,69200,2,0,B|352:224|352:224|400:208,1,80.0000005960464
368,136,70000,5,0,0:0:0:0:
368,56,70400,2,0,L|408:56,2,40.0000002980232
288,56,71200,1,0,0:0:0:0:
288,136,71600,2,0,L|232:136,2,40.0000002980232
288,216,72400,1,0,0:0:0:0:
288,296,72800,2,0,L|384:296,2,80.0000005960464
256,192,74000,12,0,77200,0:0:0:0:
88,88,86400,6,0,B|74:129|99:173|88:208,1,120.000005471707
88,328,88000,1,0,0:0:0:0:
208,328,88800,1,0,0:0:0:0:
328,328,89600,2,0,B|369:341|413:316|448:328,1,120.000005471707
440,208,91200,5,0,0:0:0:0:
440,88,92000,1,0,0:0:0:0:
328,48,92800,2,0,B|272:32|272:32|200:48,1,120.000005471707
120,128,94400,1,0,0:0:0:0:
48,224,95200,1,0,0:0:0:0:
80,336,96000,6,0,P|160:352|216:336,1,120.000005471707
296,272,97600,1,0,0:0:0:0:
296,152,98400,2,0,P|272:96|296:32,2,120.000005471707
376,240,100800,1,0,0:0:0:0:
288,320,101600,1,0,0:0:0:0:
256,192,102400,5,0,0:0:0:0:
256,192,102800,1,0,0:0:0:0:
256,192,103200,1,0,0:0:0:0:
324,159,103600,2,0,P|260:127|180:167,1,160.000001192093
176,296,105200,6,0,L|176:360,2,40.0000002980232
256,272,106000,2,0,L|336:272,1,80.0000005960464
392,216,106800,2,0,P|384:160|304:104,1,160.000001192093
232,64,108000,1,0,0:0:0:0:
160,104,108400,6,0,P|96:152|80:232,2,160.000001192093
232,72,110400,2,0,L|232:152,1,80.0000005960464
232,232,111200,1,0,0:0:0:0:
232,312,111600,2,0,L|232:360,2,40.0000002980232
120,80,124200,6,0,L|72:80,3,40.0000002980232
64,184,125200,2,0,P|80:240|160:320,1,160.000001192093
200,248,126400,1,0,0:0:0:0:
256,312,126800,2,0,P|344:264|384:216,1,160.000001192093
328,160,128000,1,0,0:0:0:0:
384,104,128400,2,0,L|472:104,4,80.0000005960464
272,112,130800,1,0,0:0:0:0:
160,112,131600,6,0,L|88:48,2,80.0000005960464
160,256,133200,2,0,L|96:312,2,80.0000005960464
304,256,134800,2,0,L|376:320,2,80.0000005960464
304,112,136400,2,0,L|368:48,2,80.0000005960464
216,176,138000,5,0,0:0:0:0:
160,48,138800,2,0,P|88:88|64:136,1,120.000005471707
72,224,140400,2,0,P|112:288|176:304,1,120.000005471707
272,304,142000,2,0,P|344:280|400:224,1,120.000005471707
392,136,143600,2,0,P|352:72|272:56,1,120.000005471707
224,64,145200,6,0,L|224:128,2,60.0000027358533
120,56,146800,2,0,L|16:56,2,60.0000027358533
120,160,148400,2,0,L|64:208,2,60.0000027358533
200,168,149600,2,0,L|280:168,1,60.0000027358533
336,184,150400,6,0,L|336:272,2,80.0000005960464
336,104,151600,2,0,L|424:104,2,80.0000005960464
256,104,152800,2,0,L|176:104,2,80.0000005960464
256,192,154000,12,0,156800,0:0:0:0:
