osu file format v12

[General]
AudioFilename: loginscreenintro.mp3
AudioLeadIn: 0
PreviewTime: 60800
Countdown: 0
SampleSet: None
StackLeniency: 0.2
Mode: 0
LetterboxInBreaks: 1

[Editor]
Bookmarks: 8800,9600,10400,11200,12000,15200,28000,44800,48000,48400,50200,50600,54000,54700,57200,60000,61200,63200,63600,67600,70000,74600,86400,118800,121600
DistanceSpacing: 1
BeatDivisor: 4
GridSize: 32

[Metadata]
Title:Here Comes Vi
TitleUnicode:Here Comes Vi
Artist:Nicki Taylor
ArtistUnicode:Nicki Taylor
Creator:Jedi515
Version:Excessive Force
Source:League of Legends
Tags:lol riot games hue piltover hextech demacia noxus
BeatmapID:231454
BeatmapSetID:83906

[Difficulty]
HPDrainRate:5
CircleSize:4
OverallDifficulty:5
ApproachRate:7
SliderMultiplier:1.5
SliderTickRate:2

[Events]
//Background and Video events
0,0,"Vi_Splash_1.jpg",0,0
//Break Periods
2,74800,84100
2,141000,143100
//Storyboard Layer 0 (Background)
//Storyboard Layer 1 (Fail)
//Storyboard Layer 2 (Pass)
//Storyboard Layer 3 (Foreground)
//Storyboard Sound Samples
//Background Colour Transformations
3,100,163,162,255

[TimingPoints]
3200,400,4,2,0,70,1,0
21100,-200,4,3,0,70,0,0
21700,-100,4,3,1,70,0,0
28600,-100,4,3,0,70,0,0
38000,-76.9230769230769,4,3,0,70,0,0
39900,-100,4,3,0,70,0,0
41600,-100,4,3,0,70,0,0
47600,-100,4,3,0,70,0,0
60800,-100,4,3,0,70,0,1
65700,-71.4285714285714,4,3,0,70,0,0
66300,-100,4,3,0,70,0,0
72800,-100,4,3,0,70,0,0
86400,-100,4,3,0,70,0,0
93500,-100,4,3,0,70,0,0
100100,-133.333333333333,4,3,0,70,0,0
105200,-100,4,3,0,70,0,0
125200,-100,4,3,0,70,0,1
140800,-100,4,3,0,70,0,0
152800,-50,4,3,0,70,0,0

[Colours]
Combo1 : 255,192,0
Combo2 : 232,196,102
Combo3 : 164,53,0
Combo4 : 0,0,85

[HitObjects]
256,192,2000,12,0,3200,0:0:0:0:
112,160,4000,5,0,0:0:0:0:
136,104,4200,2,0,P|160:72|200:56,1,75
256,48,4600,1,0,0:0:0:0:
312,56,4800,2,0,P|348:80|368:112,1,75
400,156,5200,2,0,P|408:192|396:236,1,75
372,284,5600,1,0,0:0:0:0:
320,320,5800,1,0,0:0:0:0:
264,328,6000,2,0,P|224:336|180:324,1,75
144,288,6400,1,0,0:0:0:0:
104,240,6600,5,0,0:0:0:0:
72,192,6800,2,0,P|56:160|72:128,1,75
112,80,7200,1,0,0:0:0:0:
160,112,7400,2,0,P|192:128|224:112,1,75
264,64,7800,1,0,0:0:0:0:
304,112,8000,1,0,0:0:0:0:
296,168,8200,2,0,L|216:192,1,75
160,160,8600,1,0,0:0:0:0:
112,96,8800,6,0,L|112:0,2,75
184,96,9400,1,0,0:0:0:0:
256,96,9600,2,0,L|256:192,2,75
328,96,10200,1,0,0:0:0:0:
400,96,10400,2,0,L|488:96,2,75
384,168,11000,1,0,0:0:0:0:
360,232,11200,2,0,L|360:336,2,75
288,232,11800,5,0,0:0:0:0:
288,160,12000,1,0,0:0:0:0:
216,160,12200,1,0,0:0:0:0:
216,232,12400,1,0,0:0:0:0:
256,192,12600,12,0,15000,0:0:0:0:
56,248,15400,6,0,L|120:184,1,75
72,152,15800,1,0,0:0:0:0:
104,120,16000,1,0,0:0:0:0:
152,152,16200,2,0,L|208:96,1,75
256,96,16600,1,0,0:0:0:0:
312,72,16800,2,0,B|392:56|336:176|448:136,1,150
436,200,17400,1,0,0:0:0:0:
436,260,17600,2,0,B|368:245|404:373|308:353,1,150
272,352,18200,2,0,B|203:370|239:242|171:257,1,150
131,203,18800,5,0,0:0:0:0:
128,148,19000,1,0,0:0:0:0:
136,96,19200,2,0,P|174:78|220:85,1,75
272,88,19600,2,0,P|350:86|368:144,1,150
376,208,20200,2,0,P|316:259|241:240,1,150
184,232,20800,6,0,L|112:208,1,75
80,200,21200,2,0,L|80:112,1,75
80,64,21800,5,0,0:0:0:0:
79,64,22000,1,0,0:0:0:0:
80,64,22200,2,0,L|168:64,1,75
217,64,22600,1,0,0:0:0:0:
216,64,22800,2,0,L|304:64,1,75
352,64,23200,1,0,0:0:0:0:
352,64,23400,2,0,L|352:144,1,75
352,200,23800,6,0,L|352:288,1,75
288,288,24200,2,0,L|288:208,1,75
224,224,24600,2,0,L|224:312,1,75
160,304,25000,2,0,L|160:216,1,75
64,72,25600,5,0,0:0:0:0:
128,72,25800,2,0,L|128:128,2,37.5
192,72,26200,2,0,L|192:24,2,37.5
256,72,26600,6,0,P|312:32|376:72,1,150
432,96,27200,2,0,P|376:136|312:88,1,150
248,96,27800,1,0,0:0:0:0:
112,144,28200,6,0,L|112:224,2,75,0|8|0,0:0|0:0|0:0,0:0:0:0:
176,144,28800,2,0,L|176:224,2,75,0|8|0,0:0|0:0|0:0,0:0:0:0:
176,144,29400,2,0,L|176:96,2,37.5
224,144,29800,2,0,L|224:184,2,37.5
224,144,30200,6,0,P|240:72|320:72,1,150
312,64,30800,1,8,0:0:0:0:
312,72,31000,2,0,L|312:152,2,75
320,64,31600,1,8,0:0:0:0:
360,64,31800,1,0,0:0:0:0:
392,64,32000,6,0,L|392:152|392:136,1,75
392,139,32400,1,8,0:0:0:0:
392,144,32600,2,0,P|336:256|240:248,1,225
248,256,33400,2,0,L|248:176,2,75,8|0|0,0:0|0:0|0:0,0:0:0:0:
176,256,34000,1,8,0:0:0:0:
104,256,34200,1,0,0:0:0:0:
64,48,34600,5,8,0:0:0:0:
124,48,34800,1,0,0:0:0:0:
184,48,35000,2,0,P|256:20|328:56,1,150
368,48,35600,1,8,0:0:0:0:
336,112,35800,6,0,L|416:112,4,75
368,176,36800,2,0,P|256:216|152:160,2,225,8|0|0,0:0|0:0|0:0,0:0:0:0:
216,40,38400,5,0,0:0:0:0:
296,40,38600,1,0,0:0:0:0:
304,120,38800,2,0,L|200:120,1,97.4999955368044
216,200,39200,1,0,0:0:0:0:
296,200,39400,1,0,0:0:0:0:
304,280,39600,2,0,L|200:280,1,97.4999955368044,0|0,0:0|0:0,0:0:0:0:
112,244,40000,6,0,P|200:196|216:132,1,150
216,88,40600,1,0,0:0:0:0:
280,88,40800,1,0,0:0:0:0:
280,152,41000,2,0,L|280:192,2,37.5
344,120,41400,1,0,0:0:0:0:
256,192,41600,12,0,44800,0:0:0:0:
256,344,45200,5,0,0:0:0:0:
256,312,45400,1,0,0:0:0:0:
288,256,45600,2,8,L|312:224,1,37.5,8|8,0:0|0:0,0:0:0:0:
224,216,45900,2,8,L|200:184,1,37.5,8|8,0:0|0:0,0:0:0:0:
288,168,46200,2,8,L|312:136,1,37.5,8|8,0:0|0:0,0:0:0:0:
224,128,46500,2,8,L|200:96,1,37.5,8|8,0:0|0:0,0:0:0:0:
288,80,46800,2,0,L|288:40,3,37.5,0|0|0|0,0:0|0:0|0:0|0:0,0:0:0:0:
224,40,47200,2,0,L|224:80,3,37.5,0|0|0|0,0:0|0:0|0:0|0:0,0:0:0:0:
160,80,47600,2,0,L|160:40,4,37.5,0|0|0|0|0,0:0|0:0|0:0|0:0|0:0,0:0:0:0:
88,120,48400,6,0,L|136:56,1,75,0|8,0:0|0:0,0:0:0:0:
208,64,48800,2,0,L|160:128,1,75
232,128,49200,2,0,L|280:64,1,75,0|8,0:0|0:0,0:0:0:0:
352,64,49600,2,0,L|304:128,1,75
376,128,50000,2,0,L|424:64,1,75,0|8,0:0|0:0,0:0:0:0:
392,224,50600,6,0,L|344:288,2,75,0|0|8,0:0|0:0|0:0,0:0:0:0:
328,224,51200,2,0,L|280:288,2,75,0|0|8,0:0|0:0|0:0,0:0:0:0:
264,224,51800,2,0,L|216:288,2,75,0|0|8,0:0|0:0|0:0,0:0:0:0:
200,216,52400,2,0,L|152:280,2,75,0|0|8,0:0|0:0|0:0,0:0:0:0:
128,192,53000,2,0,B|352:256|360:96|256:0|152:96|160:256|384:192,1,525
184,224,54800,6,0,P|168:200|192:152,1,75
224,112,55200,2,8,P|264:96|296:128,1,75
328,160,55600,2,0,P|344:200|320:232,1,75
288,280,56000,2,0,P|256:296|224:280,1,75,0|8,0:0|0:0,0:0:0:0:
224,216,56400,1,0,0:0:0:0:
288,160,56600,1,8,0:0:0:0:
120,48,57200,5,8,0:0:0:0:
168,152,57600,2,0,P|216:216|288:216,1,150
384,200,58400,2,0,L|384:120,1,75,8|0,0:0|0:0,0:0:0:0:
368,64,58800,1,0,0:0:0:0:
312,96,59000,1,8,0:0:0:0:
256,136,59200,2,0,L|256:288,2,150
256,64,60200,5,8,0:0:0:0:
184,112,60400,1,8,0:0:0:0:
328,112,60600,1,8,0:0:0:0:
255,161,60800,1,8,0:0:0:0:
112,40,61200,6,0,P|72:64|56:160,1,150,0|8,0:0|0:0,0:0:0:0:
48,224,61800,2,0,P|56:296|120:336,1,150,0|8,0:0|0:0,0:0:0:0:
168,296,62400,2,0,B|168:224|168:224|192:264|192:264|192:48,1,300,0|8,0:0|0:0,0:0:0:0:
256,48,63600,6,0,L|256:136,1,75
256,192,64000,1,8,0:0:0:0:
256,184,64400,1,0,0:0:0:0:
256,176,64800,1,8,0:0:0:0:
256,168,65200,1,0,0:0:0:0:
256,160,65600,1,8,0:0:0:0:
328,192,65800,6,0,P|256:256|184:176,1,209.999993591309
256,192,66800,1,2,0:0:0:0:
120,72,67600,5,0,0:0:0:0:
184,72,68000,2,0,P|264:48|344:80,1,150
400,72,68600,1,0,0:0:0:0:
400,144,68800,2,0,P|424:224|376:264,1,150
320,304,69400,2,0,P|240:328|176:280,1,150
176,224,70000,1,0,0:0:0:0:
192,136,70400,5,0,0:0:0:0:
256,48,70600,1,0,0:0:0:0:
320,136,70800,1,0,0:0:0:0:
256,120,71600,2,0,B|248:128|248:128|264:128|264:128|248:136|248:136|264:136|264:136|248:144|248:144|264:144|264:144|256:152|256:152|256:248,1,150
328,272,72800,1,0,0:0:0:0:
184,272,73200,1,0,0:0:0:0:
248,184,73600,2,0,B|216:128|248:112|323:84|368:176|355:238|270:295|208:272|168:200,1,375
256,192,85000,12,0,86400,0:0:0:0:
146,86,87200,6,0,B|208:192|232:80|253:0|280:80|312:192|381:87,1,300
400,192,88400,1,8,0:0:0:0:
381,296,88800,2,0,B|312:192|280:303|253:383|232:304|208:192|146:297,1,300
144,304,90400,2,0,P|64:192|160:48,1,300
256,192,91600,1,8,0:0:0:0:
368,304,92000,2,0,P|448:192|360:80,1,300
128,80,93600,6,0,B|128:128|128:128|152:160|152:160|104:192|104:192|152:224|152:224|128:256|128:256|128:320,1,300
256,192,94800,1,0,0:0:0:0:
384,312,95200,2,0,B|384:256|384:256|360:224|360:224|408:192|408:192|360:160|360:160|384:128|384:128|384:80,1,300
136,80,96800,2,0,B|192:32|192:32|256:96|320:32|320:32|384:80,1,300
256,192,98000,1,0,0:0:0:0:
384,304,98400,2,0,B|320:352|320:352|256:288|192:352|192:352|136:304,1,300
88,64,100200,6,0,P|120:56|152:64,1,56.2500021457673
208,64,100600,1,0,0:0:0:0:
272,64,100800,1,0,0:0:0:0:
336,64,101000,1,0,0:0:0:0:
440,64,101400,6,0,L|440:176,1,112.500004291535,0|0,0:0|0:0,0:0:0:0:
440,176,102000,1,0,0:0:0:0:
256,192,102400,5,0,0:0:0:0:
256,192,102800,1,0,0:0:0:0:
208,304,103200,2,0,P|272:328|304:304,1,112.500004291535
336,272,103800,1,0,0:0:0:0:
376,224,104000,2,0,P|392:208|384:176,1,56.2500021457673
352,128,104400,1,0,0:0:0:0:
312,88,104600,1,0,0:0:0:0:
80,64,105200,6,0,L|80:216,1,150
184,224,106000,2,0,L|184:144,1,75,0|0,0:0|0:0,0:0:0:0:
288,152,106600,2,0,L|288:232,1,75
344,224,107000,1,0,0:0:0:0:
400,224,107200,2,0,L|400:144,2,75
456,224,107800,1,0,0:0:0:0:
216,288,108400,5,0,0:0:0:0:
152,288,108600,1,0,0:0:0:0:
88,288,108800,2,0,P|48:232|88:168,1,150
152,168,109400,1,0,0:0:0:0:
256,184,109800,2,0,L|272:272,1,75
320,128,110400,1,0,0:0:0:0:
320,128,110600,1,0,0:0:0:0:
232,112,111000,6,0,L|168:176,2,75
280,272,111600,2,0,L|336:216,2,75
416,224,112400,5,0,0:0:0:0:
400,160,112600,2,0,P|352:96|288:56,1,150
216,56,113200,2,0,P|144:96|112:168,1,150
113,165,113800,2,0,L|112:240,2,75
288,160,114600,6,0,L|344:104,2,75
288,224,115200,2,0,L|352:280,2,75
224,224,115800,2,0,L|168:280,2,75
224,160,116400,2,0,L|168:104,2,75
256,192,117000,1,0,0:0:0:0:
256,192,117400,1,0,0:0:0:0:
256,136,117800,6,0,L|256:80|256:40,2,75
208,184,118400,1,0,0:0:0:0:
64,152,118800,5,0,0:0:0:0:
56,80,119000,1,0,0:0:0:0:
128,64,119200,2,0,B|160:56|184:80|208:64,1,75
280,56,119600,1,0,0:0:0:0:
352,40,119800,1,0,0:0:0:0:
416,80,120000,2,0,B|432:96|400:128|416:160,1,75
416,224,120400,1,0,0:0:0:0:
408,296,120600,2,0,B|376:320|304:256|248:304,1,150
200,336,121200,1,0,0:0:0:0:
400,72,121600,5,0,0:0:0:0:
328,72,122000,2,0,L|168:72,1,150
104,72,122800,2,0,L|104:160,1,75
96,224,123200,1,0,0:0:0:0:
168,224,123400,2,0,L|328:224,1,150
376,176,124000,1,0,0:0:0:0:
368,104,124200,2,0,L|272:104,3,75
64,80,125200,6,0,P|120:56|208:80,1,150
256,24,125800,1,0,0:0:0:0:
304,80,126000,2,0,P|392:56|448:88,1,150
432,152,126600,1,0,0:0:0:0:
360,128,126800,2,0,P|296:160|224:112,1,150
136,120,127600,1,0,0:0:0:0:
64,136,127800,1,0,0:0:0:0:
208,136,128000,1,0,0:0:0:0:
248,192,128400,5,0,0:0:0:0:
248,192,128800,1,0,0:0:0:0:
248,192,129200,2,0,P|336:176|400:196,1,150
468,196,129800,1,0,0:0:0:0:
468,272,130000,1,0,0:0:0:0:
392,280,130200,2,0,P|335:296|247:280,1,150
180,252,130800,1,0,0:0:0:0:
80,96,131600,6,0,B|72:112|72:112|88:120|88:120|72:128|72:128|88:136|88:136|72:144|72:144|88:152|88:152|80:160|80:160|80:216,1,150
136,248,132200,1,0,0:0:0:0:
152,232,132300,1,0,0:0:0:0:
168,216,132400,2,0,L|232:136,1,75
248,112,132800,1,0,0:0:0:0:
304,112,133000,1,0,0:0:0:0:
328,136,133100,1,0,0:0:0:0:
352,168,133200,2,0,L|416:248,1,75
256,304,134000,5,2,0:0:0:0:
200,240,134400,2,0,L|144:176,2,75
256,304,135200,1,2,0:0:0:0:
304,240,135600,2,0,L|360:184,2,75
256,192,136400,1,2,0:0:0:0:
128,96,136800,6,0,P|152:72|200:64,1,75
320,62,137200,2,0,P|360:72|384:96,1,75
256,192,137600,12,0,140800,0:0:0:0:
80,88,144000,6,0,L|184:88,1,75
208,88,144400,1,8,0:0:0:0:
80,152,144800,2,0,L|160:152,1,75
208,152,145200,1,8,0:0:0:0:
80,216,145600,2,0,L|168:216,1,75
208,216,146000,1,8,0:0:0:0:
80,280,146400,2,0,L|168:280,1,75
208,280,146800,1,8,0:0:0:0:
432,280,147200,6,0,L|344:280,1,75
296,280,147600,1,8,0:0:0:0:
432,216,148000,2,0,L|352:216,1,75
296,216,148400,1,8,0:0:0:0:
432,152,148800,2,0,L|336:152,1,75
296,152,149200,1,8,0:0:0:0:
432,88,149600,2,0,L|344:88,1,75
296,88,150000,1,8,0:0:0:0:
112,88,150400,5,0,0:0:0:0:
120,80,150500,1,0,0:0:0:0:
128,72,150600,1,0,0:0:0:0:
192,88,150800,1,0,0:0:0:0:
168,120,151000,1,0,0:0:0:0:
144,152,151200,1,0,0:0:0:0:
328,112,151600,6,0,L|328:168,2,37.5
272,72,152000,1,0,0:0:0:0:
328,32,152200,1,0,0:0:0:0:
384,72,152400,1,0,0:0:0:0:
160,288,152800,2,0,B|320:352|384:224|256:96|128:224|192:352|352:288,1,450
256,192,153600,12,0,156800,0:0:0:0:
